#TITLE:I LOVE SAKURA;
#SUBTITLE:;
#ARTIST:CHERRY BLOSSOM (ASAKI & wac);
#TITLETRANSLIT:;
#SUBTITLETRANSLIT:;
#ARTISTTRANSLIT:;
#GENRE:;
#CREDIT:;
#BANNER:I_LOVE_SAKURA_256x80.png;
#BACKGROUND:I LOVE SAKURA BG.png;
#LYRICSPATH:;
#CDTITLE:;
#MUSIC:I LOVE SAKURA.ogg;
#OFFSET:0.060000;
#SAMPLESTART:40.942070;
#SAMPLELENGTH:12.000000;
#SELECTABLE:YES;
#BPMS:0.000000=212.000000
;
#STOPS:
;
#BGCHANGES:;
#KEYSOUNDS:;
#ATTACKS:;

//---------------dance-single - ----------------
#NOTES:
     dance-single:
     :
     Hard:
     9:
     0.745931,0.664557,0.721915,0.425237,0.000000,412.000000,73.000000,43.000000,0.000000,0.000000,0.000000,0.745931,0.664557,0.721915,0.425237,0.000000,412.000000,73.000000,43.000000,0.000000,0.000000,0.000000:
0000
0000
0000
0000
,
0000
0000
0000
0000
,
0000
0000
0000
0000
,
0000
0000
0000
0000
,
0000
0000
1002
0000
0000
1000
1003
0000
,
0000
0000
2001
0000
0000
0001
3001
0000
,
0000
0000
1000
0010
0100
0001
0010
0100
,
1000
0010
0100
0001
1000
0001
1000
0000
,
0000
0000
2001
0000
3100
0000
0010
0001
,
0100
0010
1000
0000
1100
0000
0001
0000
,
0101
0000
0012
0000
1003
0000
0010
1000
,
0100
1000
0010
0000
1010
0000
0100
0000
,
0101
0012
1000
0100
,
0013
0012
1003
2010
,
3001
0000
0001
1000
0100
0010
0100
0010
,
0000
0110
0000
0100
0010
0100
0010
0001
,
1000
1002
0100
0100
,
0100
0100
0100
0100
,
0103
0120
1000
1000
,
1000
2030
0001
0001
,
3001
0000
1001
0000
1000
0100
0000
1000
,
0100
0000
1000
0010
0100
0001
0000
0100
,
0001
2001
0100
0100
,
0100
0100
0100
0100
,
3100
0120
0001
0001
,
0001
0032
1000
1000
,
1003
0000
1001
0000
0001
0100
0000
0001
,
0100
0000
0001
0010
0100
1000
0000
0100
,
1000
0000
1002
0000
0103
0000
0001
0010
,
0100
0000
1100
0000
1000
0010
0001
0010
,
1000
0000
2001
0000
3100
0000
1000
0010
,
0100
0000
0101
0000
0001
0010
1000
0010
,
0001
2001
0100
0010
,
3001
1002
0100
0010
,
1003
0102
1003
2100
,
3001
0012
1003
2010
,
3001
0000
1002
0000
0103
0000
0010
1000
,
0100
0010
0001
0000
0101
0000
1000
0000
,
1100
0000
2010
0000
3001
0000
0010
0001
,
0100
0001
0010
0000
0011
0000
0100
0000
,
1100
2010
0001
0100
,
3010
2010
3001
0012
,
1003
0000
1000
0001
0100
0010
0100
0010
,
0000
0110
0000
0100
0010
0100
0010
1000
,
0001
0000
2001
0000
3100
0000
0010
0001
,
0100
0010
1000
0000
1100
0000
0001
0000
,
0101
0000
0012
0000
1003
0000
0010
1000
,
0100
1000
0010
0000
1010
0000
0100
0000
,
0101
0012
1000
0100
,
0013
0012
1003
2010
,
3001
0000
0001
1000
0100
0010
0100
0010
,
0000
0110
0000
0100
0010
0100
0010
0001
,
1000
0100
0010
0000
0110
0000
0100
0010
,
0000
0110
0000
1002
0000
1000
1003
0000
,
0001
0100
0010
0000
0110
0000
0100
0010
,
0000
0110
0000
2001
0000
0001
3001
0000
,
1001
0000
1000
1000
0001
0001
0010
0100
,
0010
0100
1000
1000
0001
0001
0100
0010
,
0100
0010
1000
0100
0001
1000
0010
0001
,
1000
0010
0001
1000
0100
0001
1000
0001
,
1000
2002
0000
3003
,
0000
0202
0000
0303
,
0000
2002
0000
3003
,
0000
2200
0000
3300
,
0000
0000
2010
0000
0000
0001
3001
0000
,
0000
0000
0012
0000
0000
1000
1003
0000
,
0000
0000
1000
0010
0100
0001
0010
0100
,
1000
0010
0100
0001
0010
0100
1000
0000
,
0000
0000
0001
1000
0001
1000
0100
0010
,
0100
0010
0001
0100
0001
0100
0010
1000
,
0010
1000
0001
0010
1000
0010
0001
0010
,
1000
0010
0001
0100
1000
0100
0001
0100
,
1000
0100
0001
0010
0001
0010
0001
0100
,
0001
0100
0010
0100
0010
0100
0010
1000
,
0010
1000
0001
0010
0100
1000
0010
0100
,
0001
0010
0100
1000
0010
0100
0001
1000
,
0001
1000
0001
0000
0101
0000
0001
0000
,
0011
0001
0101
0001
,
0011
1000
1100
1000
,
1010
1000
1100
1000
,
1010
0000
0101
0000
0001
0010
1000
0010
,
0001
0000
1100
0000
1000
0010
0001
0010
,
1000
0000
1010
0000
1000
0100
0001
0100
,
1000
0000
0011
0000
0001
0100
1000
0100
,
0001
0000
0000
0000
;

//---------------dance-single - ----------------
#NOTES:
     dance-single:
     :
     Medium:
     6:
     0.483160,0.664557,0.524130,0.257120,0.000000,263.000000,53.000000,26.000000,0.000000,0.000000,0.000000,0.483160,0.664557,0.524130,0.257120,0.000000,263.000000,53.000000,26.000000,0.000000,0.000000,0.000000:
0000
0000
0000
0000
,
0000
0000
0000
0000
,
0000
0000
0000
0000
,
0000
0000
0000
0000
,
0000
0000
1002
0000
0000
1000
1003
0000
,
0000
0000
2001
0000
0000
0001
3001
0000
,
0000
1000
1000
0001
,
0001
1000
1000
1001
,
0000
1001
0000
0000
,
0001
0100
1000
0100
,
0001
1001
0000
0000
,
1000
0100
0001
0100
,
1000
1001
0000
0000
,
0001
0100
1000
0010
,
0001
1001
0000
0000
,
0000
0000
0000
0000
,
0000
2001
0001
0001
,
0001
0001
0001
0001
,
3001
1002
1000
1000
,
1000
1000
1000
1000
,
1003
2010
0100
0000
,
3100
0012
0100
0000
,
0103
1002
1000
1000
,
1000
1000
1000
1000
,
1003
2001
0001
0001
,
0001
0001
0001
0001
,
3001
0012
1000
0000
,
1003
2010
0001
0000
,
3001
0000
1000
0000
0100
0000
0010
0100
,
0010
0000
0001
0000
0100
0000
0010
0100
,
0010
0000
1000
0000
0100
0000
0001
0100
,
1000
0000
0001
0000
0100
0000
1000
0100
,
0001
2001
0100
0010
,
3001
1002
0100
0010
,
1003
2010
3001
0012
,
1003
2100
3001
0102
,
1003
1001
0000
0000
,
1000
0100
0001
0100
,
1000
1001
0000
0000
,
0001
0100
1000
0100
,
0001
1001
0000
0000
,
1000
0100
0001
0010
,
1000
1001
0000
0000
,
0000
0000
0000
0000
,
0000
1001
0000
0000
,
0001
0100
1000
0100
,
0001
1001
0000
0000
,
1000
0100
0001
0100
,
1000
1001
0000
0000
,
0001
0100
1000
0010
,
0001
1001
0000
0000
,
0000
0000
0000
0000
,
0000
0001
0100
0010
,
0000
0100
0000
0100
0000
0000
0010
0000
,
0000
1000
0100
0010
,
0000
0100
0000
0100
0000
0000
0010
0000
,
0000
0001
0001
1000
,
1000
0001
0001
1000
,
1000
0000
0001
0000
0000
0001
0000
0000
,
1000
0000
0000
1000
0000
0000
1001
0000
,
1001
2002
0000
3003
,
0000
2200
0000
3300
,
0000
2002
0000
3003
,
0000
0202
0000
0303
,
0000
0000
2010
0000
0000
0001
3001
0000
,
0000
0000
0012
0000
0000
1000
1003
0000
,
0000
0001
1000
0001
,
1000
0000
0001
1000
0001
1000
0001
0000
,
0000
0001
0100
0001
,
0100
0000
0001
0000
0100
0000
0001
0100
,
0001
1000
0100
1000
,
0100
0000
1000
0000
0100
0000
1000
0100
,
1000
0001
0010
0001
,
0010
0000
0001
0000
0010
0000
0001
0010
,
0001
1000
0010
1000
,
0010
0000
1000
0000
0010
0000
1000
0010
,
1000
0001
0101
0001
,
0011
0001
0101
0001
,
0011
1000
1100
1000
,
1010
1000
1100
1000
,
1010
0001
0101
0001
,
0011
0001
0101
0001
,
0011
1000
1100
1000
,
1010
1000
1100
1000
,
1010
0000
0000
0000
;

//---------------dance-single - ----------------
#NOTES:
     dance-single:
     :
     Easy:
     4:
     0.419586,0.498418,0.553797,0.217563,0.000000,219.000000,56.000000,22.000000,0.000000,0.000000,0.000000,0.419586,0.498418,0.553797,0.217563,0.000000,219.000000,56.000000,22.000000,0.000000,0.000000,0.000000:
// measure 0
0000
0000
0000
0000
,  // measure 1
0000
0000
0000
0000
,  // measure 2
0000
0000
0000
0000
,  // measure 3
0000
0000
0000
0000
,  // measure 4
0000
2001
0000
3001
,  // measure 5
0000
1002
0000
1003
,  // measure 6
0000
0001
0001
1000
,  // measure 7
1000
0001
0001
1001
,  // measure 8
0000
1001
0000
0000
,  // measure 9
1000
0100
0010
0001
,  // measure 10
0100
0101
0000
0000
,  // measure 11
0001
0100
0010
1000
,  // measure 12
0100
1100
0000
0000
,  // measure 13
1000
0100
0001
0010
,  // measure 14
1000
1001
0000
0000
,  // measure 15
0000
0000
0000
0000
,  // measure 16
0000
1002
1000
0000
,  // measure 17
1000
0000
1000
0000
,  // measure 18
1003
2001
0001
0000
,  // measure 19
0001
0000
0001
0000
,  // measure 20
3001
0102
0010
0000
,  // measure 21
0013
2100
0010
0000
,  // measure 22
3010
2001
0001
0000
,  // measure 23
0001
0000
0001
0000
,  // measure 24
3001
1002
1000
0000
,  // measure 25
1000
0000
1000
0000
,  // measure 26
1003
2100
0001
0000
,  // measure 27
3001
0102
1000
0000
,  // measure 28
1003
0001
0010
0100
,  // measure 29
1000
0001
1000
0001
,  // measure 30
0001
1000
0010
0100
,  // measure 31
0001
1000
0001
1000
,  // measure 32
1000
1002
1000
0000
,  // measure 33
1003
2001
0001
0000
,  // measure 34
3001
0101
0000
0011
,  // measure 35
0000
1100
0000
1010
,  // measure 36
0000
1001
0000
0000
,  // measure 37
0001
0100
0010
1000
,  // measure 38
0100
1100
0000
0000
,  // measure 39
1000
0100
0010
0001
,  // measure 40
0100
0101
0000
0000
,  // measure 41
0001
0100
1000
0010
,  // measure 42
0001
1001
0000
0000
,  // measure 43
0000
0000
0000
0000
,  // measure 44
0000
1001
0000
0000
,  // measure 45
1000
0100
0010
0001
,  // measure 46
0100
0101
0000
0000
,  // measure 47
0001
0100
0010
1000
,  // measure 48
0100
1100
0000
0000
,  // measure 49
1000
0100
0001
0010
,  // measure 50
1000
1001
0000
0000
,  // measure 51
0000
0000
0000
0000
,  // measure 52
0000
1000
0100
0010
,  // measure 53
0000
0100
0000
0100
0000
0000
0010
0000
,  // measure 54
0000
0001
0100
0010
,  // measure 55
0000
0100
0000
0100
0000
0000
0010
0000
,  // measure 56
0000
1000
0100
0010
,  // measure 57
0001
1000
0010
0100
,  // measure 58
0001
0000
1000
0000
0000
1000
0000
0000
,  // measure 59
0001
0000
0000
0001
0000
0000
1001
0000
,  // measure 60
1001
2002
0000
3003
,  // measure 61
0000
0022
0000
0033
,  // measure 62
0000
2002
0000
3003
,  // measure 63
0000
2020
0000
3030
,  // measure 64
0000
0102
0000
1003
,  // measure 65
0000
2100
0000
3001
,  // measure 66
0000
1000
0001
1000
,  // measure 67
0001
1001
1001
1001
,  // measure 68
0000
1000
0000
1000
,  // measure 69
0000
1000
0000
1000
,  // measure 70
1000
0001
0000
0001
,  // measure 71
0000
0001
0000
0001
,  // measure 72
0001
1000
0000
1000
,  // measure 73
0000
1000
0000
1000
,  // measure 74
1000
0001
0000
0001
,  // measure 75
0000
0001
0000
0001
,  // measure 76
0001
1000
1100
1000
,  // measure 77
1010
1000
1100
1000
,  // measure 78
1010
0001
0101
0001
,  // measure 79
0011
0001
0101
0001
,  // measure 80
0011
1000
1100
1000
,  // measure 81
1010
1000
1100
1000
,  // measure 82
1010
0001
0101
0001
,  // measure 83
0011
0001
0101
0001
,  // measure 84
0011
0000
0000
0000
;
