#TITLE:I FIGHT ME;
#SUBTITLE:;
#ARTIST:kobo feat. Marsha;
#TITLETRANSLIT:;
#SUBTITLETRANSLIT:;
#ARTISTTRANSLIT:;
#GENRE:;
#CREDIT:mf32892;
#BANNER:[Zenius -Initial- Vanisher] - I FIGHT ME-bn.png;
#BACKGROUND:[Zenius -Initial- Vanisher] - I FIGHT ME-bg.png;
#LYRICSPATH:;
#CDTITLE:;
#MUSIC:[Zenius -Initial- Vanisher] - I FIGHT ME.ogg;
#OFFSET:-0.322834;
#SAMPLESTART:99.770813;
#SAMPLELENGTH:12.000000;
#SELECTABLE:YES;
#DISPLAYBPM:175.000000;
#BPMS:0.000000=175.009003
;
#STOPS:
;
#BGCHANGES:;
#KEYSOUNDS:;
#ATTACKS:;

//---------------dance-single - ----------------
#NOTES:
     dance-single:
     :
     Hard:
     9:
     0.563317,0.707164,0.088521,0.080474,0.164971,469.000000,11.000000,10.000000,0.000000,0.000000,0.000000,0.563317,0.707164,0.088521,0.080474,0.164971,469.000000,11.000000,10.000000,0.000000,0.000000,0.000000:
// measure 0
0000
0000
0000
0000
,  // measure 1
0000
0000
0000
0000
,  // measure 2
0000
0000
0000
0000
,  // measure 3
0000
0000
0000
0000
,  // measure 4
0000
0000
0000
0000
,  // measure 5
0000
0000
0000
0000
,  // measure 6
0000
0000
0000
0000
,  // measure 7
0000
0000
0000
0000
,  // measure 8
0000
0000
0000
0000
0000
0000
0000
0200
,  // measure 9
2000
0000
0000
0300
,  // measure 10
0002
0000
0000
3000
,  // measure 11
0200
0000
0000
0003
,  // measure 12
0020
0000
0000
0000
0000
0300
0000
2030
,  // measure 13
0002
0000
0000
3000
,  // measure 14
0020
0000
0000
0003
,  // measure 15
0130
1000
0100
1000
0001
0100
0001
0100
,  // measure 16
0010
0000
1000
0010
1000
0010
1000
0010
1000
0010
1000
0000
0001
0000
0000
0000
,  // measure 17
1001
0000
0100
0000
0000
0001
1000
0000
,  // measure 18
0001
0000
0100
0000
0001
1000
0100
0000
,  // measure 19
0010
0000
0100
0000
0000
1000
0001
0000
,  // measure 20
0100
0000
0000
0000
0010
0000
0000
1000
0010
0000
1000
0000
0001
0000
0000
0000
,  // measure 21
1000
0000
0010
0000
0000
1000
0001
0000
,  // measure 22
0010
0000
0100
0000
0000
1000
0001
0000
,  // measure 23
0100
0000
0010
0000
0000
1000
0001
0000
,  // measure 24
0010
0000
0100
0000
1000
0000
0000
0100
1000
0000
0001
0100
0010
0100
0010
0100
,  // measure 25
0010
0100
0001
0000
0000
1000
0001
0000
,  // measure 26
0100
0010
1000
0000
0100
1000
0010
0000
,  // measure 27
0100
0001
0010
0000
0000
0100
1000
0000
,  // measure 28
0001
0000
0100
0000
0010
0000
0000
1000
0010
0000
0100
0000
0001
0000
0010
0000
,  // measure 29
0100
1000
0010
0000
0000
0100
0001
0000
,  // measure 30
1000
0100
0010
0000
0000
0100
1000
0000
,  // measure 31
0001
0100
0010
0000
0000
0100
0001
0000
,  // measure 32
1001
0000
0001
0000
1001
0000
0001
0000
1000
0001
1000
0001
1000
0000
0000
0000
,  // measure 33
0010
0100
0001
0000
0000
1000
0001
0000
,  // measure 34
0010
0100
1000
0000
0010
0010
0100
0000
,  // measure 35
0010
1000
0100
0000
0000
0010
0001
0000
,  // measure 36
1000
0000
0010
0000
0100
0000
0000
0001
0100
0000
0010
0000
1000
0000
0100
0010
,  // measure 37
0100
1000
0001
0000
0000
1000
0001
0000
,  // measure 38
0001
0010
0100
0000
0000
0010
0001
0000
,  // measure 39
1000
0010
0100
0000
0000
0010
1000
0000
,  // measure 40
1000
0000
0001
0000
1001
0000
0000
1000
0001
1000
0001
1000
0001
1000
0001
1000
,  // measure 41
0010
0100
0001
0100
0000
0010
1000
0100
,  // measure 42
0000
0000
0010
0000
0001
0000
0100
0000
0010
0000
0100
0000
0010
0000
0000
0010
,  // measure 43
0100
0010
1000
0010
0000
0100
0001
0010
,  // measure 44
0000
0100
1000
0010
0100
0010
0100
0000
,  // measure 45
0001
1000
0100
0010
0000
0100
0001
0100
,  // measure 46
0000
0000
1000
0000
0001
0000
0000
0001
0100
0000
0100
0000
0010
0000
0000
0000
,  // measure 47
1000
0001
0010
0100
0000
0010
1000
0010
,  // measure 48
0000
0001
1000
0010
0100
0010
0100
0100
,  // measure 49
0001
1000
0100
0001
0000
0100
1000
0001
,  // measure 50
0000
0000
0100
0000
0010
0000
0100
0000
0001
0000
0010
0000
0100
0000
0000
0100
,  // measure 51
1000
0001
0100
1000
0000
0100
0001
1000
,  // measure 52
0000
0100
0010
0100
1000
0010
0100
0010
,  // measure 53
0010
1000
0001
0010
0000
0010
0100
1000
,  // measure 54
0000
0000
1000
0000
0001
0000
0000
0100
0010
0000
0001
0000
0010
0000
0000
0000
,  // measure 55
0100
0001
1000
0100
0000
0100
0010
0001
,  // measure 56
1000
0000
0001
0000
1000
0000
0000
0010
0100
0010
0100
0010
0100
0010
0100
0010
,  // measure 57
1000
0000
0001
0100
0000
0100
0010
1000
,  // measure 58
0000
0000
1000
0000
0001
0000
0010
0000
0100
0000
1000
0000
0010
0000
0000
0100
,  // measure 59
0001
0000
1000
0010
0000
0010
0100
0001
,  // measure 60
0000
0001
1000
0100
0010
0001
1001
0000
,  // measure 61
1000
0000
0001
0010
0000
0010
0100
1000
,  // measure 62
0000
0000
0001
0000
0100
0000
0000
0010
0100
0000
0001
0000
0010
0000
0000
0000
,  // measure 63
0001
0000
1000
0010
0000
0010
0100
0001
,  // measure 64
1000
0000
0001
1000
0001
1000
0001
1000
0001
1000
0001
0000
1001
0000
0000
0000
,  // measure 65
1100
0000
0001
0100
0000
1000
0100
0010
,  // measure 66
0000
0000
1000
0000
0100
0000
0000
0000
1000
0000
0100
0000
0010
0000
0000
0010
,  // measure 67
0001
0000
1000
0010
0000
0001
0010
0100
,  // measure 68
0000
0001
0010
0000
0100
1000
1001
0000
,  // measure 69
0100
0000
0001
0010
0000
1000
0010
0100
,  // measure 70
0000
0000
1000
0000
0010
0000
0000
0100
0010
0000
0100
0000
0001
0000
0000
0000
,  // measure 71
0010
0000
0001
0100
0000
1000
0100
0010
,  // measure 72
0000
0100
0001
0000
0010
0100
1001
0000
,  // measure 73
1000
0000
0001
0100
0000
1000
0100
0001
,  // measure 74
0000
0000
1000
0000
0100
0000
0000
0001
0100
0000
1000
0000
0001
0000
0000
0000
,  // measure 75
1000
0000
0001
0010
0000
1000
0010
0001
,  // measure 76
1000
0000
0001
1000
0001
1000
0001
1000
0001
1000
0001
0000
1001
0000
0000
0000
,  // measure 77
0001
1000
0100
0010
0000
0100
0010
0100
,  // measure 78
1000
0001
0100
0010
0000
0100
0010
0100
,  // measure 79
0001
1000
0010
0100
0000
0010
0100
0010
,  // measure 80
1000
0001
0010
0100
0000
0010
0100
0010
,  // measure 81
0001
1000
0100
0010
0000
0100
0010
0100
,  // measure 82
0001
1000
0010
0100
0000
0010
0100
0010
,  // measure 83
0001
1000
0010
0100
0000
0010
0100
0010
,  // measure 84
1000
0001
0100
0010
0000
0100
0010
0100
,  // measure 85
2002
0000
0000
0000
,  // measure 86
0000
0000
0000
0000
,  // measure 87
0000
0000
0000
0000
0000
0000
0000
3003
;

//---------------dance-single - ----------------
#NOTES:
     dance-single:
     :
     Medium:
     7:
     0.459850,0.565731,0.442606,0.136806,0.000000,328.000000,55.000000,17.000000,0.000000,0.000000,0.000000,0.459850,0.565731,0.442606,0.136806,0.000000,328.000000,55.000000,17.000000,0.000000,0.000000,0.000000:
// measure 0
0000
0000
0000
0000
,  // measure 1
0000
0000
0000
0000
,  // measure 2
0000
0000
0000
0000
,  // measure 3
0000
0000
0000
0000
,  // measure 4
0000
0000
0000
0000
,  // measure 5
0000
0000
0000
0000
,  // measure 6
0000
0000
0000
0000
,  // measure 7
0000
0000
0000
0000
,  // measure 8
0000
0000
0000
0000
0000
0000
0000
0100
,  // measure 9
0002
0000
0000
0000
,  // measure 10
2003
0000
0000
0000
,  // measure 11
3200
0000
0000
0000
,  // measure 12
0320
0000
0000
0000
0000
0000
0000
0031
,  // measure 13
2000
0000
0000
0000
,  // measure 14
3020
0000
0000
0000
,  // measure 15
0130
0001
1000
0100
,  // measure 16
0010
0001
0010
0001
0010
0001
1000
0000
,  // measure 17
0001
0000
0100
0000
0000
0010
0100
0000
,  // measure 18
0001
0000
1000
0000
0100
1000
0100
0000
,  // measure 19
1000
0000
0010
0000
0000
0100
0010
0000
,  // measure 20
0100
0000
0001
0000
1000
0001
1000
0000
,  // measure 21
0010
0000
0100
0000
0000
1000
0100
0000
,  // measure 22
0001
0000
1000
0000
0100
0010
0100
0000
,  // measure 23
0010
0000
0100
0000
0000
0001
0100
0000
,  // measure 24
1000
0010
1000
0000
0010
0100
0010
0100
,  // measure 25
0010
1010
0000
1100
,  // measure 26
0010
0000
0011
0000
0100
1000
0001
0000
,  // measure 27
0100
0110
0000
1010
,  // measure 28
0100
0000
0101
0000
0010
1000
0001
0000
,  // measure 29
0010
0110
0000
0011
,  // measure 30
1000
0000
1100
0000
0001
0100
0010
0000
,  // measure 31
0100
0110
0000
1010
,  // measure 32
0001
1000
0001
1000
0001
0000
1001
0000
,  // measure 33
1000
0000
1100
0000
0000
1000
0001
0000
,  // measure 34
0100
0000
0101
0000
0100
0001
1000
0000
,  // measure 35
0010
0000
1010
0000
0000
1000
0001
0000
,  // measure 36
0010
0000
0011
0000
0010
0001
1000
0000
,  // measure 37
0010
0000
0110
0000
0000
0100
0001
0000
,  // measure 38
0010
0000
0110
0000
0000
0100
1000
0000
,  // measure 39
0100
0000
0110
0000
0000
0010
0001
0000
,  // measure 40
0100
0010
0110
0000
1000
0001
1000
0001
,  // measure 41
1000
0000
0100
1100
0000
0011
0000
0110
,  // measure 42
0000
0000
0010
0000
0001
1000
0100
0000
,  // measure 43
1000
0000
0010
1010
0000
0101
0000
0110
,  // measure 44
0000
0000
1000
0000
0001
1000
0100
0000
,  // measure 45
0010
0000
0001
0101
0000
1010
0000
0110
,  // measure 46
0000
0000
0100
0000
0001
1000
0100
0000
,  // measure 47
0010
0000
0001
0011
0000
1010
0000
0110
,  // measure 48
0000
0000
0010
0000
0100
0001
1000
0001
,  // measure 49
1000
0000
0001
0101
0000
0011
0000
1100
,  // measure 50
0000
1000
0100
0000
0010
0001
0100
0000
,  // measure 51
0010
0000
1000
1010
0000
1100
0000
0011
,  // measure 52
0000
0001
0010
0000
0100
1000
0010
0000
,  // measure 53
0100
0000
0001
0011
0000
0101
0000
1010
,  // measure 54
0000
0010
0100
0000
0001
1000
0100
0000
,  // measure 55
0010
0000
0001
0101
0000
1100
0000
0110
,  // measure 56
0000
0001
1000
0000
0010
0100
0002
0000
,  // measure 57
1003
0000
0100
1000
0000
1010
0000
0101
,  // measure 58
0000
0100
0010
0000
1000
0000
1001
0000
,  // measure 59
0001
0000
0100
0001
0000
0011
0000
1100
,  // measure 60
0000
0100
0010
0000
0001
1000
0001
0000
,  // measure 61
1000
0000
0010
1000
0000
1100
0000
0011
,  // measure 62
0000
0010
0100
0000
1000
0000
1001
0000
,  // measure 63
0001
0000
0010
0001
0000
0101
0000
1010
,  // measure 64
0000
0010
0100
0010
0100
0010
0100
0000
,  // measure 65
0001
0000
1000
0100
0000
1000
0001
1000
,  // measure 66
0000
0001
0100
0000
0010
0100
0010
0000
,  // measure 67
1000
0000
0001
0100
0000
0001
1000
0001
,  // measure 68
0000
1000
0100
0000
0010
0100
0010
0000
,  // measure 69
0001
0000
1000
0010
0000
1000
0001
1000
,  // measure 70
0000
0001
0010
0000
0100
0010
0100
0000
,  // measure 71
1000
0000
0001
0010
0000
0001
0100
0001
,  // measure 72
0000
0100
0010
0000
1000
0001
1000
0000
,  // measure 73
0001
0000
1000
0100
0000
0010
0001
0010
,  // measure 74
0000
0100
0010
0000
0001
1000
0010
0000
,  // measure 75
1000
0000
0001
0100
0000
0010
1000
0010
,  // measure 76
0100
0001
1000
0001
1000
0001
0010
0000
,  // measure 77
0002
0000
0000
0000
0000
0100
0000
2003
,  // measure 78
0000
0000
0000
0000
0000
0100
0000
0000
,  // measure 79
3020
0000
0000
0000
0000
0001
0000
2030
,  // measure 80
0000
0000
0000
0000
0000
3100
0000
0000
,  // measure 81
0020
0000
0000
0000
0000
1000
0000
0032
,  // measure 82
0000
0000
0000
0000
0000
0100
0000
0000
,  // measure 83
2003
0000
0000
0000
0000
0100
0000
3020
,  // measure 84
0000
0000
0000
0000
0000
0130
0000
0000
,  // measure 85
2002
0000
0000
0000
,  // measure 86
0000
0000
0000
0000
,  // measure 87
0000
0000
0000
0000
0000
0000
0000
3003
;

//---------------dance-single - ----------------
#NOTES:
     dance-single:
     :
     Easy:
     5:
     0.334541,0.388940,0.241421,0.096569,0.000000,249.000000,30.000000,12.000000,0.000000,0.000000,0.000000,0.334541,0.388940,0.241421,0.096569,0.000000,249.000000,30.000000,12.000000,0.000000,0.000000,0.000000:
// measure 0
0000
0000
0000
0000
,  // measure 1
0000
0000
0000
0000
,  // measure 2
0000
0000
0000
0000
,  // measure 3
0000
0000
0000
0000
,  // measure 4
0000
0000
0000
0000
,  // measure 5
0000
0000
0000
0000
,  // measure 6
0000
0000
0000
0000
,  // measure 7
0000
0000
0000
0000
,  // measure 8
0000
0000
0000
0000
,  // measure 9
0002
0000
0000
0000
,  // measure 10
0203
0000
0000
0000
,  // measure 11
0320
0000
0000
0000
,  // measure 12
2030
0000
0000
0000
,  // measure 13
3200
0000
0000
0000
,  // measure 14
0320
0000
0000
0000
,  // measure 15
0031
0001
0001
0001
,  // measure 16
0001
0001
1000
1001
,  // measure 17
0100
0010
0000
0010
,  // measure 18
1000
0001
1000
0100
,  // measure 19
0010
0001
0000
0001
,  // measure 20
1000
0001
0010
0100
,  // measure 21
1000
0010
0000
0010
,  // measure 22
0100
0010
1000
0100
,  // measure 23
0010
0001
0000
0001
,  // measure 24
0100
0010
1000
0100
,  // measure 25
0010
0011
0000
0001
,  // measure 26
0100
0001
1000
0001
,  // measure 27
1000
1100
0000
1000
,  // measure 28
0100
1000
0001
1000
,  // measure 29
0010
1010
0000
0010
,  // measure 30
0100
0001
1000
0001
,  // measure 31
0010
0011
0000
0010
,  // measure 32
0100
1000
0001
1000
,  // measure 33
0010
1010
0000
0010
,  // measure 34
1000
0001
0010
0001
,  // measure 35
0100
0101
0000
0100
,  // measure 36
0001
0010
0001
1000
,  // measure 37
0010
1010
0000
1000
,  // measure 38
0100
1000
0001
0100
,  // measure 39
0010
0110
0000
0100
,  // measure 40
0010
0100
0001
1000
,  // measure 41
1100
0000
0000
1000
0000
1000
0000
1000
,  // measure 42
0000
0001
0100
0001
,  // measure 43
0101
0000
0000
0001
0000
0001
0000
0001
,  // measure 44
0000
0100
0001
0100
,  // measure 45
0110
0000
0000
0010
0000
0010
0000
0010
,  // measure 46
0000
0100
0001
0100
,  // measure 47
0110
0000
0000
0100
0000
0100
0000
0100
,  // measure 48
0000
0001
1000
0100
,  // measure 49
0010
0000
0001
1000
0000
1000
0000
1000
,  // measure 50
0000
0001
0100
0110
,  // measure 51
1010
0000
0001
0010
0000
0010
0000
0010
,  // measure 52
0000
0100
1000
1010
,  // measure 53
1001
0000
1000
0010
0000
0010
0000
0010
,  // measure 54
0000
0100
0001
0101
,  // measure 55
1001
0000
0100
0010
0000
0010
0000
0010
,  // measure 56
0000
1001
1001
1001
,  // measure 57
0001
0000
1000
0100
0000
0100
0000
0100
,  // measure 58
0000
0010
0001
1000
,  // measure 59
0001
0000
0100
0001
0000
0001
0000
0001
,  // measure 60
0000
1000
0001
0010
,  // measure 61
0100
0000
1000
0010
0000
0010
0000
0010
,  // measure 62
0000
1000
0010
0100
,  // measure 63
0001
0000
0010
0100
0000
0100
0000
0100
,  // measure 64
2000
0000
3000
1001
,  // measure 65
0100
0000
0001
0100
0000
0100
0000
0100
,  // measure 66
0000
0100
0010
0000
1000
0000
1001
0000
,  // measure 67
0010
0000
1000
0100
0000
0100
0000
0100
,  // measure 68
0000
0100
0010
0000
0001
0000
1001
0000
,  // measure 69
0100
0000
0001
0100
0000
0100
0000
0100
,  // measure 70
0000
0100
0010
0000
1000
0000
1001
0000
,  // measure 71
0010
0000
0100
0010
0000
0010
0000
0010
,  // measure 72
0000
0010
1000
0000
0010
0000
0110
0000
,  // measure 73
1000
0000
0001
1000
0000
1000
0000
1000
,  // measure 74
0000
1000
0001
0000
1000
0000
1001
0000
,  // measure 75
0010
0000
0001
0100
0000
0100
0000
0100
,  // measure 76
0020
0000
0030
1001
,  // measure 77
0002
0000
0000
0000
,  // measure 78
0000
0000
0000
0000
,  // measure 79
2003
0000
0000
0000
,  // measure 80
0000
0000
0000
0000
,  // measure 81
3200
0000
0000
0000
,  // measure 82
0000
0000
0000
0000
,  // measure 83
0320
0000
0000
0000
,  // measure 84
0000
0000
0000
0030
,  // measure 85
2002
0000
0000
0000
,  // measure 86
0000
0000
0000
0000
,  // measure 87
0000
0000
0000
0000
0000
0000
0000
3003
;
