#TITLE:9 To 5 Morning Train;
#SUBTITLE:;
#ARTIST:Violent String Ensamble;
#TITLETRANSLIT:;
#SUBTITLETRANSLIT:;
#ARTISTTRANSLIT:;
#CREDIT:;
#BANNER:9 To 5 Morning Train-bn.png;
#BACKGROUND:9 To 5 Morning Train-bg.png;
#LYRICSPATH:;
#CDTITLE:Dancemania Speed G4.png;
#MUSIC:9 To 5 Morning Train.mp3;
#OFFSET:-5.575;
#SAMPLESTART:45.730;
#SAMPLELENGTH:12.000;
#SELECTABLE:YES;
#BPMS:0.000=173.020,180.000=86.510,196.000=173.020;
#STOPS:;
#BGCHANGES:;

//---------------dance-single - ----------------
#NOTES:
     dance-single:
     :
     Hard:
     8:
     0.603,0.710,0.513,0.190,0.204: // measure 1
1000
0000
0100
0000
0010
0001
0000
0000
1000
0000
0000
0100
0000
0000
0010
0000
,  // measure 2
0001
0000
0000
0000
1001
0000
0000
0000
0100
0000
0000
0100
0000
0000
0100
0000
,  // measure 3
0001
0000
1000
0000
0010
0100
0000
0000
0001
0000
0000
1000
0000
0000
0010
0000
,  // measure 4
0100
0000
0000
0000
0101
0000
0000
0000
1000
0000
0000
1000
0000
0000
1000
0000
,  // measure 5
0001
1000
0010
0100
0001
0100
0010
0000
,  // measure 6
0001
1000
0100
1000
0010
0000
0110
0000
,  // measure 7
1000
0010
0100
0010
0100
0001
1000
0000
,  // measure 8
0100
0010
1000
0010
0100
0000
0110
0000
,  // measure 9
0001
0100
0010
0000
0100
0001
0100
0000
,  // measure 10
0010
0100
0010
0100
0010
0000
0101
0000
,  // measure 11
0100
1000
0100
1000
0010
0100
0001
0000
,  // measure 12
0100
0001
0100
0001
0010
0000
0001
0000
,  // measure 13
0011
0101
1010
0100
,  // measure 14
0100
1000
0010
0100
0010
0000
2020
0000
,  // measure 15
3030
0101
2020
3030
,  // measure 16
0001
0000
0010
0000
0100
0001
0100
0010
,  // measure 17
1000
0100
1000
0010
0100
0001
1000
0100
,  // measure 18
1000
0010
0100
0001
1000
0001
0100
0000
,  // measure 19
0001
0000
0010
0000
0001
0000
0100
0001
0000
0000
0100
0000
0000
0000
0100
0000
,  // measure 20
0010
0010
0000
0010
0000
0010
0000
0010
,  // measure 21
0200
0000
0301
0000
0101
0000
0001
0001
,  // measure 22
0101
2000
0100
3010
,  // measure 23
0110
0000
1001
0000
1100
0000
0020
0200
,  // measure 24
0330
0002
1000
0013
,  // measure 25
0101
0000
1100
0000
0110
0000
0001
0200
,  // measure 26
0000
0300
0200
0000
0010
0000
0301
0000
,  // measure 27
1001
0000
1100
0000
1010
0000
0001
0100
,  // measure 28
0000
2100
0010
3100
,  // measure 29
0001
0000
1001
0000
0100
1000
0100
1000
,  // measure 30
0100
1000
0001
0000
0010
0100
0010
1000
,  // measure 31
0001
0010
0100
1000
0001
0000
0010
0100
,  // measure 32
0000
0001
0100
0000
0001
0100
0001
0000
,  // measure 33
0010
1000
0010
1000
0010
0000
0100
1000
,  // measure 34
0000
0010
0100
0000
0001
0100
0001
0000
,  // measure 35
0010
0100
0010
0000
0100
0001
0100
0001
,  // measure 36
0000
0001
1000
0000
0100
1000
0100
0000
,  // measure 37
0010
0100
0010
1000
0001
0100
0010
1000
,  // measure 38
0001
0000
1000
0000
0010
0100
0000
0000
0001
0000
0000
1000
0000
0000
0010
0000
,  // measure 39
0100
0000
0000
0000
0101
0000
0000
0000
1000
0000
0000
1000
0000
0000
1000
0000
,  // measure 40
0100
0000
1000
0000
0010
1000
0000
0000
0100
0000
0000
0001
0000
0000
0010
0000
,  // measure 41
0100
0000
0000
0000
0110
0000
0000
0000
0001
0000
0000
0001
0000
0000
0001
0000
,  // measure 42
0100
0000
0001
0000
0010
0001
0000
0000
0100
0000
0000
0001
0000
0000
0010
0000
,  // measure 43
0100
0000
0000
0000
0101
0000
0000
0000
0001
0000
0000
0001
0000
0000
0001
0000
,  // measure 44
1000
0000
0100
0000
0010
0001
0000
0000
1000
0000
0000
0100
0000
0000
0010
0000
,  // measure 45
0001
0000
0000
0000
1001
0000
0000
0000
0100
0000
0000
0100
0000
0000
0100
0000
,  // measure 46
1000
0000
0001
0000
1000
0100
0000
0000
0100
0000
0000
0010
0000
0000
0001
0000
0100
0000
0000
0000
0001
0000
0000
0000
1000
0000
0000
0010
0000
0000
0100
0000
,  // measure 47
0000
0000
0001
0000
0100
0010
0000
0000
0100
0000
0000
0001
0000
0000
1000
0000
0010
0000
0000
0000
0100
0000
0000
0000
0001
0000
0000
0100
0000
0000
0100
0000
,  // measure 48
0001
0000
0100
0000
0001
1000
0000
0000
0001
0000
0000
0010
0000
0000
0100
0000
1000
0000
0000
0000
0001
0000
0000
0000
0100
0000
0000
0010
0000
0000
1000
0000
,  // measure 49
0000
0000
0100
0000
1000
0001
0000
0000
1000
0000
0000
0001
0000
0000
1000
0000
0100
0000
0000
0000
0010
0000
0000
0000
1000
0000
0000
0100
0000
0000
1000
0000
,  // measure 50
0001
1001
1100
0110
,  // measure 51
2000
0000
0100
0000
0010
0000
3001
0100
,  // measure 52
0000
1001
0011
1100
,  // measure 53
0200
0000
0010
0000
0010
0000
0301
0100
,  // measure 54
0000
0101
1001
1010
,  // measure 55
0002
0000
1000
0000
0010
0000
0103
0001
,  // measure 56
0000
0101
0110
1001
,  // measure 57
2000
0000
0010
0000
0010
0000
3100
1000
,  // measure 58
1010
1100
0101
0011
,  // measure 59
0200
0000
0001
0000
0010
0000
0301
1000
,  // measure 60
0000
1100
1010
0101
,  // measure 61
0002
0000
0010
0000
0010
0000
1003
0001
,  // measure 62
0000
1100
0101
0011
,  // measure 63
0200
0000
0001
0000
0010
0000
1300
0001
,  // measure 64
0000
1100
1010
0101
,  // measure 65
0002
0000
0010
0000
0010
0000
1003
0001
,  // measure 66
1001
0000
0000
0000
;

//---------------dance-single - ----------------
#NOTES:
     dance-single:
     :
     Medium:
     6:
     0.415,0.524,0.076,0.047,0.090: // measure 1
1000
0000
0001
0000
1000
0000
0000
0000
0010
0000
0000
1000
0000
0000
0001
0000
,  // measure 2
1000
0000
0000
0000
0100
0000
0000
0000
1000
0000
0000
0001
0000
0000
1000
0000
,  // measure 3
0000
0000
0001
0000
1000
0000
0000
0000
0010
0000
0000
1000
0000
0000
0001
0000
,  // measure 4
1000
0000
0000
0000
0010
0000
0000
0000
1000
0000
0000
0100
0000
0000
1000
0000
,  // measure 5
0001
0001
1000
0100
,  // measure 6
0010
1000
0100
0000
0001
0000
1000
0000
,  // measure 7
0010
1000
0100
0000
0100
0000
0100
0000
,  // measure 8
0001
1000
0100
1000
,  // measure 9
0010
1000
0010
0000
0100
0000
1000
0000
,  // measure 10
0001
0100
0010
0100
0001
0000
0001
0000
,  // measure 11
1000
0100
0100
0000
0010
0000
0100
0000
,  // measure 12
0001
1000
0100
0000
0100
0000
0001
0000
,  // measure 13
1000
0010
1000
0001
,  // measure 14
0001
0100
1000
0000
0001
0000
0010
0000
,  // measure 15
0000
0001
0010
0000
,  // measure 16
0001
1000
0010
0100
,  // measure 17
0001
0001
1000
1000
,  // measure 18
0001
1000
0010
0000
,  // measure 19
1001
0000
0000
0000
,  // measure 20
0110
0000
1001
0000
,  // measure 21
1001
0010
1000
0100
,  // measure 22
1001
0010
1000
0001
,  // measure 23
0010
0000
1000
0000
0100
0000
0100
1000
,  // measure 24
0000
0001
1000
0010
,  // measure 25
0100
0000
0001
0000
0010
0000
0001
0010
,  // measure 26
0000
1000
0100
0001
,  // measure 27
0010
0000
0100
0000
1000
0000
0010
0100
,  // measure 28
0000
1000
0001
0010
,  // measure 29
1000
0000
0001
0000
0010
0001
0000
0000
,  // measure 30
0000
1000
0001
0010
,  // measure 31
1000
0000
0100
0000
0001
0000
1000
0100
,  // measure 32
0000
1000
0001
0010
,  // measure 33
0100
0000
0001
0000
0001
0000
0001
0100
,  // measure 34
0000
1000
0001
0100
,  // measure 35
0010
0000
1000
0000
0100
0000
0001
0010
,  // measure 36
0000
0100
1000
0001
,  // measure 37
0010
0000
0100
0000
1000
0001
1000
0001
,  // measure 38
0100
0000
1000
0000
0001
0000
0000
0000
0001
0000
0000
1000
0000
0000
0100
0000
,  // measure 39
0001
0000
0000
0000
1000
0000
0000
0000
0100
0000
0000
0010
0000
0000
1000
0000
,  // measure 40
0000
0000
0100
0000
1000
0000
0000
0000
0001
0000
0000
0010
0000
0000
0100
0000
,  // measure 41
1000
0000
0000
0000
0001
0000
0000
0000
0001
0000
0000
0100
0000
0000
0100
0000
,  // measure 42
1000
0000
0000
0000
0001
0000
0000
0000
1000
0000
0000
0100
0000
0000
1000
0000
,  // measure 43
0010
0000
0000
0000
0010
0000
0000
0000
0100
0000
0000
0001
0000
0000
1000
0000
,  // measure 44
0000
0000
0001
0000
1000
0000
0000
0000
0010
0000
0000
1000
0000
0000
0100
0000
,  // measure 45
0001
0000
0000
0000
1000
0000
0000
0000
0010
0000
0000
0100
0000
0000
0001
0000
,  // measure 46
0010
0010
0001
0001
1000
0000
0001
1000
,  // measure 47
0010
0000
0000
0000
0000
0000
0000
0000
1000
0000
0000
0000
0001
0000
0000
0000
0010
0000
0000
0000
0010
0000
0000
0000
0010
0000
0000
1000
0000
0000
0001
0000
,  // measure 48
1000
0000
0000
0000
0100
0000
0000
0000
0010
0000
0000
0000
1000
0000
0000
0000
0100
0000
0000
0000
1000
0000
0000
0000
0001
0000
0000
0010
0000
0000
0001
0000
,  // measure 49
0000
0000
1000
0000
0001
0000
0000
0000
0001
0000
0000
0000
0000
0000
0000
0000
1010
0000
0000
0000
1100
0000
0000
0000
0001
0000
0000
1000
0000
0000
0001
0000
,  // measure 50
0000
1000
0001
0100
,  // measure 51
0010
0000
1000
0000
0001
0000
0100
0010
,  // measure 52
0000
0010
0010
0010
,  // measure 53
2000
0000
0100
0000
0100
3000
0100
1000
,  // measure 54
0000
0001
0100
0010
,  // measure 55
0001
0000
0010
0000
1000
0000
0001
0100
,  // measure 56
0000
0001
0100
1000
,  // measure 57
0002
0000
0010
0000
0100
0003
0010
0100
,  // measure 58
0020
0000
0100
0000
1000
0000
0100
0030
,  // measure 59
0001
0000
0100
0000
1000
0000
0001
0100
,  // measure 60
0000
0001
0010
0001
,  // measure 61
0100
0000
1000
0000
0010
0000
0100
0001
,  // measure 62
0000
0000
0002
0000
0100
0000
1000
0003
,  // measure 63
0010
0000
0100
0000
0010
0000
0100
0010
,  // measure 64
0000
0000
2000
0000
0100
0000
0010
3000
,  // measure 65
0100
0000
0010
0000
0001
1000
0010
0000
,  // measure 66
1001
0000
0000
0000
;

//---------------dance-single - ----------------
#NOTES:
     dance-single:
     :
     Easy:
     4:
     0.380,0.463,0.180,0.095,0.000: // measure 1
1000
0001
1000
0010
,  // measure 2
2000
0001
0001
3001
,  // measure 3
0001
1000
0010
0100
,  // measure 4
0002
1000
1000
1003
,  // measure 5
0001
0010
1100
0000
,  // measure 6
0001
0010
0100
0000
,  // measure 7
0001
1000
1100
0000
,  // measure 8
0001
0010
0100
0000
,  // measure 9
0001
0100
1000
0000
,  // measure 10
0001
0010
1010
0000
,  // measure 11
0001
0100
1000
0000
,  // measure 12
0010
0100
0101
0000
,  // measure 13
1000
0001
0010
1000
,  // measure 14
0001
0100
1000
0001
,  // measure 15
0000
1001
0110
0000
,  // measure 16
0001
1000
0010
0100
,  // measure 17
0001
0010
0100
1000
,  // measure 18
0001
0100
1000
0000
,  // measure 19
1001
0000
1001
0000
,  // measure 20
1001
0000
0101
0000
,  // measure 21
0011
1000
0001
0011
,  // measure 22
1100
0001
0010
1000
,  // measure 23
0100
1000
0001
0010
,  // measure 24
0100
0001
0100
1000
,  // measure 25
0001
0010
1000
0001
,  // measure 26
1000
0010
0010
0100
,  // measure 27
0001
1000
0100
0001
,  // measure 28
0010
0100
0001
1000
,  // measure 29
0100
0001
0010
0000
,  // measure 30
0001
1000
0010
0100
,  // measure 31
0001
0001
1000
1000
,  // measure 32
0001
0010
0100
0001
,  // measure 33
1000
0100
0001
0010
,  // measure 34
0100
0001
1000
0010
,  // measure 35
0100
0001
0010
1000
,  // measure 36
0100
0001
0010
0100
,  // measure 37
0001
0010
1000
0001
,  // measure 38
0001
1000
1000
0001
,  // measure 39
0001
0100
1000
0010
,  // measure 40
0001
1000
0010
0100
,  // measure 41
0100
0001
1000
0010
,  // measure 42
0001
0010
1000
0100
,  // measure 43
1000
0100
0001
0100
,  // measure 44
1000
0001
0010
0100
,  // measure 45
0001
0100
1000
0010
,  // measure 46
0001
1000
0001
1000
0020
0000
1030
0000
,  // measure 47
0001
1000
0010
1000
0200
0000
1300
0000
,  // measure 48
0001
1000
0010
0100
0002
0000
1003
0000
,  // measure 49
0001
0010
1000
0100
0002
0000
1003
0000
,  // measure 50
1000
0010
1000
0010
,  // measure 51
0100
0001
1000
0010
,  // measure 52
1001
0100
0010
0100
,  // measure 53
0010
0001
1000
0001
,  // measure 54
0011
0001
0010
0100
,  // measure 55
1000
0010
0100
0010
,  // measure 56
1010
0100
1000
0010
,  // measure 57
0100
0001
0110
0000
,  // measure 58
0002
0100
1003
0010
,  // measure 59
0010
0010
1000
0100
,  // measure 60
0010
0200
0010
0301
,  // measure 61
0010
1000
0100
0010
,  // measure 62
0001
0200
1000
1300
,  // measure 63
0010
0100
0001
0010
,  // measure 64
0100
1000
2001
0001
,  // measure 65
3010
0100
0010
0000
,  // measure 66
1001
0000
0000
0000
;
