#TITLE:database;
#SUBTITLE:feat. TAKUMA (10-FEET);
#ARTIST:MAN WITH A MISSION;
#TITLETRANSLIT:;
#SUBTITLETRANSLIT:;
#ARTISTTRANSLIT:;
#GENRE:;
#CREDIT:;
#BANNER:database-bn.png;
#BACKGROUND:database-bg.png;
#LYRICSPATH:;
#CDTITLE:;
#MUSIC:[Theme] - database.mp3;
#OFFSET:-0.289000;
#SAMPLESTART:51.793999;
#SAMPLELENGTH:12.000000;
#SELECTABLE:YES;
#BPMS:0.000000=177.000000
;
#STOPS:
;
#BGCHANGES:;
#KEYSOUNDS:;
#ATTACKS:;

//---------------dance-single - ----------------
#NOTES:
     dance-single:
     :
     Hard:
     7:
     0.494400,0.524180,0.526204,0.131551,0.000000,277.000000,52.000000,13.000000,0.000000,0.000000,0.000000,0.494400,0.524180,0.526204,0.131551,0.000000,277.000000,52.000000,13.000000,0.000000,0.000000,0.000000:
// measure 0
0000
0000
0000
0000
,  // measure 1
0000
0000
0000
0000
,  // measure 2
0000
0000
0000
0000
,  // measure 3
0000
0000
0000
0000
,  // measure 4
0000
0000
0000
0000
,  // measure 5
0000
0000
0000
0000
,  // measure 6
0000
0000
0000
0000
,  // measure 7
0000
0000
0000
0000
,  // measure 8
0000
0000
0000
0000
,  // measure 9
0000
0000
0000
0000
,  // measure 10
1000
0100
1000
0000
0001
0100
0000
0010
,  // measure 11
0000
1000
0000
0001
0000
0100
0010
1000
,  // measure 12
0100
0010
0001
0000
1000
0010
0000
0100
,  // measure 13
0000
0001
0000
1000
0000
0010
0100
0001
,  // measure 14
0010
0100
1000
0000
0001
0010
0000
1000
,  // measure 15
0000
0001
0000
0100
0000
1000
0010
0100
,  // measure 16
0010
1000
0010
0000
0100
0001
0100
0000
,  // measure 17
0001
1000
0001
1000
0000
0010
0100
0001
,  // measure 18
1002
0000
0000
0013
0100
0000
0100
1100
,  // measure 19
0000
0110
0000
0101
0000
0010
1000
0000
,  // measure 20
2010
0000
0000
3010
0001
0000
1000
0001
,  // measure 21
0100
0010
1000
1010
0000
0100
1000
0010
,  // measure 22
2010
0000
0000
3010
0001
0000
0010
0110
,  // measure 23
0000
1010
0000
0101
0000
0001
0100
0000
,  // measure 24
0102
0000
0000
0103
0010
0000
1000
0001
,  // measure 25
0011
0010
0110
0100
0000
1000
0010
0100
,  // measure 26
0001
0000
1000
0000
0001
0000
1000
0010
,  // measure 27
0000
0100
0000
0001
0000
1000
0100
0010
,  // measure 28
0001
0000
1000
0000
0001
0000
0100
0010
,  // measure 29
0000
1000
0000
0001
0000
1000
0001
0010
,  // measure 30
0100
0000
0010
0000
0100
0000
1000
0001
,  // measure 31
0000
0100
0000
0010
0000
1000
0010
0100
,  // measure 32
0001
0000
1000
0000
0001
0000
1000
0100
,  // measure 33
0000
0010
0000
0001
0000
0010
1000
0001
,  // measure 34
0100
0000
0101
0000
0001
0000
0100
1000
,  // measure 35
0000
0100
0000
0010
0000
0001
1001
0000
,  // measure 36
2010
3001
0102
1003
,  // measure 37
2010
3001
1001
0000
,  // measure 38
0100
0100
0001
0100
0100
0000
0010
0010
,  // measure 39
1000
0010
0010
0000
1000
0001
1000
0001
,  // measure 40
0100
0100
0001
0100
0100
0000
1010
0000
,  // measure 41
0101
0000
1010
0000
0001
1000
0001
1000
,  // measure 42
1001
0000
1010
0000
0101
0000
0001
1000
,  // measure 43
0000
1100
0000
0011
0000
0100
0000
0010
,  // measure 44
1001
0000
0101
0000
1010
0000
0001
1000
,  // measure 45
0000
0011
0000
1100
0000
0001
0000
1000
,  // measure 46
0001
0001
0100
0001
0001
0000
1000
1000
,  // measure 47
0010
1000
1000
0000
0001
1000
0001
1000
,  // measure 48
0010
0010
0100
0010
0010
0000
1010
0000
,  // measure 49
0101
0000
1000
0001
0000
0100
0001
0100
,  // measure 50
0101
0000
1010
0000
1100
0000
0001
0100
,  // measure 51
0000
1010
0000
0101
0000
0110
0000
0001
,  // measure 52
1001
0000
0101
0000
1010
0000
0001
1000
,  // measure 53
0000
1001
0000
0101
0000
0001
1000
0000
,  // measure 54
0010
0010
0100
0010
0010
0000
0100
0100
,  // measure 55
0010
0100
0100
0000
0001
1000
0001
1000
,  // measure 56
0001
0100
0101
0000
0100
0000
0011
0000
,  // measure 57
0100
1010
0100
0011
,  // measure 58
0100
0100
0010
0100
0100
0000
0010
0010
,  // measure 59
0100
0010
0010
0000
1000
0001
1000
0000
,  // measure 60
0002
0000
0203
0000
,  // measure 61
0320
0000
2030
0000
,  // measure 62
3001
0101
0000
1010
0000
1000
2002
0000
,  // measure 63
0000
0000
0000
0000
,  // measure 64
0000
0000
0000
3003
;

//---------------dance-single - ----------------
#NOTES:
     dance-single:
     :
     Medium:
     6:
     0.394653,0.393135,0.364295,0.151790,0.000000,222.000000,36.000000,15.000000,0.000000,0.000000,0.000000,0.394653,0.393135,0.364295,0.151790,0.000000,222.000000,36.000000,15.000000,0.000000,0.000000,0.000000:
0000
0000
0000
0000
,
0000
0000
0000
0000
,
0000
0000
0000
0000
,
0000
0000
0000
0000
,
0000
0000
0000
0000
,
0000
0000
0000
0000
,
0000
0000
0000
0000
,
0000
0000
0000
0000
,
0000
0000
0000
0000
,
0000
0000
0000
0000
,
1000
1100
0001
0011
,
1000
0000
1100
0000
0001
0100
0010
0000
,
0100
0101
0010
1010
,
0100
0000
0101
0000
1000
0010
0100
0000
,
0010
1010
0001
0011
,
1000
0000
1100
0000
1000
0100
0010
0000
,
0001
1001
0010
1010
,
1001
1001
0000
0000
,
0002
0000
0000
0103
0010
0000
0000
1000
,
0000
0001
0000
1000
0000
0000
0001
0000
,
2000
0000
0000
3001
0100
0000
0000
0100
,
0000
0010
0100
0000
0001
0000
2000
0000
,
3002
0000
0000
1003
0010
0000
0000
1000
,
0000
0001
0000
1000
0000
0000
0001
0000
,
2000
0000
0000
3010
0100
0000
0001
0000
,
1000
0010
1000
0010
0000
1000
0020
0000
,
1030
1000
0010
0100
,
0010
0100
0010
0000
0010
0100
0010
0000
,
1000
1000
0001
0100
,
0001
0100
0001
0000
0001
0100
0001
0000
,
0100
0100
0010
1000
,
0010
1000
0010
0000
0010
1000
0010
0000
,
0100
0100
0001
0100
,
0001
0100
0001
0000
0001
0100
0001
0000
,
0100
0101
0001
0101
,
0100
1001
0010
1001
,
2000
0000
3002
0000
,
2003
0000
3001
0000
,
0100
0001
0000
0101
0000
0000
0010
1000
,
0000
1010
0000
0000
1000
0000
1000
0000
,
0001
0100
0000
0101
0000
0000
1001
0000
,
1001
0000
0001
1000
0000
0001
1000
0000
,
0001
0000
0001
0000
0001
0000
0001
1000
,
0000
1000
0000
1000
0000
0100
0000
0010
,
0001
0000
0001
0000
0001
0000
0001
1000
,
0000
1000
0000
1000
0000
0001
0000
0000
,
0001
0100
0000
0101
0000
0000
1000
0010
,
0000
1010
0000
0001
1000
0001
1000
0000
,
0010
0100
0000
0110
0000
0000
1010
0000
,
1010
0000
0100
0001
0000
0100
0001
0000
,
1000
0000
1000
0000
1000
0000
1000
0010
,
0000
0010
0000
0010
0000
0100
0000
0100
,
0001
0000
0001
0000
0001
0000
0001
1000
,
0000
1000
0000
1000
0000
0001
1000
0000
,
0010
0100
0000
0110
0000
0000
0100
0010
,
0000
0110
0000
0000
0001
1000
0001
0000
,
0001
0101
0100
0011
,
0100
1010
0100
0011
,
0100
0010
0000
0110
0000
0000
0010
0100
,
0000
0110
0000
0000
0000
0001
1000
0000
,
0002
0000
0203
0000
,
0320
0000
2030
0000
,
3001
0001
0000
1000
0000
0001
2002
0000
,
0000
0000
0000
0000
,
0000
0000
0000
3003
;

//---------------dance-single - ----------------
#NOTES:
     dance-single:
     :
     Easy:
     3:
     0.261656,0.290298,0.161909,0.141670,0.000000,151.000000,16.000000,14.000000,0.000000,0.000000,0.000000,0.261656,0.290298,0.161909,0.141670,0.000000,151.000000,16.000000,14.000000,0.000000,0.000000,0.000000:
0000
0000
0000
0000
,
0000
0000
0000
0000
,
0000
0000
0000
0000
,
0000
0000
0000
0000
,
0000
0000
0000
0000
,
0000
0000
0000
0000
,
0000
0000
0000
0000
,
0000
0000
0000
0000
,
0000
0000
0000
0000
,
0000
0000
0000
0000
,
1000
0000
0001
0000
,
1000
0000
0001
0010
,
0100
0000
1000
0000
,
0001
0000
1000
0100
,
0010
0000
0001
0000
,
1000
0000
0001
0010
,
0100
0000
1000
0000
,
1001
1001
0000
0000
,
0002
0000
1003
0000
,
1000
0001
1000
0000
,
2000
0000
3001
0000
,
0001
1000
0001
0000
,
2000
0000
3001
0000
,
1000
0001
0100
0000
,
0002
0000
1003
0000
,
0001
1000
0000
0020
,
1030
1000
0001
1000
,
0010
0110
0010
0000
,
0001
0001
1000
0010
,
0100
0110
0010
0000
,
1000
1000
0010
0100
,
0010
0110
0100
0000
,
0100
0100
0001
0100
,
0010
0110
0100
0000
,
0100
0001
0100
0001
,
1000
0010
1001
0000
,
2000
0000
3002
0000
,
2003
0000
3001
0000
,
0100
0000
0000
0001
0000
0000
0010
0000
,
0000
0001
0000
0000
1000
0000
1000
0000
,
0100
0000
0000
0001
0000
0000
1000
0000
,
1001
0000
0000
0001
0000
0000
1000
0000
,
0001
0000
0001
0000
0001
0000
0000
1000
,
0000
1000
0000
1000
0000
0000
0000
0000
,
0001
0000
0001
0000
0001
0000
0000
1000
,
0000
1000
0000
1000
0000
0000
0001
0000
,
0001
0000
0000
0100
0000
0000
0001
0000
,
0000
1000
0000
0000
0001
0000
0001
0000
,
1000
0000
0000
0100
0000
0000
1000
0000
,
1001
0000
0000
0001
0000
0000
0001
0000
,
0001
0000
0010
0000
0001
0000
0000
1000
,
0000
0100
0000
1000
0000
0000
0000
0000
,
0010
0000
0100
0000
0010
0000
0000
1000
,
0000
0001
0000
1000
0000
0000
1000
0000
,
0010
0000
0000
0110
0000
0000
0100
0000
,
0000
0110
0000
0000
0001
0000
1001
0000
,
0001
0000
0000
0101
0000
0000
0001
0000
,
0000
1000
0000
0001
,
0100
0000
0000
0110
0000
0000
0010
0000
,
0000
0110
0000
0000
0000
0000
1000
0000
,
0002
0003
0200
0300
,
0020
0030
2000
3000
,
0001
0000
0000
1000
0000
0000
2002
0000
,
0000
0000
0000
3003
;

//---------------dance-single - ----------------
#NOTES:
     dance-single:
     :
     Beginner:
     2:
     0.154681,0.193532,0.212505,0.080954,0.000000,78.000000,21.000000,8.000000,0.000000,0.000000,0.000000,0.154681,0.193532,0.212505,0.080954,0.000000,78.000000,21.000000,8.000000,0.000000,0.000000,0.000000:
0000
0000
0000
0000
,
0000
0000
0000
0000
,
0000
0000
0000
0000
,
0000
0000
0000
0000
,
0000
0000
0000
0000
,
0000
0000
0000
0000
,
0000
0000
0000
0000
,
0000
0000
0000
0000
,
0000
0000
0000
0000
,
0000
0000
0000
0000
,
1000
0000
0000
0000
,
1000
0000
0001
0000
,
0100
0000
0000
0000
,
0100
0000
0001
0000
,
0010
0000
0000
0000
,
0010
0000
1000
0000
,
0001
0000
0000
0000
,
1001
0000
1001
0000
,
0002
0000
1003
0000
,
1001
0000
0000
0000
,
2000
0000
3001
0000
,
1001
0000
0000
0000
,
2000
0000
3001
0000
,
1001
0000
0000
0000
,
0002
0000
1003
0000
,
1001
0000
0000
0000
,
1000
0000
1000
0000
,
0001
0000
0000
0000
,
0001
0000
0001
0000
,
1000
0000
0000
0000
,
1000
0000
1000
0000
,
0001
0000
0000
0000
,
0001
0000
0001
0000
,
1000
0000
0000
0000
,
0010
0000
0010
0000
,
0100
0000
0100
0000
,
0002
0000
0003
0000
,
2000
0000
3000
0000
,
0101
0000
0000
0000
,
0101
0000
0000
0000
,
1010
0000
0000
0000
,
1010
0000
0000
0000
,
0001
0000
0001
0000
,
1000
0000
0000
0000
,
0001
0000
0001
0000
,
0100
0000
0000
0000
,
0101
0000
0000
0000
,
0101
0000
0000
0000
,
1010
0000
0000
0000
,
1010
0000
0000
0000
,
1000
0000
1000
0000
,
0010
0000
0000
0000
,
1000
0000
1000
0000
,
0001
0000
0000
0000
,
0110
0000
0010
0000
,
0110
0000
0000
0000
,
1001
0000
1001
0000
,
0001
0000
0001
0000
,
0110
0000
0100
0000
,
0110
0000
0000
0000
,
0001
0000
0100
0000
,
0010
0000
1000
0000
,
0001
0000
0000
2002
,
0000
0000
0000
3003
;
