#TITLE:Transformers;
#SUBTITLE:;
#ARTIST:Powerglove;
#TITLETRANSLIT:;
#SUBTITLETRANSLIT:;
#ARTISTTRANSLIT:;
#GENRE:;
#CREDIT:;
#BANNER:Transformers - Powerglovebn.png;
#BACKGROUND:Transformers - Powerglovebg.png;
#LYRICSPATH:;
#CDTITLE:encorerebirth.png;
#MUSIC:Transformers - Powerglove.ogg;
#OFFSET:0.000;
#SAMPLESTART:56.740;
#SAMPLELENGTH:14.811;
#SELECTABLE:YES;
#BPMS:0.000=160.000
;
#STOPS:60.000=0.023,
60.250=0.023,
60.500=0.047,
60.750=0.047,
61.000=0.023,
61.250=0.023,
178.750=0.023,
179.000=0.047,
179.250=0.023,
179.500=0.047,
179.750=0.023,
180.000=0.023,
300.000=0.023,
300.250=0.023,
300.500=0.047,
300.750=0.023,
301.000=0.047,
301.250=0.023
;
#BGCHANGES:;
#KEYSOUNDS:;
#ATTACKS:;

//---------------dance-single - Spork!----------------
#NOTES:
     dance-single:
     :
     Beginner:
     1:
     0.105,0.129,0.051,0.101,0.000,69.000,6.000,12.000,0.000,0.000,0.000,0.105,0.129,0.051,0.101,0.000,69.000,6.000,12.000,0.000,0.000,0.000:
0000
0000
0000
0000
,
0000
0000
0000
0000
,
0000
0000
0000
0000
,
0000
0000
0000
0000
,
1000
0000
0000
1000
0000
0000
1000
0000
,
0000
0000
0000
0000
,
0001
0000
0000
0001
0000
0000
0001
0000
,
0000
0000
0000
0000
,
1000
0000
0000
0000
,
1000
0000
0000
0000
,
0001
0000
0000
0000
,
0001
0000
0000
0000
,
0020
0000
0000
0000
,
0230
0000
0000
0000
,
0000
0000
0000
0000
,
0000
0000
0000
0000
0000
0000
0000
0000
0000
0000
0000
0000
0000
0000
0000
0000
0000
0000
0000
0000
0000
0000
0000
0000
0000
0000
0000
0000
0000
0000
0000
0000
0000
0000
0000
0000
0000
0000
0000
0000
0000
0000
0000
0000
0000
0000
0000
0000
0000
0000
0000
0000
0000
0000
0000
0000
0000
0000
0000
0000
0000
0000
0000
0000
0000
0000
0000
0000
0000
0000
0000
0000
0000
0000
0000
0000
0000
0000
0000
0000
0000
0000
0000
0000
0000
0000
0000
0000
0000
0000
0000
0000
0000
0000
0000
0000
0000
0000
0000
0000
0000
0000
0000
0000
0000
0000
0000
0000
0000
0000
0000
0000
0000
0000
0000
0000
0000
0000
0000
0000
0000
0300
0000
0000
0000
0000
0000
0000
0000
0000
0000
0000
0000
0000
0000
0000
0000
0000
0000
0000
0000
0000
0000
0000
0000
0000
0000
0000
0000
0000
0000
0000
0000
0000
0000
0000
0000
0000
0000
0000
0000
0000
0000
0000
0000
0000
0000
0000
0000
0000
0000
0000
0000
0000
0000
0000
0000
0000
0000
0000
0000
0000
0000
0000
0000
0000
0000
0000
0000
0000
0000
0000
,
0000
0000
0000
0000
,
0000
0000
0000
1000
,
0000
0000
0000
0001
,
0000
0000
0000
0100
,
0000
0000
0000
0010
,
0000
0000
0000
0110
,
0000
0000
0000
0100
,
0000
0000
0000
0001
,
0000
0000
0000
1000
,
0000
0001
0000
0001
,
0000
0000
0000
1000
,
0000
0000
0000
0100
,
0000
0000
0000
0010
,
0000
0000
0000
0110
,
0000
0000
0000
0100
,
0000
0000
0000
1000
,
0000
0000
0000
0001
,
0000
1000
0000
2000
,
0000
0000
0000
3000
,
0000
0000
0000
0002
,
0000
0000
0000
0003
,
0000
0000
0100
0200
,
0000
0000
0000
0300
,
0000
0000
0000
0020
,
0000
0000
0000
0030
,
0000
0000
0000
1001
,
0000
0000
0000
0200
,
0000
0000
0000
0000
,
0000
0000
0000
0000
,
0000
0000
0000
0300
0000
0000
0000
0000
,
1000
0000
0000
0000
,
0001
0000
0000
0000
,
1001
0000
0100
0000
,
0000
0000
0000
0000
,
0001
0000
0000
0000
,
1000
0000
0000
0000
,
0100
0000
1000
0000
,
0001
0000
1000
0000
,
0010
0000
0000
0000
,
0100
0000
0000
0000
,
0001
0000
0000
0000
,
1000
0000
0000
0000
,
0001
0000
0000
0000
,
0010
0000
0001
0000
,
1000
0000
0100
0000
,
0000
0000
0100
0000
,
0000
0000
0010
0000
,
0000
0000
0010
0000
,
0020
0000
0000
0000
,
0030
0000
0000
0000
,
0200
0000
0000
0000
,
0300
0000
0000
1000
,
2000
0000
0000
0000
,
3000
0000
0000
0000
,
0002
0000
0000
0000
,
0003
0000
0000
0000
,
1001
0000
0000
0000
,
0020
0000
0000
0000
,
0000
0000
0000
0000
,
0000
0000
0000
0000
0000
0030
0100
0000
,
0000
0010
0000
0000
1001
0000
0000
0000
;

//---------------dance-single - Spork!----------------
#NOTES:
     dance-single:
     :
     Easy:
     4:
     0.311,0.323,0.177,0.296,0.000,202.000,21.000,35.000,0.000,0.000,0.000,0.311,0.323,0.177,0.296,0.000,202.000,21.000,35.000,0.000,0.000,0.000:
0000
0000
0000
0000
,
0000
0000
0000
0000
,
0000
0000
0000
0000
,
0000
0000
0000
0000
,
0011
0000
0000
1001
0000
0000
0101
0000
,
0000
0000
0000
0000
,
1100
0000
0000
1001
0000
0000
1010
0000
,
0000
0000
0000
0000
,
1000
0000
0000
1000
0000
0000
1000
0000
,
0100
0010
0001
0100
,
0001
0000
0000
0001
0000
0000
0001
0000
,
0010
0100
1000
0010
,
0100
0000
0000
0000
,
0002
0000
0000
2003
0000
0000
3200
0000
,
0000
2300
0000
0000
3020
0000
0000
0230
,
0000
0000
0000
0000
0000
0000
0000
0000
0000
0000
0000
0000
0000
0000
0000
0000
0000
0000
0000
0000
0000
0000
0000
0000
0000
0000
0000
0000
0000
0000
0000
0000
0000
0000
0000
0000
0000
0000
0000
0000
0000
0300
0000
0000
0000
0000
0000
0000
0000
0000
0000
0000
0000
0000
0000
0000
0000
0000
0000
0000
0000
0000
0000
0000
,
0000
0000
0000
0000
,
0000
0000
0000
0001
,
1000
0020
0000
1030
,
0100
0010
0001
0100
,
0010
1000
0001
0010
,
0001
0100
0010
0010
,
0000
1000
0100
0001
,
0000
0001
0100
1000
,
0001
0100
0001
0020
,
0000
0230
0000
1300
,
1000
1000
0010
0100
,
0001
0010
0010
0001
,
0001
0001
0100
0010
,
1000
0001
0001
0100
,
0000
0001
0010
1000
,
0000
1000
0010
0001
,
1000
0010
1000
0200
,
0000
0320
0000
0130
,
0100
0021
0000
0031
,
0100
0010
1000
0100
,
0000
0110
0000
0001
,
1000
0001
0100
0010
,
0010
1200
0000
1300
,
0010
0100
0001
0010
,
0000
0110
0000
1000
,
0000
0100
0000
1000
,
0001
0000
0100
0020
,
0000
2030
0000
0000
3002
0000
0000
0023
,
0000
0000
0032
0000
0000
0203
0000
0000
,
0000
0000
0000
0300
0000
0000
0010
0000
,
0010
0000
1000
0000
,
0001
0000
1001
0000
,
1000
0100
0010
0000
,
0001
0000
1000
0000
,
0010
1000
0001
0000
,
0010
0000
0001
0000
,
0200
0000
0310
0000
,
0020
0000
0130
0000
,
1000
0100
0010
0001
,
1000
0000
0001
0000
,
1002
0000
0203
0000
,
0310
1000
0100
0010
,
0001
0100
0001
0010
,
0100
1000
0010
0010
,
2001
0000
3100
0000
,
0012
0000
0103
0000
,
1020
0000
0130
0000
,
0210
0000
0310
0010
,
0201
0000
0310
1000
,
0001
0010
0100
0000
,
1001
1000
0001
0010
,
0100
1000
0010
0010
,
1200
0000
0310
0001
,
1000
0010
0100
0000
,
1001
0001
1000
0010
,
0100
0001
0010
0000
,
0001
1000
0000
0010
,
0200
0000
0000
0302
0000
0000
0023
0000
,
0000
0032
0000
0000
2003
0000
0000
3200
,
0000
0000
0000
0000
0000
0300
0010
0000
,
0000
0100
0000
0000
1001
0000
0000
0000
;

//---------------dance-single - Spork!----------------
#NOTES:
     dance-single:
     :
     Medium:
     7:
     0.414,0.517,0.346,0.110,0.030,289.000,41.000,13.000,0.000,0.000,0.000,0.414,0.517,0.346,0.110,0.030,289.000,41.000,13.000,0.000,0.000,0.000:
0000
0000
0000
0000
,
0000
0000
0000
0000
,
0000
0000
0000
0000
,
0000
0000
0000
0000
,
1010
0000
0000
0110
0000
0000
0101
0000
,
0000
0001
1000
0001
,
0011
0000
0000
0110
0000
0000
1100
0000
,
0000
1000
0001
0000
,
0100
0000
0000
0100
0000
0000
0100
0000
,
0001
0000
1000
0001
1000
0001
1000
0001
,
0010
0000
0000
0010
0000
0000
0010
0000
,
0001
0000
0100
0010
0100
0010
0100
0000
,
0002
0000
0000
0000
,
1003
0000
1000
0100
0000
0100
0010
0000
,
0010
0001
0000
0001
0100
0000
0100
0020
,
0000
0000
0000
0000
0000
0000
0000
0000
0000
0000
0000
0000
0000
0000
0000
0000
0000
0000
0000
0000
0000
0000
0000
0000
0000
0000
0000
0000
0000
0000
0000
0000
0000
0000
0000
0000
0000
0000
0000
0000
0000
0030
0000
0000
0000
0000
0000
0000
0000
0000
0000
0000
0000
0000
0000
0000
0000
0000
0000
0000
0000
0000
0000
0000
,
0000
0000
0000
0000
,
0000
0000
0000
1000
,
0100
1100
1000
0010
,
0100
0110
0100
0001
,
1000
1100
1001
0101
,
0001
0000
1000
0000
0001
1000
0001
0000
,
0010
0001
0100
0010
,
1000
0000
0100
0000
1000
0001
1000
0000
,
0100
1000
0010
0200
,
0000
0010
0310
0000
0000
0000
0101
0000
,
1100
0101
1100
0110
,
1001
0110
1001
0011
,
1010
0011
1010
0110
,
1001
0000
0110
0000
0010
0100
0010
0000
,
0000
1100
0100
0010
,
0000
0101
0100
0010
,
1000
0001
0010
0200
,
0000
0000
0320
0000
0000
0000
0031
1000
,
0100
0010
0000
0000
0100
0000
1000
0000
,
0010
0000
0100
0000
0100
0000
0010
1000
,
0001
1000
0010
0100
0000
0000
0001
0000
,
0010
0000
0100
0000
1000
0000
1000
0001
,
0100
0010
0000
0000
0100
0000
0001
0000
,
0010
0000
0100
0000
1000
0000
0010
1000
,
0001
1000
0010
0100
0000
0000
0010
0000
,
1000
0000
0100
0000
0010
0000
0001
1000
,
0002
0000
0103
0001
,
0001
0010
0000
0010
0100
0000
0100
1000
,
0000
1000
0010
0000
0010
0200
0000
0000
,
0000
0000
0000
0300
0000
0000
0010
0000
,
0100
0000
0001
0000
,
1000
0000
1001
0000
,
1000
0000
0000
1000
0000
0000
1000
0000
0100
0000
0000
0000
0010
0000
0000
0000
,
0001
0000
0100
0010
0000
0000
0010
0000
,
1000
0000
0100
0000
0000
0100
0000
0000
,
0010
0000
0001
0000
1000
0000
0001
1000
,
0001
0100
0101
0100
,
0010
0000
1000
0000
1100
0000
1000
0001
,
1000
0010
0100
0001
,
0020
0000
0000
0100
0130
0000
0010
0000
,
2001
3010
1002
0103
,
0001
0000
0010
0100
0000
0000
0100
0000
,
2000
0000
3010
0000
1000
0010
0100
0000
,
0001
0010
0100
0000
1001
0000
1001
0000
,
1000
0010
1010
0100
,
0001
0010
0011
0100
,
1000
0010
1001
0100
,
1000
0000
0010
0000
1000
0000
0001
0000
0010
0000
0001
0000
,
1000
0001
0010
0100
0000
0000
0010
0000
,
0001
0000
0100
0010
0100
0000
0010
0000
,
0100
0001
1000
0001
0100
0010
0000
0000
,
1000
0100
0010
0001
,
0001
1000
0010
0100
0000
0000
0100
0000
,
0001
0000
0010
0000
0100
0000
1000
0000
0000
0001
0000
0000
,
0100
0001
0000
1000
0000
0001
0000
0100
,
0000
0100
0001
0000
0010
0000
0100
0000
,
1000
0001
2000
0000
0000
0000
3010
0000
,
1000
0000
1000
0100
0000
0100
0010
0000
,
0010
0001
0000
0001
0100
0000
0100
0020
,
0000
0000
0000
0000
0000
0030
0101
0000
,
0000
1001
0000
0000
1100
0000
0000
0000
;

//---------------dance-single - Spork!----------------
#NOTES:
     dance-single:
     :
     Hard:
     9:
     0.632,0.678,0.388,0.329,0.198,439.000,46.000,39.000,0.000,0.000,0.000,0.632,0.678,0.388,0.329,0.198,439.000,46.000,39.000,0.000,0.000,0.000: // measure 0
0000
0000
0000
0000
,  // measure 1
0000
0000
0000
0000
,  // measure 2
0000
0000
0000
0000
,  // measure 3
0000
0000
0000
0000
,  // measure 4
0101
0000
0000
1100
0000
0000
0101
0000
,  // measure 5
0000
0001
0010
0010
0100
1000
0010
0100
,  // measure 6
1010
0000
0000
0011
0000
0000
1010
0000
,  // measure 7
1000
0001
1000
0110
,  // measure 8
2000
0010
0000
3020
0100
0000
2030
0100
,  // measure 9
0001
3000
0001
0100
0010
1000
0100
0010
,  // measure 10
0002
0100
0000
0203
0010
0000
0302
0010
,  // measure 11
1000
0003
1000
0100
0010
0001
0100
0010
,  // measure 12
2000
0000
0000
3001
,  // measure 13
0011
0000
0010
0110
0000
0100
1100
0000
,  // measure 14
1000
1010
0000
0010
0110
0000
0100
0102
,  // measure 15
0000
0000
0000
0000
0000
0000
0000
0000
0000
0000
0000
0000
0000
0000
0000
0000
0000
0000
0000
0000
0000
0000
0000
0000
0000
0000
0000
0000
0000
0000
0000
0000
0000
0000
0000
0000
0000
0000
0000
0000
0000
0003
0000
0000
0000
0000
0000
0000
0000
0000
0000
0000
0000
0000
0000
0000
0000
0000
0000
0000
0000
0000
0000
0000
,  // measure 16
0000
0000
0000
0000
,  // measure 17
0000
0000
0000
0000
0000
0000
1000
0100
,  // measure 18
1000
0010
0200
0301
0010
0100
1000
0010
,  // measure 19
0200
0302
1003
0010
2000
3100
0020
0031
,  // measure 20
0200
0320
1030
0002
0013
0200
0310
0001
,  // measure 21
0100
0010
1000
0100
1000
0001
1002
0000
,  // measure 22
0013
0001
0100
1000
0100
0001
1000
0100
,  // measure 23
0010
0001
0100
0100
0010
1000
2001
0000
,  // measure 24
3010
1000
0100
0001
0100
1000
0002
0000
,  // measure 25
0103
0000
0010
0000
2000
0000
0000
0000
3001
0000
0000
0000
0001
0010
0000
0000
,  // measure 26
0010
0100
0000
0000
0100
1000
0000
0000
0001
1000
0001
0000
1000
0010
0000
0000
,  // measure 27
0010
0100
0000
0000
0100
0001
0000
0000
0001
1000
0001
0000
1000
0100
0000
0000
,  // measure 28
0100
0010
0000
0000
0010
0001
0000
0000
1000
0001
1000
0000
0001
0100
0000
0000
,  // measure 29
0100
0010
0000
0000
2010
0000
0000
0000
3001
0000
0000
0000
1002
0000
0000
0000
,  // measure 30
0000
0000
0000
0000
0013
0000
0000
0000
0100
0010
0100
0010
0200
0000
0000
0000
,  // measure 31
0000
0000
1300
0000
0001
0100
2001
0000
,  // measure 32
0000
0000
0000
0000
3010
0000
0000
0000
0100
0010
0100
0010
0200
0000
0000
0000
,  // measure 33
0000
0000
0301
0000
1000
0000
0001
0010
,  // measure 34
1000
0010
0001
0010
1000
0010
0001
0100
,  // measure 35
0010
1000
0100
0010
0001
0001
1000
0010
,  // measure 36
0001
0010
1000
0100
0000
0110
0000
0010
,  // measure 37
0001
1000
0010
0100
0001
0001
1000
0100
,  // measure 38
0001
0100
1000
0100
0001
0100
1000
0010
,  // measure 39
0100
0001
0010
0100
1000
1000
0001
0100
,  // measure 40
1000
0000
0100
0000
0001
0000
0010
0000
0000
0000
0100
0000
1000
0001
1000
0000
,  // measure 41
0010
0000
1000
0001
1000
0000
0100
0000
0010
0000
0000
0000
0001
0000
0100
0000
,  // measure 42
1001
1000
0101
1100
,  // measure 43
0100
0110
0000
0010
0011
0000
0001
0101
,  // measure 44
0000
0100
0110
0000
0010
2010
0000
0000
,  // measure 45
0000
0000
0000
0000
0000
0000
0000
0000
0000
0000
0000
0000
0000
0000
0000
0000
0000
0000
0000
0000
0000
0000
0000
0000
0000
3000
0000
0000
0000
0000
0000
0000
0001
0000
0000
0000
0000
0000
0000
0000
0000
0000
0000
0000
0000
0000
0000
0000
1000
0000
0000
0000
0000
0000
0000
0000
0100
0000
0000
0000
0000
0000
0000
0000
,  // measure 46
1000
0010
0100
0000
0010
0000
0000
0000
,  // measure 47
0010
0100
0000
0000
0100
0001
1000
0001
,  // measure 48
0011
0000
0000
0010
0000
0000
0100
0000
1000
0000
0010
0000
1000
0000
0100
0000
,  // measure 49
0010
0001
0100
0020
0000
0000
1030
0000
,  // measure 50
1010
0000
0100
0001
0010
0001
0100
0010
,  // measure 51
1000
0100
0010
0001
1000
0001
0100
0010
,  // measure 52
0120
0000
1030
0100
0010
0100
1000
0020
,  // measure 53
0000
0130
0010
1000
0001
0000
0010
0100
,  // measure 54
0120
0000
0031
0100
0010
0100
0001
1000
,  // measure 55
0200
0000
0000
0000
0310
0000
0001
1000
0001
0000
0000
0000
0100
0000
0000
0000
,  // measure 56
0001
0010
0000
0000
1000
0010
0000
0000
0100
0010
0100
0000
0010
0001
0000
0000
,  // measure 57
1000
0010
0000
0000
0001
0010
0000
0000
0100
0010
0100
0000
0001
1000
0000
0000
,  // measure 58
0001
0100
0000
0000
1000
0100
0000
0000
0010
0100
0010
0000
0100
0001
0000
0000
,  // measure 59
1000
0100
0000
0000
0001
0100
0000
0000
0210
0000
0000
0000
1300
0000
0000
0000
,  // measure 60
1002
0000
0000
0000
0000
0000
0000
0000
0103
0000
0000
0000
0010
0100
0010
0100
,  // measure 61
0020
0000
0000
0000
0000
0000
0000
0000
1030
0000
0000
0000
1000
0001
1000
0001
,  // measure 62
2000
0000
3100
0000
,  // measure 63
0100
0000
1000
0000
0010
0000
0100
0000
0001
0000
0010
0000
,  // measure 64
0001
0100
1000
0100
0001
0100
1000
0100
,  // measure 65
0001
0000
0000
0010
0000
0000
0100
0000
1000
0000
0001
0000
1000
0000
0010
0000
,  // measure 66
1000
0100
0001
0100
1000
0010
0000
0110
,  // measure 67
0000
0100
0001
0010
0100
0100
1000
0001
,  // measure 68
1000
0010
0001
0010
1000
0010
0001
0010
,  // measure 69
1000
0000
0000
0000
0100
0000
0000
0000
0010
0000
0000
0000
0001
0000
0000
0010
0000
0000
0001
0000
0000
0100
0000
0000
,  // measure 70
0001
0010
1000
0010
0001
0100
0000
0110
,  // measure 71
0000
0010
1000
0100
0020
0000
0130
0000
,  // measure 72
1000
0010
1001
0000
0001
0000
0101
0000
,  // measure 73
1100
0000
0010
0110
0000
0001
1001
0000
,  // measure 74
0100
0101
0000
0010
1010
0000
0100
2002
,  // measure 75
0000
0000
0000
0000
0000
3003
0110
0000
,  // measure 76
0000
1001
0000
0000
0110
0000
0000
0000
;
