#VERSION:0.81;
#TITLE:永久のキズナ;
#SUBTITLE:;
#ARTIST:Daisy×Daisy feat. Another Infinity;
#TITLETRANSLIT:Towa no Kizuna;
#SUBTITLETRANSLIT:;
#ARTISTTRANSLIT:;
#GENRE:;
#ORIGIN:;
#CREDIT:;
#BANNER:;
#BACKGROUND:;
#PREVIEWVID:;
#JACKET:[Theme] - Towa no Kizuna-jacket.png;
#CDIMAGE:;
#DISCIMAGE:;
#LYRICSPATH:;
#CDTITLE:;
#MUSIC:[Theme] - Towa no Kizuna.ogg;
#OFFSET:-5.505;
#SAMPLESTART:57.172;
#SAMPLELENGTH:13.383;
#SELECTABLE:YES;
#BPMS:0.000=144.000;
#STOPS:;
#DELAYS:;
#WARPS:;
#TIMESIGNATURES:0.000=4=4;
#TICKCOUNTS:0.000=4;
#COMBOS:0.000=1;
#SPEEDS:0.000=1.000=0.000=0;
#SCROLLS:0.000=1.000;
#FAKES:;
#LABELS:0.000=Song Start;
#BGCHANGES:;
#KEYSOUNDS:;
#ATTACKS:
;

//---------------dance-single - ----------------
#NOTEDATA:;
#CHARTNAME:;
#STEPSTYPE:dance-single;
#DESCRIPTION:;
#CHARTSTYLE:;
#DIFFICULTY:Beginner;
#METER:1;
#RADARVALUES:0.086,0.141,0.057,0.057,0.000,51.000,6.000,6.000,0.000,0.000,0.000,0.000,0.000,0.086,0.141,0.057,0.057,0.000,51.000,6.000,6.000,0.000,0.000,0.000,0.000,0.000;
#CREDIT:;
#NOTES:
// measure 0
0000
0000
0000
0000
,  // measure 1
0000
0000
0000
0000
,  // measure 2
0000
0000
0000
0000
,  // measure 3
0000
0000
0000
0000
,  // measure 4
0000
0000
0000
0000
,  // measure 5
1001
0000
0000
0000
,  // measure 6
1000
0000
0000
0000
,  // measure 7
1000
0000
0000
0000
,  // measure 8
0001
0000
0000
0000
,  // measure 9
0001
0000
0001
0000
,  // measure 10
0001
0000
0000
0000
,  // measure 11
0001
0000
0000
0000
,  // measure 12
1000
0000
1000
0000
,  // measure 13
1000
0000
0000
0000
,  // measure 14
2002
0000
0000
0000
,  // measure 15
0000
0000
0000
0000
,  // measure 16
3003
0000
0000
0000
,  // measure 17
0000
0000
0000
0000
,  // measure 18
0010
0000
0000
0000
,  // measure 19
0010
0000
0000
0000
,  // measure 20
0100
0000
0000
0000
,  // measure 21
0100
0000
0000
0000
,  // measure 22
0010
0000
0000
0000
,  // measure 23
0010
0000
0000
0000
,  // measure 24
0100
0000
0000
0000
,  // measure 25
0100
0000
0000
0000
,  // measure 26
0001
0000
0001
0000
,  // measure 27
0001
0000
0000
0000
,  // measure 28
1000
0000
1000
0000
,  // measure 29
1000
0000
0000
0000
,  // measure 30
1001
0000
0000
0000
,  // measure 31
0001
0000
0000
0000
,  // measure 32
0001
0000
0000
0000
,  // measure 33
1000
0000
0000
0000
,  // measure 34
1000
0000
1000
0000
,  // measure 35
1000
0000
0000
0000
,  // measure 36
1000
0000
0000
0000
,  // measure 37
0001
0000
0001
0000
,  // measure 38
0001
0000
0000
0000
,  // measure 39
1000
0000
0000
0000
,  // measure 40
1000
0000
0000
0000
,  // measure 41
0001
0000
0000
0000
,  // measure 42
0001
0000
0001
0000
,  // measure 43
0001
0000
0000
0000
,  // measure 44
0001
0000
0000
0000
,  // measure 45
1000
0000
1000
0000
,  // measure 46
1000
0000
0000
0000
,  // measure 47
2002
0000
0000
0000
,  // measure 48
0000
0000
0000
0000
,  // measure 49
0000
0000
0000
0000
,  // measure 50
3003
0000
0010
0000
,  // measure 51
0220
0000
0000
0000
,  // measure 52
0000
0000
0000
0000
,  // measure 53
0000
0000
0000
0000
,  // measure 54
0000
0000
0000
0330
,  // measure 55
0000
0000
0000
0000
,  // measure 56
0000
0000
0000
0000
,  // measure 57
0000
0000
0000
0000
,  // measure 58
0000
0000
0000
0000
0000
0000
0000
1001
;

//---------------dance-single - ----------------
#NOTEDATA:;
#CHARTNAME:;
#STEPSTYPE:dance-single;
#DESCRIPTION:;
#CHARTSTYLE:;
#DIFFICULTY:Hard;
#METER:8;
#RADARVALUES:0.487,0.478,0.182,0.124,0.244,325.000,19.000,13.000,0.000,0.000,0.000,0.000,0.000,0.487,0.478,0.182,0.124,0.244,325.000,19.000,13.000,0.000,0.000,0.000,0.000,0.000;
#CREDIT:;
#NOTES:
// measure 0
0000
0000
0000
0000
,  // measure 1
0000
1000
0000
1000
,  // measure 2
0000
0000
0001
0000
0000
0000
0001
0100
,  // measure 3
0100
0000
0000
1000
0000
0000
0000
0000
,  // measure 4
0100
0000
0000
0010
,  // measure 5
2002
0000
3003
0000
,  // measure 6
1000
0000
0100
0000
0010
0000
0001
1000
0000
0000
0100
0000
1000
0000
0010
0000
,  // measure 7
0100
0000
0001
0000
1000
0000
0010
0100
0000
0000
0000
0000
1001
0000
0000
0000
,  // measure 8
0001
0000
0100
0000
0010
0000
1000
0001
0000
0000
0100
0000
0001
0000
0010
0000
,  // measure 9
0011
0010
0100
1000
1100
1000
0001
0000
,  // measure 10
1000
0000
0010
0000
0100
0000
0001
1000
0000
0000
0010
0000
1000
0000
0100
0000
,  // measure 11
0010
0000
0001
0000
1000
0000
0100
0010
0000
0000
0000
0000
0100
0000
1000
0000
,  // measure 12
0100
0000
0000
0100
0000
0000
0010
0000
0001
0000
0100
0000
0010
0000
0100
0000
,  // measure 13
1000
0000
0000
0000
1000
0000
0100
0000
0001
0000
0000
0001
0000
0000
0010
0000
,  // measure 14
0001
0000
0000
0010
0000
0000
0001
0000
0000
0100
0000
0000
0001
0000
0001
0000
,  // measure 15
1000
0000
0000
0100
0000
0000
1000
0000
0000
0010
0000
0000
1000
0000
1000
0000
,  // measure 16
0100
0000
0000
0010
0000
0000
0100
0000
0000
1000
0000
0000
0100
0000
0100
0000
,  // measure 17
0010
0000
0000
0001
0000
0000
0010
0000
0000
0100
0000
0000
0010
0000
0010
0000
,  // measure 18
0000
0000
0001
0000
0001
0000
0010
0000
0100
0000
1000
0001
0000
0000
1000
0000
,  // measure 19
1000
0000
0010
0000
0100
0000
0001
1000
0000
0000
0001
0000
0100
0000
1000
0000
,  // measure 20
0000
0000
0100
0000
0100
0000
0001
0000
0100
0000
0010
1000
0000
0000
0100
0000
,  // measure 21
0100
0000
1000
0000
0100
0000
0010
0001
0000
0000
1000
0000
0100
0000
0001
0000
,  // measure 22
0000
0000
0001
0000
0001
0000
0100
0000
1000
0000
0001
0100
0000
0000
1000
0000
,  // measure 23
1000
0000
0100
0000
0001
0000
1000
0100
0000
0000
1000
0000
0010
0000
0001
0000
,  // measure 24
0000
0000
0010
0000
0010
0000
1000
0000
0001
0000
0010
0100
0000
0000
0010
0000
,  // measure 25
0010
0000
0001
0000
1000
0000
0010
0100
0000
0000
1000
0000
0100
0000
0001
0000
,  // measure 26
0200
0000
0000
0301
0000
0000
1000
0000
0020
0000
0000
0000
1030
0000
0000
0000
,  // measure 27
2000
0000
0000
3100
0000
0000
0010
0000
0001
0000
0010
0000
0100
0000
0010
0000
,  // measure 28
2000
0000
0000
3010
0000
0000
0100
0000
2000
0000
0000
0000
3001
0000
0100
0001
,  // measure 29
0100
0000
0000
0010
0000
0000
0001
0000
0020
0000
0000
0000
0000
0000
0000
0000
,  // measure 30
0200
0000
0330
0000
,  // measure 31
0001
0000
0010
0000
0100
0000
1000
0001
0000
0000
0010
0000
0001
0000
0100
0000
,  // measure 32
0010
0000
1000
0000
0001
0000
0100
0010
0000
0000
0000
0000
1001
0000
0000
0000
,  // measure 33
1000
0000
0010
0000
0100
0000
0001
1000
0000
0000
0010
0000
1000
0000
0100
0000
,  // measure 34
1100
0100
0010
0001
0101
0001
1000
0000
,  // measure 35
0001
0000
0100
0000
0010
0000
1000
0001
0000
0000
0100
0000
0001
0000
0010
0000
,  // measure 36
0100
0000
1000
0000
0001
0000
0010
0100
0000
0000
0000
0000
0010
0000
0001
0000
,  // measure 37
0010
0000
0000
0010
0000
0000
0100
0000
1000
0000
0010
0000
0100
0000
0010
0000
,  // measure 38
0001
0000
1000
0100
0001
0000
1001
0000
,  // measure 39
1000
0000
0010
0000
0100
0000
0001
1000
0000
0000
0010
0000
1000
0000
0100
0000
,  // measure 40
0010
0000
0001
0000
1000
0000
0100
0010
0000
0000
0000
0000
1001
0000
0000
0000
,  // measure 41
0001
0000
0010
0000
0100
0000
1000
0001
0000
0000
0010
0000
0001
0000
0100
0000
,  // measure 42
0101
0100
0010
1000
1010
1000
0001
0000
,  // measure 43
1000
0000
0100
0000
0010
0000
0001
1000
0000
0000
0100
0000
1000
0000
0010
0000
,  // measure 44
0100
0000
0001
0000
1000
0000
0010
0100
0000
0000
0000
0000
0010
0000
1000
0000
,  // measure 45
0010
0000
0000
0010
0000
0000
0100
0000
0001
0000
0010
0000
0100
0000
0010
0000
,  // measure 46
1000
0000
0000
0000
0001
0000
0100
0000
1000
0000
0000
1000
0000
0000
0001
0000
,  // measure 47
0101
0000
0000
0000
0000
0000
0010
0000
0000
0010
0000
0000
0100
0000
0101
0000
,  // measure 48
0101
0000
0000
0000
0000
0000
0010
0000
0000
0010
0000
0000
0100
0000
1100
0000
,  // measure 49
1100
0000
0000
0011
0000
0000
0000
0000
,  // measure 50
0220
0000
0330
0000
,  // measure 51
1000
0000
0000
0100
0000
0000
1000
0000
0000
0010
0000
0000
1000
0000
1000
0000
,  // measure 52
0001
0000
0000
0100
0000
0000
0001
0000
0000
0010
0000
0000
0001
0000
0001
0000
,  // measure 53
0100
0000
0000
1000
0000
0000
0100
0000
0000
0001
0000
0000
0010
0000
0010
0000
,  // measure 54
0100
0000
0000
0001
0000
0000
0100
0000
0000
1000
0000
0000
0001
0000
2002
0000
,  // measure 55
0000
0000
0000
0000
,  // measure 56
0000
0000
0000
0000
,  // measure 57
0000
0000
0000
0000
,  // measure 58
0000
0000
0000
0000
0000
0000
0000
3003
;

//---------------dance-single - ----------------
#NOTEDATA:;
#CHARTNAME:;
#STEPSTYPE:dance-single;
#DESCRIPTION:;
#CHARTSTYLE:;
#DIFFICULTY:Easy;
#METER:3;
#RADARVALUES:0.229,0.197,0.048,0.048,0.000,158.000,5.000,5.000,0.000,0.000,0.000,0.000,0.000,0.229,0.197,0.048,0.048,0.000,158.000,5.000,5.000,0.000,0.000,0.000,0.000,0.000;
#CREDIT:;
#NOTES:
// measure 0
0000
0000
0000
0000
,  // measure 1
0000
0001
0000
0001
,  // measure 2
0000
1000
0000
1000
,  // measure 3
0000
0001
0000
1000
,  // measure 4
0000
0001
0000
1000
,  // measure 5
2002
0000
3003
0000
,  // measure 6
1000
0100
0010
0001
,  // measure 7
0010
0100
1000
0000
,  // measure 8
0001
0100
0010
1000
,  // measure 9
0010
0010
0100
0000
,  // measure 10
0001
0010
0100
1000
,  // measure 11
0010
0100
0001
0000
,  // measure 12
0010
0000
0010
0001
,  // measure 13
1000
0000
0010
0100
,  // measure 14
0001
0000
0001
0001
,  // measure 15
0100
0000
1000
1000
,  // measure 16
0100
0000
0001
0001
,  // measure 17
0010
0000
1000
1000
,  // measure 18
0000
0001
0100
0010
,  // measure 19
1000
0100
0010
0001
,  // measure 20
0000
1000
0010
0100
,  // measure 21
0001
0010
0100
1000
,  // measure 22
0000
0001
0100
0010
,  // measure 23
0100
1000
0100
0001
,  // measure 24
0000
1000
0100
0010
,  // measure 25
0100
0001
0100
1000
,  // measure 26
0001
0001
0100
0000
,  // measure 27
1000
1000
0100
0100
,  // measure 28
0001
0001
0100
0000
,  // measure 29
0010
0010
0020
0000
,  // measure 30
0000
0000
0030
0000
,  // measure 31
0001
0100
0010
1000
,  // measure 32
0010
0100
0001
0000
,  // measure 33
1000
0100
0010
0001
,  // measure 34
0010
0010
0100
0000
,  // measure 35
1000
0010
0100
0001
,  // measure 36
0010
0100
1000
0000
,  // measure 37
0010
0000
0010
1000
,  // measure 38
0001
0010
0100
0000
,  // measure 39
1000
0100
0010
0001
,  // measure 40
0010
0100
1000
0000
,  // measure 41
0001
0100
0010
1000
,  // measure 42
0010
0010
0100
0000
,  // measure 43
0001
0010
0100
1000
,  // measure 44
0010
0100
0001
0000
,  // measure 45
0010
0000
0010
0001
,  // measure 46
1000
0000
0010
0100
,  // measure 47
0001
0000
0000
0000
,  // measure 48
0011
0000
0000
0000
,  // measure 49
1010
0000
0000
1000
0000
0000
0000
0000
,  // measure 50
1001
0000
0000
0000
,  // measure 51
0001
0000
1000
1000
,  // measure 52
0100
0000
0010
0010
,  // measure 53
0001
0000
0000
0001
0000
0000
0000
0000
,  // measure 54
1000
0000
0000
0000
0000
0000
0000
0220
,  // measure 55
0000
0000
0000
0000
,  // measure 56
0000
0000
0000
0000
,  // measure 57
0000
0000
0000
0000
,  // measure 58
0000
0000
0000
0000
0000
0000
0000
0330
;

//---------------dance-single - ----------------
#NOTEDATA:;
#CHARTNAME:;
#STEPSTYPE:dance-single;
#DESCRIPTION:;
#CHARTSTYLE:;
#DIFFICULTY:Medium;
#METER:6;
#RADARVALUES:0.371,0.338,0.210,0.096,0.000,240.000,22.000,10.000,0.000,0.000,0.000,0.000,0.000,0.371,0.338,0.210,0.096,0.000,240.000,22.000,10.000,0.000,0.000,0.000,0.000,0.000;
#CREDIT:;
#NOTES:
// measure 0
0000
0000
0000
0000
,  // measure 1
0000
0001
0000
0001
,  // measure 2
0000
1000
0000
1000
,  // measure 3
0100
0000
0000
0100
0000
0000
0000
0000
,  // measure 4
0010
0000
0000
0000
,  // measure 5
2002
0000
3003
0000
,  // measure 6
0010
1000
0010
1000
0100
0000
0010
0000
,  // measure 7
0100
1000
0001
0000
0100
0000
0101
0000
,  // measure 8
0100
0001
0100
0001
0010
0000
0100
0000
,  // measure 9
0010
0001
1000
0000
0010
1000
0001
0000
,  // measure 10
1000
0100
0010
0100
1000
0000
0100
0000
,  // measure 11
0010
0001
1000
0010
0100
0000
0001
0000
,  // measure 12
0010
0000
0100
0000
0001
0100
0010
0100
,  // measure 13
0001
0100
1100
1001
,  // measure 14
1010
0000
0100
0000
0001
0000
0010
0100
,  // measure 15
1000
0000
0001
0000
0100
0000
0010
1000
,  // measure 16
0001
0000
0010
0000
0100
0000
1000
0001
,  // measure 17
0100
0000
0010
0000
1000
0000
0001
1000
,  // measure 18
0000
1000
0100
0010
,  // measure 19
0001
0010
0100
1000
0000
0100
0010
0001
,  // measure 20
0000
1000
0010
0100
,  // measure 21
0001
0100
0010
1000
0000
0010
0100
0001
,  // measure 22
0000
1000
0001
0010
,  // measure 23
0100
1000
0001
0100
0000
1000
0100
0001
,  // measure 24
0000
0001
1000
0100
,  // measure 25
0010
0001
1000
0010
0000
0001
0010
1000
,  // measure 26
0010
0100
0101
0000
,  // measure 27
0010
0000
0001
0000
0001
0100
1000
0000
,  // measure 28
0100
1000
1100
0000
,  // measure 29
0001
0000
0010
0200
0020
0000
0000
0000
,  // measure 30
0000
0000
0330
0000
,  // measure 31
0001
0010
0001
0010
0100
0000
1000
0000
,  // measure 32
0010
1000
0100
0000
0010
0000
1001
0000
,  // measure 33
1000
0010
1000
0010
0100
0000
0001
0000
,  // measure 34
0001
0100
1000
0000
1000
0100
0001
0000
,  // measure 35
1000
0100
1000
0100
0010
0000
0001
0000
,  // measure 36
0100
0001
1000
0000
0100
0000
0110
0000
,  // measure 37
0020
0001
0230
1000
,  // measure 38
0320
0001
0230
1000
,  // measure 39
0310
0001
0010
0001
0100
0000
0010
0000
,  // measure 40
0100
0001
1000
0000
0100
0000
1100
0000
,  // measure 41
0100
1000
0100
1000
0010
0000
0100
0000
,  // measure 42
1000
0100
0001
0000
0001
0100
1000
0000
,  // measure 43
0100
0001
0010
0001
0100
0000
0010
0000
,  // measure 44
0100
0001
1000
0100
0010
0000
0001
0000
,  // measure 45
0100
0000
0010
0000
0001
0010
0100
0010
,  // measure 46
0001
0010
1010
1001
,  // measure 47
1100
0000
0000
0000
0000
0000
0000
1000
,  // measure 48
1100
0000
0000
0000
0000
0000
0000
0001
,  // measure 49
0101
0000
0000
1001
0000
0000
0000
0000
,  // measure 50
0110
0000
1010
0011
,  // measure 51
1010
0000
0100
0000
0010
0000
0001
1000
,  // measure 52
0010
0000
0100
0000
0001
0000
1000
0100
,  // measure 53
1000
0000
0000
1100
0000
0000
0001
0000
,  // measure 54
0100
0000
0000
0000
0000
0000
0010
0220
,  // measure 55
0000
0000
0000
0000
,  // measure 56
0000
0000
0000
0000
,  // measure 57
0000
0000
0000
0000
,  // measure 58
0000
0000
0000
0000
0000
0000
0000
0330
;
