#TITLE:太陽曰く燃えよカオス;
#SUBTITLE:;
#ARTIST:後ろから這いより隊G;
#TITLETRANSLIT:Taiyou Iwaku Moeyo Chaos;
#SUBTITLETRANSLIT:;
#ARTISTTRANSLIT:Ushirokara Haiyoritai G;
#GENRE:;
#CREDIT:;
#BANNER:[Theme] - Taiyou Iwaku Moeyo Chaos.png;
#BACKGROUND:[Theme] - Taiyou Iwaku Moeyo Chaos-bg.png;
#LYRICSPATH:;
#CDTITLE:cdtitle.png;
#MUSIC:[Theme] - Taiyou Iwaku Moeyo Chaos.ogg;
#OFFSET:-0.789;
#SAMPLESTART:57.893;
#SAMPLELENGTH:13.427;
#SELECTABLE:YES;
#BPMS:0.000=143.000
;
#STOPS:
;
#BGCHANGES:7.500=[Theme] - Taiyou Iwaku Moeyo Chaos.avi=1.000=1=0=1===CrossFade==,
99999=-nosongbg-=1.000=0=0=0 // don't automatically add -songbackground-
;
#KEYSOUNDS:;
#ATTACKS:;

//---------------dance-single - ----------------
#NOTES:
     dance-single:
     :
     Hard:
     8:
     0.596,0.511,0.351,0.308,0.060,320.000,32.000,28.000,0.000,0.000,0.000,0.596,0.511,0.351,0.308,0.060,320.000,32.000,28.000,0.000,0.000,0.000:
0000
0000
0000
0000
,
0000
0000
0000
0000
,
1100
0000
0101
0000
,
1010
0000
0011
0000
,
0110
0000
1001
0000
,
1000
0010
0100
0001
1000
0000
1001
0000
,
0001
0010
1000
0010
0001
0100
1000
0100
,
0001
0010
0100
0010
0100
0100
1000
1000
,
0001
0000
1000
0001
1000
0000
0001
0000
1000
0000
0000
1000
0010
0000
1000
0000
,
0010
0000
0100
0010
0100
0000
0001
0000
1000
0000
1000
0000
0001
0000
0001
0000
,
1000
0100
0001
0100
1000
0010
0001
0010
,
1000
0010
0100
0010
0100
0100
0001
0001
,
1000
0000
0100
1000
0100
0000
1000
0000
0100
0000
0000
0100
0010
0000
0100
0000
,
0010
0001
1000
0001
0100
0100
0010
0010
,
2000
3002
0023
0230
,
1300
0100
1000
0001
0100
0001
1000
0001
,
0020
0230
2300
3002
,
0103
0000
0010
1000
0001
0000
0010
0000
0100
0000
0000
0000
1001
0000
0000
0000
,
0001
0100
0001
1000
0100
1000
0001
1000
,
0010
0100
0001
0100
0001
0001
1000
1000
,
0001
0000
1000
0001
1000
0000
0001
0000
0010
0000
0000
0010
0100
0000
0010
0000
,
0100
0000
1000
0100
1000
0000
0100
0000
1000
0000
1000
0000
0001
0000
0001
0000
,
1000
0010
1000
0001
0010
0001
1000
0001
,
1000
0010
0100
0001
1000
1000
0001
0001
,
1000
0000
0100
0010
0100
0000
0010
0000
0001
0000
0000
0001
1000
0000
0010
0000
,
0100
0001
0010
0001
1000
0010
1000
0001
,
2000
3200
0320
0032
,
0103
1000
0100
0001
0100
1000
0100
0001
,
0200
0320
2030
3002
,
0013
1000
0010
0001
1000
1000
0001
0001
,
2000
3002
0203
0320
,
1030
0100
1000
0001
0100
0010
0100
0010
,
1000
0000
1010
1000
0001
0000
0011
0001
,
0010
0100
1000
0001
0100
0010
0110
0000
,
0001
0101
1000
1100
,
1000
0010
0001
0010
1000
0000
1010
0000
,
1000
0001
0010
0100
2000
0000
3002
0000
,
0103
0010
1000
0001
0010
0010
0100
0100
,
1000
1010
0001
0011
,
0001
0100
1000
0100
0001
0000
1001
0000
,
0001
0010
0100
1000
0001
0000
0100
0000
,
0101
0000
0110
0000
1010
1000
1001
0000
,
1200
0310
0120
0031
,
1000
0010
0001
0010
1000
0000
1010
0000
,
1000
0100
0010
0001
2000
0000
3020
0000
,
0130
0001
0010
0001
0100
0100
0010
0010
,
0120
1030
2010
3100
,
1000
0100
0001
0100
1000
0000
1100
0000
,
0001
0010
0001
1000
0010
0000
0100
0000
,
0101
0000
1100
0000
1001
1000
1001
0000
,
0001
0010
0001
0000
1000
0010
1000
0000
,
0001
0010
1000
0100
0001
0000
1001
0000
;

//---------------dance-single - ----------------
#NOTES:
     dance-single:
     :
     Medium:
     7:
     0.479,0.426,0.308,0.297,0.000,250.000,28.000,27.000,0.000,0.000,0.000,0.479,0.426,0.308,0.297,0.000,250.000,28.000,27.000,0.000,0.000,0.000:
0000
0000
0000
0000
,
0000
0000
0000
0000
,
1000
0000
1100
0000
,
0001
0000
0101
0000
,
1000
0000
1001
0000
,
1000
0001
1000
0001
1000
0000
1001
0000
,
0001
0000
0010
0000
0100
0010
0100
0010
,
0100
0000
1000
0000
0001
1000
0001
1000
,
0001
0000
0100
0001
0100
0000
0010
0100
,
0010
0000
1000
0010
1000
1000
0001
0001
,
0010
0000
0100
0000
1000
0001
1000
0001
,
1000
0000
0010
0000
0100
0010
0100
0010
,
0100
0000
0001
0100
0001
0000
1000
0001
,
1000
0000
0100
1000
0100
0100
0010
0010
,
0002
0010
0023
0100
,
0230
1000
2300
0001
,
3002
0203
0320
2030
,
3010
1000
0001
0020
0200
0000
0330
0000
,
0100
0000
1000
0000
0100
1000
0001
1000
,
0001
0000
0100
0000
0001
0100
0010
0100
,
0010
0000
1000
0010
1000
0000
0001
1000
,
0001
0000
0010
0001
0010
0000
0011
0000
,
0001
0000
0010
0000
0100
1000
0100
1000
,
0100
0000
1000
0000
0010
1000
0010
1000
,
0010
0000
0100
0010
0100
0000
0001
0100
,
0001
0000
1000
0001
1000
0000
1001
0000
,
0002
0010
2003
0010
,
3002
0100
0010
0100
,
2003
0100
3200
0010
,
0320
0000
0100
0000
0001
0001
0100
0100
,
0032
0100
0203
0010
,
0320
0000
1000
0000
1030
0100
0010
0001
,
1000
0000
0000
0001
1000
0000
0000
0001
,
1000
0100
0001
1000
0010
0001
1000
0000
,
0001
0100
0010
1010
,
1000
0100
1000
0001
0100
0000
0101
0000
,
0001
0100
0010
0100
0010
0000
1000
0000
,
0010
1010
1000
1001
,
0001
0010
0100
1100
,
1000
0100
1000
0001
1000
0000
1010
0000
,
0010
1000
0010
0100
0010
0000
0100
0000
,
0101
1100
2002
3003
,
0001
0010
0100
1100
,
1000
0100
1000
0001
0100
0000
0101
0000
,
0001
0100
0010
0100
0010
0000
1010
0000
,
1000
1001
0001
1001
,
1000
0010
0100
0101
,
0001
0100
0001
1000
0001
0000
1001
0000
,
1000
0001
1000
0100
0010
0000
0100
0000
,
0110
0011
2002
3003
,
2020
3030
0022
0033
,
0001
0010
0100
1000
0001
0000
1001
0000
;

//---------------dance-single - ----------------
#NOTES:
     dance-single:
     :
     Easy:
     4:
     0.281,0.283,0.099,0.000,0.000,170.000,9.000,0.000,0.000,0.000,0.000,0.281,0.283,0.099,0.000,0.000,170.000,9.000,0.000,0.000,0.000,0.000:
0000
0000
0000
0000
,
0000
0000
0000
0000
,
1000
0000
0001
0000
,
0100
0000
0010
0000
,
1000
0000
0001
0000
,
0010
0100
0010
0000
,
0100
1000
0001
0001
,
0100
0010
1000
1000
,
0001
0001
1000
1000
,
0100
0100
0010
0010
,
0001
0100
0010
0010
,
0100
0010
1000
1000
,
0001
0001
0010
0010
,
0100
0100
1000
1000
,
0001
0000
0100
0000
,
0010
0100
0010
1000
,
0010
0000
1000
0000
,
1001
0000
0000
0000
,
0001
0010
0100
0010
,
0100
1000
0001
0001
,
1000
0010
0100
0010
,
0100
0001
1000
1000
,
0001
0010
0001
1000
,
0010
1000
0001
1000
,
0100
1000
0001
1000
,
0001
0100
0001
0001
,
1000
1000
0001
0001
,
0010
0010
0010
0010
,
0100
0100
1000
1000
,
0001
0001
0001
0001
,
0100
0100
0010
0010
,
1000
1000
0001
1000
,
0001
0000
1000
0000
,
0001
1000
1001
0000
,
0001
0010
0100
0100
,
0000
0010
0100
1000
,
0000
0100
1000
0001
,
0100
0100
0010
0010
,
1000
0001
0010
0010
,
0000
0100
1000
0001
,
0000
0100
0010
1000
,
0100
0010
0110
0000
,
0100
0010
0001
0001
,
0000
0010
0001
0001
,
0000
1000
0001
0001
,
0100
0100
0010
0010
,
1000
1010
0001
1001
,
0000
1000
0001
1001
,
0000
0001
0010
0100
,
1100
1001
0101
0000
,
0001
0000
0100
0000
,
0010
1000
0001
0000
;

//---------------dance-single - ----------------
#NOTES:
     dance-single:
     :
     Beginner:
     1:
     0.119,0.112,0.011,0.000,0.000,75.000,1.000,0.000,0.000,0.000,0.000,0.119,0.112,0.011,0.000,0.000,75.000,1.000,0.000,0.000,0.000,0.000: // measure 0
0000
0000
0000
0000
,  // measure 1
0000
0000
0000
0000
,  // measure 2
1000
0000
1000
0000
,  // measure 3
0001
0000
0001
0000
,  // measure 4
1000
0000
1000
0000
,  // measure 5
0001
0000
0000
0000
,  // measure 6
1000
0000
1000
0000
,  // measure 7
0100
0000
0100
0000
,  // measure 8
0010
0000
0000
0000
,  // measure 9
0001
0000
0000
0000
,  // measure 10
1000
0000
1000
0000
,  // measure 11
0010
0000
0010
0000
,  // measure 12
0100
0000
0000
0000
,  // measure 13
0001
0000
0000
0000
,  // measure 14
0100
0000
0000
0000
,  // measure 15
0001
0000
0001
0000
,  // measure 16
1000
0000
0000
0000
,  // measure 17
0000
0000
0000
0000
,  // measure 18
0001
0000
0001
0000
,  // measure 19
0010
0000
0010
0000
,  // measure 20
0100
0000
0000
0000
,  // measure 21
1000
0000
0000
0000
,  // measure 22
0001
0000
0001
0000
,  // measure 23
1000
0000
1000
0000
,  // measure 24
0010
0000
0000
0000
,  // measure 25
0100
0000
0000
0000
,  // measure 26
0001
0000
0100
0000
,  // measure 27
0001
0000
0000
0000
,  // measure 28
1000
0000
0100
0000
,  // measure 29
1000
0000
0000
0000
,  // measure 30
0001
0000
0001
0000
,  // measure 31
1000
0000
1000
0000
,  // measure 32
0100
0000
0100
0000
,  // measure 33
0110
0000
0000
0000
,  // measure 34
0010
0000
0010
0000
,  // measure 35
0010
0000
0000
0000
,  // measure 36
0001
0000
0000
0000
,  // measure 37
1000
0000
1000
0000
,  // measure 38
0010
0000
0010
0000
,  // measure 39
0010
0000
0000
0000
,  // measure 40
0100
0000
0000
0000
,  // measure 41
0001
0000
0001
0000
,  // measure 42
1000
0000
1000
0000
,  // measure 43
1000
0000
0000
0000
,  // measure 44
0100
0000
0000
0000
,  // measure 45
0010
0000
0010
0000
,  // measure 46
0001
0000
0001
0000
,  // measure 47
0001
0000
0000
0000
,  // measure 48
1000
0000
0000
0000
,  // measure 49
0010
0000
0010
0000
,  // measure 50
0100
0000
0001
0000
,  // measure 51
1000
0000
0000
0000
;
