#TITLE:Spider's Blood;
#SUBTITLE:;
#ARTIST:A-One Record;
#TITLETRANSLIT:;
#SUBTITLETRANSLIT:;
#ARTISTTRANSLIT:;
#GENRE:;
#CREDIT:rikame;
#BANNER:Spider's Blood.png;
#BACKGROUND:Spider's Blood - bg.png;
#LYRICSPATH:;
#CDTITLE:cd-rikame.png;
#MUSIC:Spider's Blood.ogg;
#OFFSET:0.015;
#SAMPLESTART:64.384;
#SAMPLELENGTH:18.646;
#SELECTABLE:YES;
#BPMS:0.000=164.006;
#STOPS:;
#BGCHANGES:;
#KEYSOUNDS:;

//---------------dance-single - Rikame----------------
#NOTES:
     dance-single:
     Rikame:
     Challenge:
     11:
     1.000,0.991,0.438,0.482,1.000:
0000
0000
0000
0000
,
0000
0000
0000
0000
,
0000
0000
0000
0000
,
0000
0000
0000
0000
,
0000
0000
0000
0000
,
0000
0000
0000
0000
,
0000
0000
0000
0000
,
0000
0000
0000
0000
,
2100
0000
0000
0000
3001
0100
0010
0100
0001
0100
0010
1000
0001
0010
0100
0010
,
0001
0000
0100
0000
0010
1000
0010
1000
0001
0000
0000
0101
0000
0000
1100
0000
,
1020
0000
0000
0000
0130
0000
0100
0000
0001
0000
1000
0200
0000
0000
0310
0000
,
0011
0000
0000
0101
0000
0000
0110
0000
1010
0000
0000
1100
0000
0000
0110
0000
,
0012
0000
0000
0000
1003
0100
0010
0100
1000
0100
0010
0100
1000
0001
0100
0001
,
1000
0000
0010
0000
0100
0001
1000
0100
1000
0000
0000
1010
0000
0000
0011
0000
,
0201
0000
0000
0000
0310
1000
0010
1000
0001
0000
0010
0000
0100
1000
0010
1000
,
0001
0000
0000
0101
0000
0000
1001
0000
1100
0000
0000
0110
0000
0000
0011
0000
,
2001
0000
3002
0000
,
0013
0000
0000
0110
0000
0000
1100
0000
0000
1010
0000
0000
0110
0000
0101
0000
,
0001
0010
0001
0010
0100
1000
0001
0100
0010
1000
0010
1000
0100
0010
0001
1000
,
0001
0000
1000
0000
1010
0000
0000
0011
0000
1010
0000
1000
0001
0100
0001
0100
,
001M
1000
0010
0000
0100
0000
0001
0010
0001
0000
0100
0010
0000
0010
1000
0000
,
0001
0100
0001
0000
0010
0000
0100
1000
0001
0000
0001
0100
0000
0100
0010
0000
,
100M
0100
1000
0000
0001
0000
0010
0100
0010
0000
0001
1000
0000
1000
0010
0000
,
0100
0001
0100
0000
0020
0000
0000
0000
1030
0000
1000
0100
0000
0100
0010
0000
,
0M01
1000
0001
0000
0100
0000
0010
1000
0010
0000
0100
0001
0000
0001
1000
0000
,
0100
0010
0100
0000
1000
0000
0001
0100
0010
0000
0010
1000
0000
1000
0001
0000
,
M010
0100
0010
0000
0001
0000
1000
0010
1000
0000
0001
0010
0000
0010
0100
0000
,
1000
0001
1000
0010
0100
0000
0001
1000
0001
0010
0100
1000
0001
1000
0010
0100
,
M0M1
0000
1000
0000
0010
0100
0010
0000
1000
0000
0100
0000
0010
0001
0010
0000
,
0100
1000
0010
1000
0001
0010
0100
0010
0001
0000
1000
0100
0010
0001
0100
0000
,
0120
0000
1030
0000
0001
0000
0010
0000
0210
0000
1300
0001
0010
0001
0100
0000
,
0120
0000
1030
0000
0001
0100
0001
0000
0011
0000
0000
0110
0000
0000
1100
0000
,
1010
0000
0010
0000
0100
0001
0100
0000
0010
0000
1000
0000
0100
0010
0100
0000
,
1000
0010
0100
0010
1000
0001
0010
0001
0100
0000
0010
1000
0010
0100
0001
0000
,
1001
0000
1000
0000
0010
0000
0100
0000
0001
0000
0010
0100
1000
0000
0001
0000
,
1000
0100
0010
0000
0001
0000
1000
0000
0010
0000
1000
0001
1000
0100
0010
0001
,
0100
0000
0010
1000
0010
0000
0100
0001
0000
0001
1000
0000
0002
0000
0010
0000
,
2000
0003
0100
0000
0020
3000
0100
0000
1030
0100
0010
0100
1000
0001
1000
0100
,
0010
0000
0001
1000
0001
0000
0100
0010
0000
0010
1000
0000
0002
0000
0100
0003
,
2000
0000
0010
0000
0200
3000
0010
0000
1300
0001
0100
0010
1000
0001
0010
0100
,
1000
0000
0001
1000
0001
0000
0010
0100
0000
0100
1000
0010
2000
0000
0001
0000
,
0020
3000
1000
0000
0230
0000
0010
0000
0301
1000
0010
1000
0100
0010
0001
0010
,
0200
0000
0000
0000
0310
0000
0001
1000
0000
0010
1000
0010
0100
0001
1000
0000
,
0001
0000
1000
0100
0000
0100
0010
0000
0001
0100
0010
0100
0001
1000
0100
1000
,
0020
0000
0000
0230
0000
0000
0301
0000
0010
0100
1000
0001
0100
0010
0100
0010
,
2000
0000
0000
3002
0000
0000
0013
0000
0100
1000
0010
1000
0001
0100
0001
0010
,
0200
0000
0000
1300
0010
0000
0100
0000
0002
0000
0000
1003
0100
0000
0010
0000
,
0002
0000
0000
1003
0010
1000
0001
0100
0020
0000
0000
0000
0000
0000
0130
0000
,
2001
0000
0000
3200
0000
0000
0310
0000
0001
0100
0000
0100
0010
0000
1000
0000
,
0100
0010
0100
0010
0001
0000
0100
0000
0020
0000
0000
0000
0000
0000
1030
0001
,
2000
0000
0000
3020
0000
0000
0130
0000
0102
0000
0000
0023
0000
0000
0130
0000
,
2100
0000
0000
3020
0000
0000
0130
0001
1000
0010
0100
0000
0001
0010
0100
0000
,
1000
0010
1000
0100
1000
0001
0100
0001
1000
0100
1000
0010
1000
0001
0010
0001
,
1000
0010
1000
0010
0100
0000
0001
0010
0100
1000
0100
1000
0020
0000
0000
0000
,
0130
0001
0010
0001
0100
0000
0010
0000
2000
0000
0000
3200
0000
0000
0310
0000
,
0001
0000
0010
0000
0100
1000
0001
1000
0020
0000
0000
0000
0001
0000
0100
0000
,
1030
0000
0100
0010
0001
1000
0010
0000
0200
0000
0000
0302
0000
0000
0013
0000
,
0100
0000
1000
0000
0010
0000
0100
0001
0010
0100
1000
0010
0100
0001
1000
0000
,
0010
1000
0100
1000
0010
0000
0100
0000
0002
0000
0000
0023
0000
0000
0130
0000
,
1000
0001
1000
0100
0010
0001
1000
0001
0100
0000
0010
0000
2000
0000
0000
0000
,
3100
0000
0010
0001
1000
0001
0010
0100
1000
0010
1000
0100
0010
0000
0001
0000
,
0100
0000
0001
0010
0001
1000
0100
1000
0010
0100
0001
1000
0001
0000
0010
0000
,
0100
1000
0010
1000
0100
0000
0010
0000
0002
0000
0000
0203
0000
0000
0310
0000
,
2000
0000
0000
3001
0010
0100
1000
0001
0200
0000
0000
0000
1000
0000
0010
0000
,
0301
0000
0010
0100
1000
0001
0100
0000
0020
0000
0000
2030
0000
0000
3100
0000
,
0010
0000
0100
0000
1000
0000
0001
0100
0001
0010
0100
1000
0010
1000
0001
0000
,
0010
0001
0100
0001
0010
0000
0100
0000
2000
0000
0000
3020
0000
0000
0130
0000
,
0001
1000
0001
0100
0010
1000
0001
1000
0100
0000
0010
0000
0002
0000
0000
0000
,
0103
0000
0010
1000
0010
0100
0001
0010
0001
0100
0010
1000
0100
0000
0010
0000
,
0001
0000
1000
0000
0010
0100
0010
1000
0001
0010
0001
0100
0010
0000
1000
0001
,
2000
0000
3002
0000
,
0013
0000
0000
0110
0000
0000
1100
0000
0000
1010
0000
0000
0110
0000
0100
0010
,
1000
0001
1000
0001
0010
0100
1000
0010
0100
0001
0100
0001
1000
0100
0010
0001
,
M100
0010
0100
0000
0001
0000
1000
0010
1000
0000
0001
0010
0000
0010
0100
0000
,
1000
0001
1000
0000
0010
0000
1000
0001
0010
0000
0100
1000
0000
1000
0010
0000
,
M100
0001
0100
0000
0010
0000
1000
0001
1000
0000
0100
0010
0000
0010
0001
0000
,
1000
0100
1000
0000
0020
0000
0000
0000
0130
0000
0001
1000
0000
1000
0100
0000
,
0M10
0001
0010
0000
0100
0000
1000
0010
1000
0000
0001
0100
0000
0100
0010
0000
,
1000
0100
1000
0000
0001
0000
0010
0100
1000
0000
0001
0100
0000
0100
0010
0000
,
10M0
0001
1000
0000
0100
0000
0010
0001
0010
0000
0100
1000
0000
1000
0010
0000
,
0100
0001
0010
0001
1000
0000
0100
0010
0001
0100
0001
1000
0010
1000
0100
0010
,
0002
0000
2003
0000
,
3010
0000
0000
0110
0000
0000
0101
0000
0000
1001
0000
0000
1100
0000
0110
0000
,
0010
0001
0010
0001
1000
0100
0010
0100
1000
0001
1000
0001
0100
0010
1000
0001
,
0020
0000
0000
0000
0000
0000
0000
0000
0000
0000
0000
0000
0000
0000
0000
0000
0000
0000
0000
0000
0000
0000
0000
0000
0000
0000
0000
0000
0000
0000
0000
0030
0110
0000
0000
0000
0000
0000
0000
0000
0000
0000
0000
0000
0000
0000
0000
0000
0000
0000
0000
0000
0000
0000
0000
0000
0100
0000
0000
0000
0000
0000
0000
0000
,
0000
1000
0001
0000
0101
0000
0000
0000
,
0100
0010
1000
0001
0011
0000
0000
0010
,
0000
0000
0100
0000
1000
0000
0001
0000
0101
0000
0000
0110
0000
0000
1010
0000
,
1000
0100
1000
0010
0100
0001
0000
1001
,
0000
1000
0100
0010
2000
0000
3010
0001
,
0100
0010
1000
0001
0010
0100
0000
1100
,
0000
0000
1000
0000
0010
0000
0100
0000
1001
0000
0000
1001
0000
0000
2002
0000
,
0000
3003
0000
0000
0000
0000
0000
0000
0000
0000
0000
0000
0000
0000
0000
0000
;

//---------------dance-single - Rikame----------------
#NOTES:
     dance-single:
     Rikame:
     Hard:
     10:
     0.698,0.921,0.401,0.408,0.486:
0000
0000
0000
0000
,
0000
0000
0000
0000
,
0000
0000
0000
0000
,
0000
0000
0000
0000
,
0000
0000
0000
0000
,
0000
0000
0000
0000
,
0000
0000
0000
0000
,
0000
0000
0000
0000
,
0001
0100
0010
1000
0001
1000
0100
0010
,
0001
0000
1000
0000
0001
0000
0100
0000
0110
0000
0000
1010
0000
0000
0101
0000
,
0021
0000
0000
0000
0130
0000
0100
0000
1000
0000
0001
0200
0000
0000
0310
0000
,
1010
0000
0000
1010
0000
0000
1100
0000
0011
0000
0000
0011
0000
0000
0101
0000
,
0120
0000
1030
0100
1000
0001
0100
0010
,
1000
0000
0001
0000
0010
0000
0001
1000
0001
0000
0000
0101
0000
0000
0110
0000
,
2010
0000
3100
0010
0001
0010
0100
1000
,
1010
0000
0000
1010
0000
0000
0110
0000
0101
0000
0000
0101
0000
0000
1001
0000
,
1200
0000
0320
0000
,
0031
0000
0000
1001
0000
0000
1010
0000
0000
0101
0000
0000
0011
0000
0110
0000
,
2100
0000
3002
0000
,
0103
0000
0010
0000
1000
0000
0000
0001
0000
0100
0000
0001
0200
0000
0000
0000
,
0310
0000
1000
0000
0100
0000
0000
0000
0001
0000
0000
0100
0000
0000
0010
0000
,
0000
0000
0001
0000
0100
0000
0000
0000
0010
0000
0000
0010
0000
0000
1000
0000
,
0001
0000
0100
0000
0010
0000
0000
0000
0001
0000
0000
0010
0000
0000
1000
0000
,
0000
0000
0100
0000
0020
0000
0000
0000
0031
0000
0000
1000
0000
0000
0010
0000
,
0100
0000
0001
0000
0010
0000
0000
0000
1000
0000
0000
0010
0000
0000
0100
0000
,
0000
0000
1000
0000
0010
0000
0000
0000
0100
0000
0000
0100
0000
0000
0001
0000
,
1000
0000
0100
0000
0010
0000
0000
0000
0001
0000
0000
0010
0000
0000
1000
0000
,
0010
0000
0000
0001
0000
0000
0100
0000
0000
0010
0000
2000
0000
0000
0000
0000
,
3010
0100
0001
1000
0010
0100
0000
0002
,
0000
1003
0010
1000
0100
0010
0000
0002
,
0000
0103
0010
1000
0001
0020
0000
0230
,
0000
0000
0000
0000
0000
0000
0000
0000
1300
0000
0000
1001
0000
0000
0101
0000
,
0110
0010
1000
0001
0010
0100
0000
2000
,
0000
3010
0100
0001
0100
0010
0000
2000
,
0000
3100
0010
0001
0100
0020
0000
1030
,
0000
0001
0000
0010
0000
0100
0000
1000
,
0001
1000
0010
0200
0000
0000
0001
0000
,
0320
0000
0130
2000
0000
0000
3200
0000
,
0301
1000
0001
0020
0000
0000
0100
0000
,
0032
0000
0013
2000
0000
0000
3020
0000
,
0130
1000
0010
0200
0000
0000
1000
0000
,
0302
0000
0013
2000
0000
0000
3020
0000
,
0230
0000
0000
0000
0000
1300
0001
0010
,
0100
0000
0000
1000
0000
0000
0010
0000
0100
0000
0001
0000
1000
0000
0010
0000
,
0210
0000
0000
0301
0000
0000
0010
0000
0200
0000
0000
0301
0000
0000
0100
0000
,
1000
0000
0000
0010
0000
0000
0100
0000
0002
0000
0000
0000
0000
0000
0013
0100
,
1000
0000
0000
0001
0000
0000
0100
0000
0010
0000
0000
0001
0000
0000
0010
0000
,
1000
0000
0000
0001
0000
0000
0010
0000
0200
0000
0000
0000
0000
0000
1300
0000
,
1020
0000
0000
0130
0000
0000
0001
0000
0010
0000
0000
1000
0000
0000
0010
0000
,
0200
0000
0000
1300
0000
0000
0010
0000
0200
0000
0000
0000
0000
0000
0301
1000
,
0001
0000
0000
0100
0000
0000
0010
0000
2010
0000
0000
3100
0000
0000
0010
0000
,
0012
0000
0000
0103
0000
0000
0010
0000
1002
0000
0000
0000
0000
0000
0000
0000
,
1003
0010
0100
0010
1000
0000
0001
0000
1000
0100
0010
0001
1000
0001
0010
0100
,
4000
0000
0000
0000
0000
0000
0000
0000
0000
0000
0000
0000
0000
0000
0000
0000
0000
0000
0000
0000
0000
0000
0000
0000
0000
0000
0000
0000
0000
0000
0000
0000
3001
0000
0000
0000
0010
0000
0000
0000
0100
0000
0000
0000
0010
0000
0000
0000
0002
0000
0000
0000
0000
0000
0000
0000
0000
0000
0000
0000
0000
0000
0000
0003
,
0100
0000
0000
0010
0000
0000
1000
0000
0001
0000
0000
0010
0000
0000
0001
0000
,
1000
0000
0000
0010
0100
0001
1000
0010
0100
0000
0001
0000
1000
0000
0100
0000
,
0010
0000
0000
0001
0100
0010
0100
0000
0001
0000
0000
1000
0000
0000
0100
0000
,
0010
0000
0000
0100
0000
0000
1000
0001
0010
0100
1000
0001
1000
0010
0100
0000
,
0001
1000
0001
0010
0000
0000
0100
0000
0010
0000
0000
0001
0000
0000
0100
0000
,
0010
0000
0000
1000
0100
1000
0001
0010
0001
0000
0100
0000
0020
0000
0000
0000
,
1030
0000
0100
0000
0010
0001
0010
0001
1000
0010
1000
0010
0100
0000
0001
0000
,
0010
0000
0000
0000
0100
1000
0001
1000
0010
1000
0001
1000
0100
0000
0010
0000
,
0100
1000
0001
1000
0000
0000
0010
0000
0100
0000
0000
0001
0000
0000
1000
0000
,
0100
0000
0000
0010
0001
1000
0100
0010
0001
0000
1000
0000
0010
0000
0100
0000
,
0001
0000
0000
1000
0100
0010
0100
0000
1000
0000
0001
0000
0000
0100
0000
0000
,
0010
0000
0000
1000
0000
0000
0001
0010
0100
1000
0001
1000
0100
0010
0001
0000
,
1000
0010
0100
0010
0000
0000
1000
0000
0100
0000
0000
0010
0000
0000
0100
0000
,
1000
0000
0000
0001
0100
0010
0100
0001
1000
0000
0100
0000
0020
0000
0000
0000
,
0031
0000
1000
0010
0100
0001
1000
0000
0001
0010
0100
1000
0001
0000
0200
0000
,
0000
0000
0000
0000
0310
1000
0010
1000
0001
0010
0001
0010
0100
0000
1000
0000
,
0002
0000
2003
0000
,
3010
0000
0000
0110
0000
0000
0101
0000
0000
0011
0000
0000
0110
0000
1100
0000
,
1020
0000
0230
0000
,
0301
0000
0100
0000
0010
0000
0000
0000
0001
0000
0000
0010
0000
0000
0100
0000
,
0001
1000
0001
0000
0010
0000
0000
0000
0100
0000
0000
0001
0000
0000
0100
0000
,
1000
0001
1000
0000
0010
0000
0000
0000
0100
0000
0000
1000
0000
0000
0100
0000
,
0001
1000
0001
0000
0020
0000
0000
0000
0130
0000
0000
1000
0000
0000
0001
0000
,
0100
0010
0100
0000
0001
0000
0000
0000
0010
0000
0000
1000
0000
0000
0010
0000
,
0001
1000
0001
0000
0100
0000
0000
0000
0010
0000
0000
0001
0000
0000
0010
0000
,
1000
0001
1000
0000
0100
0000
0000
0000
0010
0000
0000
1000
0000
0000
0010
0000
,
0001
1000
0001
0000
0100
0000
0000
0000
0010
0000
0000
1000
0000
0000
0001
0000
,
0020
0000
0230
0000
,
1300
0000
0000
1001
0000
0000
0101
0000
0000
0110
0000
0000
1010
0000
1100
0000
,
0100
0010
0001
1000
0001
0010
0100
1000
0001
0100
0010
1000
0001
1000
0010
0100
,
0002
0000
1003
0000
1010
0000
0000
0010
,
0000
0100
0001
0000
1001
0000
0000
1000
,
0100
1000
0001
0000
0011
0000
0000
1001
,
0000
0000
1000
0000
0010
0000
0100
0000
0001
0000
0000
1000
0000
0000
0001
0000
,
0010
0100
0010
0001
0100
0010
0000
1010
,
0000
1000
0100
0010
0002
0000
2003
0000
,
3010
0100
0001
0010
0100
0010
0000
0001
,
0000
0000
1000
0000
0010
0000
0100
0000
0110
0000
0000
0110
0000
0000
0110
0000
;

//---------------dance-single - Old----------------
#NOTES:
     dance-single:
     Old:
     Edit:
     11:
     -1.000,-1.000,-1.000,-1.000,-1.000:
0000
0000
0000
0000
,
0000
0000
0000
0000
,
0000
0000
0000
0000
,
0000
0000
0000
0000
,
0000
0000
0000
0000
,
0000
0000
0000
0000
,
0000
0000
0000
0000
,
0000
0000
0000
0000
,
0012
0000
0000
0000
1003
0010
0100
0010
1000
0010
0100
0001
1000
0100
0010
0100
,
1000
0000
0010
0000
0100
0001
0100
0001
1000
0000
0000
1010
0000
0000
0011
0000
,
0201
0000
0000
0000
0310
0000
0010
0000
1000
0000
0001
0020
0000
0000
0130
0000
,
1100
0000
0000
1010
0000
0000
0110
0000
0101
0000
0000
0011
0000
0000
0110
0000
,
2100
0000
0000
0000
3001
0010
0100
0010
0001
0010
0100
0010
0001
1000
0010
1000
,
0001
0000
0100
0000
0010
1000
0001
0010
0001
0000
0000
0101
0000
0000
1100
0000
,
1020
0000
0000
0000
0130
0001
0100
0001
1000
0000
0100
0000
0010
0001
1000
0001
,
0101
0000
0000
1010
0000
0000
1001
0000
0011
0000
0000
0110
0000
0000
1100
0000
,
1002
0000
2003
0000
,
3100
0000
0000
0110
0000
0000
0011
0000
0000
0101
0000
0000
0110
0000
1010
0000
,
1000
0100
1000
0100
0010
0001
1000
0010
0100
0001
0100
0001
0010
0100
1000
0001
,
1000
0000
0001
0000
0101
0000
0000
1100
0000
0101
0000
0001
1000
0010
1000
0010
,
M100
0001
0100
0000
0020
0000
1030
0100
2000
0000
3010
0100
0001
1000
0200
0000
,
0310
0001
0020
0000
0230
0000
1300
0001
0100
0000
0100
0010
1000
0100
0020
0000
,
0M31
1000
0002
0000
0203
0000
0310
1000
0020
0000
0130
0001
1000
0100
0020
0000
,
0031
1000
0002
0000
0013
0000
0020
0000
0230
0000
1300
0001
1000
0010
0200
0000
,
03M1
1000
0002
0000
0023
0000
0130
1000
0200
0000
0310
0001
1000
0010
0200
0000
,
0301
0010
0002
0000
0203
0000
0310
0000
1000
0000
1000
0100
0010
0001
0200
0000
,
031M
1000
0020
0000
0230
0000
0301
0000
2000
0000
3100
0010
0001
1000
0020
0000
,
1030
0001
1000
0010
0200
0000
0301
1000
0001
0010
0100
1000
0001
1000
0010
0100
,
M0M1
0000
1000
0000
0010
0100
0010
0000
1000
0000
0100
0000
0010
0001
0010
0000
,
0100
1000
0010
1000
0001
0010
0100
0010
0001
0000
0100
0000
0010
1000
0010
0000
,
0210
0000
0301
0000
1000
0000
0100
0000
0120
0000
0031
1000
0100
1000
0010
0000
,
0210
0000
0301
0000
1000
0100
1000
0000
1010
0000
0000
0110
0000
0000
0101
0000
,
0011
0000
0010
0000
0100
1000
0100
0000
0010
0000
0001
0000
1000
0010
1000
0000
,
0100
0010
0100
1000
0001
1000
0010
0100
0001
0000
0010
0100
0010
0001
1000
0000
,
1001
0000
0001
0000
0100
0000
0010
0000
1000
0000
0100
0010
0001
0000
1000
0000
,
0010
0100
0001
0000
1000
0000
0001
0000
0010
0000
0001
1000
0001
0010
0100
1000
,
0010
0000
0100
0001
0100
0000
0010
1000
0000
1000
0001
0000
2000
0000
0100
0000
,
0002
3000
0010
0000
0200
0003
0010
0000
0301
0010
0100
0010
0001
1000
0001
0010
,
0100
0000
1000
0001
1000
0000
0010
0100
0000
0100
0001
0000
2000
0000
0010
3000
,
0002
0000
0100
0000
0020
0003
0100
0000
0031
1000
0010
0100
0001
1000
0100
0010
,
0001
0000
1000
0001
1000
0000
0100
0010
0000
0010
0001
0100
0002
0000
1000
0000
,
0200
0003
0001
0000
0320
0000
0100
0000
1030
0001
0100
0001
0010
0100
1000
0100
,
0020
0000
0000
0000
0130
0000
1000
0001
0000
0100
0001
0100
0010
1000
0001
0000
,
1000
0000
0100
0010
0001
0010
0100
0000
1000
0010
0100
0010
1000
0001
0010
0001
,
0200
0000
0000
0320
0000
0000
1030
0000
0100
0010
0001
1000
0010
0100
0010
0100
,
0002
0000
0000
2003
0000
0000
3100
0000
0010
0001
0100
0001
1000
0010
1000
0100
,
0020
0000
0000
0031
0100
0000
0010
0000
2000
0000
0000
3001
0010
0000
0100
0000
,
2000
0000
0000
3001
0100
0001
1000
0010
0200
0000
0000
0000
0000
0000
0310
0000
,
1002
0000
0000
0023
0000
0000
0130
0000
1000
0010
0000
0010
0100
0000
0001
0000
,
0010
0100
0010
0100
1000
0000
0010
0000
0200
0000
0000
0000
0000
0000
0301
1000
,
0002
0000
0000
0203
0000
0000
0310
0000
2010
0000
0000
3200
0000
0000
0310
0000
,
0012
0000
0000
0203
0000
0000
0310
1000
0001
0100
0010
0000
1000
0100
0010
0000
,
0001
0100
0001
0010
0001
1000
0010
1000
0001
0010
0001
0100
0001
1000
0100
1000
,
0001
0100
0001
0100
0010
0000
1000
0100
0010
0001
0010
0001
0200
0000
0000
0000
,
0310
1000
0100
1000
0010
0000
0100
0000
0002
0000
0000
0023
0000
0000
0130
0000
,
1000
0000
0100
0000
0010
0001
1000
0001
0200
0000
0000
0320
0000
0000
1030
0000
,
0001
0000
0010
0100
1000
0001
0100
0000
0020
0000
0000
2030
0000
0000
3100
0000
,
0010
0000
0001
0000
0100
0000
0010
1000
0100
0010
0001
0100
0010
1000
0001
0000
,
0100
0001
0010
0001
0100
0000
0010
0000
2000
0000
0000
3200
0000
0000
0310
0000
,
0001
1000
0001
0010
0100
1000
0001
1000
0010
0000
0100
0000
0002
0000
0000
0000
,
0013
0000
0100
0000
1000
0010
1000
0001
0010
0001
1000
0100
1000
0000
0010
0000
,
0100
0000
0001
0010
0001
1000
0100
1000
0010
0100
0001
1000
0001
0000
0010
0000
,
0100
1000
0010
1000
0100
0000
0010
0000
0002
0000
0000
0203
0000
0000
0310
0000
,
2000
0000
0000
3001
0010
0100
1000
0001
0200
0000
0000
0320
0000
0000
1030
0000
,
0001
0000
0010
0100
1000
0001
0100
0000
0020
0000
0000
2030
0000
0000
3100
0000
,
0010
0000
0100
0000
1000
0000
0001
0100
0001
0010
0100
1000
0010
1000
0001
0000
,
0010
0001
0100
0001
0010
0000
0100
0000
2000
0000
0000
3020
0000
0000
0130
0000
,
0001
1000
0001
0100
0010
1000
0001
1000
0100
0000
0010
0000
0002
0000
0000
0000
,
0103
0000
0010
1000
0010
0100
0001
0010
0001
0100
0010
1000
0100
0000
0010
0000
,
0001
0000
1000
0000
0010
0100
0010
1000
0001
0010
0001
0100
0010
0000
1000
0001
,
2000
0000
3002
0000
,
0013
0000
0000
0110
0000
0000
1100
0000
0000
1010
0000
0000
0110
0000
0101
0000
,
0001
1000
0001
1000
0100
0010
0001
0100
0010
1000
0010
1000
0001
0010
0100
1000
,
0010
0100
0020
0000
2030
0000
3001
0100
0002
0000
0013
0100
1000
0001
0200
0000
,
0310
1000
0020
0000
0230
0000
0301
1000
0100
0000
0100
0010
0001
0100
0020
0000
,
1M30
0001
2000
0000
3200
0000
0310
0001
0020
0000
0130
1000
0001
0100
0020
0000
,
1030
0001
2000
0000
3010
0000
0020
0000
0230
0000
0301
1000
0001
0010
0200
0000
,
13M0
0000
0002
0000
0203
0000
0310
1000
0020
0000
0130
0001
1000
0100
0020
0000
,
0031
1000
0002
0000
0023
0000
0130
0000
1000
0000
1000
0010
0100
0001
0020
0000
,
013M
1000
0200
0000
0320
0000
0031
0000
2000
0000
3010
0100
0001
1000
0200
0000
,
1300
0001
1000
0100
0020
0000
0031
1000
0001
0100
0010
1000
0001
0010
0100
1000
,
0002
0000
2003
0000
,
3100
0000
0000
0110
0000
0000
0011
0000
0000
1001
0000
0000
1010
0000
0110
0000
,
0100
0001
0100
0001
1000
0010
0100
0010
1000
0001
1000
0001
0010
0100
1000
0001
,
0200
0000
0000
0000
0000
0000
0000
0000
0000
0000
0000
0000
0000
0000
0000
0000
0000
0000
0000
0000
0000
0000
0000
0000
0000
0000
0000
0000
0000
0000
0000
0300
0110
0000
0000
0000
0000
0000
0000
0000
0000
0000
0000
0000
0000
0000
0000
0000
0000
0000
0000
0000
0000
0000
0000
0000
0010
0000
0000
0000
0000
0000
0000
0000
,
0000
1000
0001
0000
1001
0000
0000
0000
,
1000
0001
0010
0100
0110
0000
0000
0010
,
0000
0000
0001
0000
0100
0000
0010
0000
1010
0000
0000
1001
0000
0000
0011
0000
,
0010
0100
1000
0001
1000
0010
0000
0110
,
0000
0100
0001
0010
0200
0000
1300
0010
,
0100
0001
0010
0001
1000
0010
0000
0110
,
0000
0000
0100
0000
0001
0000
1000
0000
1001
0000
0000
1001
0000
0000
2002
0000
,
0000
3003
0000
0000
0000
0000
0000
0000
0000
0000
0000
0000
0000
0000
0000
0000
;

//---------------dance-single - Rikame----------------
#NOTES:
     dance-single:
     Rikame:
     Beginner:
     1:
     0.087,0.102,0.022,0.000,0.000:
0000
0000
0000
0000
,
0000
0000
0000
0000
,
0000
0000
0000
0000
,
0000
0000
0000
0000
,
0000
0000
0000
0000
,
0000
0000
0000
0000
,
0000
0000
0000
0000
,
0000
0000
0000
0000
,
0001
0000
0000
0000
,
0000
0000
1000
0000
,
0000
0000
0000
0000
,
0010
0000
0010
0000
,
0010
0000
0000
0000
,
0000
0000
0100
0000
,
0000
0000
0000
0000
,
0001
0000
0001
0000
,
0001
0000
0000
0000
,
1000
0000
0000
0000
,
0010
0000
0100
0000
,
0010
0000
0000
0000
,
1001
0000
0000
0000
,
0001
0000
0000
0000
,
0100
0000
0000
0000
,
0010
0000
0000
0000
,
1000
0000
0000
0000
,
0001
0000
0000
0000
,
0010
0000
0000
0000
,
0100
0000
0000
0000
,
1000
0000
0000
0000
,
0000
0000
0000
0000
,
0010
0000
0100
0000
,
0010
0000
0000
0000
,
1000
0000
0000
0000
,
0000
0000
0000
0000
,
0100
0000
0010
0000
,
0100
0000
0000
0000
,
1000
0000
0000
0000
,
0001
0000
0000
0000
,
0100
0000
0000
0000
,
0010
0000
0000
0000
,
1000
0000
0000
0000
,
0001
0000
0000
0000
,
0010
0000
0000
0000
,
0100
0000
0000
0000
,
1000
0000
0000
0000
,
0010
0000
0000
0000
,
0100
0000
0000
0000
,
0010
0000
0000
0000
,
1000
0000
0000
0000
,
0001
0000
0000
0000
,
0010
0000
0000
0000
,
0100
0000
0000
0000
,
1000
0000
0000
0000
,
0000
0000
0000
0000
,
0001
0000
0000
0000
,
0100
0000
0000
0000
,
0010
0000
0000
0000
,
0000
0000
0000
0000
,
1000
0000
0000
0000
,
0100
0000
0000
0000
,
0010
0000
0000
0000
,
0000
0000
0000
0000
,
0001
0000
0000
0000
,
0010
0000
0000
0000
,
0100
0000
0000
0000
,
0000
0000
0000
0000
,
1000
0000
0000
0000
,
0010
0000
0000
0000
,
0100
0000
0000
0000
,
0000
0000
0000
0000
,
0010
0000
0000
0000
,
1000
0000
0000
0000
,
0001
0000
1000
0000
,
0001
0000
0000
0000
,
0100
0000
0000
0000
,
0010
0000
0000
0000
,
1000
0000
0000
0000
,
0001
0000
0000
0000
,
1000
0000
0000
0000
,
0100
0000
0000
0000
,
0010
0000
0000
0000
,
0001
0000
0000
0000
,
1000
0000
0000
0000
,
0100
0000
0010
0000
,
1001
0000
0000
0000
,
0000
0000
0000
0000
,
0000
0000
0000
0000
,
0001
0000
0000
0000
,
0100
0000
0000
0000
,
0000
0000
0000
0000
,
0010
0000
0000
0000
,
0000
0000
1001
0000
;

//---------------dance-single - Rikame----------------
#NOTES:
     dance-single:
     Rikame:
     Easy:
     4:
     0.233,0.272,0.052,0.141,0.000:
0000
0000
0000
0000
,
0000
0000
0000
0000
,
0000
0000
0000
0000
,
0000
0000
0000
0000
,
0000
0000
0000
0000
,
0000
0000
0000
0000
,
0000
0000
0000
0000
,
0000
0000
0000
0000
,
1000
0000
0010
0000
,
1000
0000
0001
0000
,
0010
0000
0100
0000
,
1000
0000
1000
0000
,
0010
0000
0100
0000
,
0001
0000
0010
0000
,
0100
0000
0010
0000
,
0001
0000
0001
0000
,
2000
0000
3020
0000
,
0130
0000
0000
0100
0000
0000
0100
0000
,
0002
0000
2003
0000
,
3000
0000
0000
0000
,
1001
0000
0001
0010
,
0001
0000
0100
0010
,
1000
0000
0100
1000
,
0100
0000
0010
0001
,
1000
0000
0010
0100
,
0010
0000
1000
0010
,
0100
0000
0001
1000
,
0001
0000
0010
0100
,
1000
0000
0001
0000
,
0100
0000
0010
0000
,
1000
0000
0001
0000
,
0020
0000
0030
0000
,
0001
0000
0100
0000
,
0010
0000
1000
0000
,
0001
0000
0010
0000
,
0100
0000
1000
0000
,
0020
0000
0000
0130
,
0001
0000
0000
1000
0000
0000
0001
0000
,
0010
0000
0100
0000
,
1000
0000
0000
0100
0000
0000
1000
0000
,
0010
0000
0100
0000
,
0001
0000
0000
0010
0000
0000
0001
0000
,
2000
0000
0000
3010
,
0100
0000
0001
0000
,
1010
0000
1000
0000
,
0100
0000
0010
0000
,
0001
0000
0100
0000
,
0010
0000
1000
0000
,
0001
0000
0010
0000
,
0001
0000
0100
0000
,
1001
0000
0011
0000
,
1010
0000
0101
0000
,
2000
0000
0000
0000
,
0002
0000
0000
3003
,
1000
0000
0010
0000
,
0100
0000
0001
0000
,
1000
0000
0100
0000
,
0010
0000
0100
0000
,
1000
0000
0001
0000
,
0100
0000
0010
0000
,
1000
0000
0001
0000
,
0020
0000
0000
0000
,
0130
0000
1000
0000
,
0010
0000
0100
0000
,
0001
0000
1000
0000
,
0000
0001
0000
0020
,
0030
0000
0100
0000
,
1000
0000
0001
0000
,
0100
0000
0010
0000
,
1000
0000
0100
0010
,
0002
0000
2003
0000
,
3010
0000
0000
0010
0000
0000
0010
0000
,
0200
0000
0302
0000
,
1003
0000
0001
0100
,
0001
0000
1000
0100
,
0010
0000
0001
1000
,
0001
0000
0010
0100
,
1000
0000
0010
0100
,
0010
0000
1000
0001
,
0010
0000
0100
1000
,
0100
0000
0010
0001
,
0200
0000
0320
0000
,
1030
0000
0000
1000
0000
0000
1000
0000
,
0002
0000
0023
0000
,
0130
0000
1000
0000
0001
0000
0000
0100
,
0000
0010
1000
0000
,
0001
0000
1000
0000
0100
0000
0000
0010
,
0000
0001
0100
0010
,
1000
0000
0001
0000
1000
0000
0000
0100
,
0000
0010
0001
1000
,
0010
0000
0100
0000
0001
0000
0000
0010
,
0000
0100
1001
0000
;

//---------------dance-single - Rikame----------------
#NOTES:
     dance-single:
     Rikame:
     Medium:
     8:
     0.465,0.511,0.096,0.304,0.215:
0000
0000
0000
0000
,
0000
0000
0000
0000
,
0000
0000
0000
0000
,
0000
0000
0000
0000
,
0000
0000
0000
0000
,
0000
0000
0000
0000
,
0000
0000
0000
0000
,
0000
0000
0000
0000
,
0001
0100
0001
0100
,
0010
0000
0000
0000
1000
0000
0000
0000
0001
0000
0000
0001
0000
0000
0010
0000
,
0100
1000
0010
0100
,
0101
0000
0011
0000
,
1100
1000
0001
0010
,
0100
0000
0000
0000
0010
0000
0000
0000
0001
0000
0000
0001
0000
0000
0100
0000
,
0010
1000
0001
1000
,
1100
0000
0110
0000
,
0012
0000
2003
0000
,
3010
0000
0000
0100
0000
0000
0010
0000
0000
1000
0000
0000
0001
0000
1000
0000
,
0200
0000
0320
0000
,
0030
0000
0000
0000
,
1001
0000
0000
0000
0001
0000
0000
0000
0100
0000
0000
0010
0000
0000
0100
0000
,
0000
0000
0001
0000
1000
0000
0000
0000
0100
0000
0000
0100
0000
0000
0010
0000
,
0001
0000
0000
0000
1000
0000
0000
0000
0001
0000
0000
0100
0000
0000
0001
0000
,
0000
0000
1000
0000
0020
0000
0000
0000
0130
0000
0000
0001
0000
0000
1000
0000
,
0100
0000
0000
0000
0010
0000
0000
0000
0001
0000
0000
1000
0000
0000
0001
0000
,
0000
0000
0100
0000
0010
0000
0000
0000
1000
0000
0000
1000
0000
0000
0001
0000
,
0010
0000
0000
0000
0100
0000
0000
0000
1000
0000
0000
0010
0000
0000
1000
0000
,
0000
0000
0001
0000
0010
0000
0000
0000
0100
0000
0000
1000
0000
0000
0001
0000
,
0010
0100
0010
0001
0100
0010
0000
2000
,
0000
3001
0100
0001
0010
0100
0000
2000
,
0000
3010
0100
0010
1000
0002
0000
2003
,
0000
0000
0000
0000
0000
0000
0000
0000
3010
0000
0000
0010
0000
0000
0100
0000
,
0001
1000
0001
0010
0100
1000
0000
0020
,
0000
0130
0001
0100
0010
1000
0000
0200
,
0000
0310
0001
0010
0100
1000
0000
0010
,
0000
0100
0000
0001
0000
1000
0000
0100
,
0010
0001
1000
0020
0000
0000
0130
0000
,
0001
0000
0010
0200
0000
0000
1300
0000
,
0001
0010
0001
2000
0000
0000
3010
0000
,
0100
0000
0001
2000
0000
0000
3100
0000
,
0010
0001
0100
0020
0000
0000
1030
0000
,
0001
0000
0010
0200
0000
0000
1300
0000
,
0020
0000
0000
0000
0000
1030
0001
1000
,
0100
0000
0000
0010
0000
0000
0001
0000
2000
0000
0000
0000
0000
0000
0000
0000
,
3010
0000
0000
0100
0000
0000
0010
0000
1000
0000
0000
0001
0000
0000
0010
0000
,
0100
0000
0000
1000
0000
0000
0001
0000
0100
0000
0000
0000
0000
0000
0000
0000
,
0010
0000
0000
1000
0000
0000
0001
0000
1000
0000
0000
0100
0000
0000
0010
0000
,
0001
0000
0000
0100
0000
0000
0010
0000
1000
0000
0000
0000
0000
0000
0001
0000
,
0010
0000
0000
0100
0000
0000
0010
0000
0001
0000
0000
0100
0000
0000
0010
0000
,
1000
0000
0000
0100
0000
0000
0010
0000
0100
0000
0000
0000
0000
0000
1000
0000
,
0010
0000
0000
0100
0000
0000
0001
0000
0010
0000
0000
0001
0000
0000
0100
0000
,
0010
0000
0000
1000
0000
0000
0100
0000
0020
0000
0000
0000
0000
0000
0000
0000
,
0032
0000
0000
0000
,
2000
0000
0000
3003
,
1010
0000
0000
0010
0000
0000
1000
0000
0001
0000
0000
0010
0000
0000
0001
0000
,
0100
0000
0000
0001
0000
0000
0100
0000
0020
0000
0000
0000
0000
0000
0030
0000
,
0000
0000
1000
0000
0100
0000
0010
0000
0001
0000
0000
0100
0000
0000
0010
0000
,
1000
0000
0000
0001
0000
0000
0020
0000
0000
0000
0000
0000
0030
0000
0000
0000
,
0001
0000
0000
0010
0000
0000
0001
0000
1000
0000
0000
0010
0000
0000
1000
0000
,
0100
0000
0000
1000
0000
0000
0100
0000
0020
0000
0000
0000
0000
0000
0030
0000
,
0000
0000
0001
0000
1000
0000
0001
0000
0100
0000
0000
0010
0000
0000
2000
0000
,
0000
0000
0000
0000
0000
3000
0000
0001
,
0100
0000
0000
0010
0000
0000
0100
0000
0001
0000
0000
1000
0000
0000
0001
0000
,
0010
0000
0000
0100
0000
0000
0010
0000
0002
0000
0000
0000
0000
0000
0003
0000
,
0000
0000
1000
0000
0010
0000
1000
0000
0100
0000
0000
0010
0000
0000
0100
0000
,
1000
0000
0000
0010
0000
0000
0200
0000
0000
0000
0000
0000
0300
0000
0000
0000
,
0001
0000
0000
0010
0000
0000
0001
0000
1000
0000
0000
0100
0000
0000
1000
0000
,
0010
0000
0000
1000
0000
0000
0100
0000
0020
0000
0000
0000
0000
0000
0030
0000
,
0000
0000
0001
0000
1000
0000
0001
0000
0010
0000
0000
0100
0000
0000
2000
0000
,
0000
3000
0010
0100
,
0002
0000
2003
0000
,
3100
0000
0000
0100
0000
0000
0010
0000
0000
0001
0000
0000
0100
0000
0100
0000
,
0020
0000
2030
0000
,
3001
0000
0010
0000
0001
0000
0000
0000
0100
0000
0000
0010
0000
0000
1000
0000
,
0000
0000
0001
0000
0010
0000
0000
0000
0100
0000
0000
0100
0000
0000
1000
0000
,
0010
0000
0100
0000
0001
0000
0000
0000
1000
0000
0000
0100
0000
0000
0010
0000
,
0000
0000
0001
0000
2000
0000
0000
0000
3010
0000
0000
0100
0000
0000
0001
0000
,
1000
0000
0100
0000
0010
0000
0000
0000
0001
0000
0000
1000
0000
0000
0010
0000
,
0000
0000
0100
0000
0001
0000
0000
0000
0010
0000
0000
0010
0000
0000
0100
0000
,
1000
0000
0001
0000
0010
0000
0000
0000
0001
0000
0000
0100
0000
0000
0010
0000
,
0000
0000
1000
0000
0100
0000
0000
0000
0010
0000
0000
0010
0000
0000
0001
0000
,
2000
0000
3020
0000
,
0130
0000
0000
0100
0000
0000
0001
0000
0000
1000
0000
0000
0100
0000
0100
0000
,
0020
0000
0032
0000
,
1003
0000
0010
0000
0110
0000
0000
0100
,
0000
0001
1000
0000
1100
0000
0000
0000
,
0100
0010
0100
1000
0010
0000
0000
0110
,
0000
0000
0100
0000
0001
0000
1000
0000
0100
0000
0000
0010
0000
0000
0100
0000
,
1000
0001
1000
0001
0100
0010
0000
1010
,
0000
1000
0001
0010
0200
0000
2300
0000
,
3010
0100
0010
0100
0001
1000
0000
1100
,
0000
0000
0100
0000
0010
0000
0001
0000
1000
0000
0000
1000
0000
0000
1000
0000
;
