#VERSION:0.81;
#TITLE:SURV1V3;
#SUBTITLE:;
#ARTIST:Jonathan Underdown;
#TITLETRANSLIT:;
#SUBTITLETRANSLIT:;
#ARTISTTRANSLIT:;
#GENRE:;
#ORIGIN:;
#CREDIT:;
#BANNER:[Theme] - SURV1V3.png;
#BACKGROUND:[Theme] - SURV1V3-bg.png;
#PREVIEWVID:;
#JACKET:[Theme] - SURV1V3-jacket.png;
#CDIMAGE:;
#DISCIMAGE:;
#LYRICSPATH:[Theme] - SURV1V3.lrc;
#CDTITLE:cdtitle.png;
#MUSIC:[Theme] - SURV1V3.mp3;
#OFFSET:-6.252123;
#SAMPLESTART:58.640041;
#SAMPLELENGTH:12.000000;
#SELECTABLE:YES;
#BPMS:0.000=174.000;
#STOPS:107.500=0.690;
#DELAYS:;
#WARPS:;
#TIMESIGNATURES:0.000=4=4,
108.000=2=4,
110.000=4=4;
#TICKCOUNTS:0.000=4;
#COMBOS:0.000=1;
#SPEEDS:0.000=1.000=0.000=0;
#SCROLLS:0.000=1.000;
#FAKES:;
#LABELS:0.000=Song Start;
#BGCHANGES:;
#KEYSOUNDS:;
#ATTACKS:
;

//---------------dance-single - ----------------
#NOTEDATA:;
#CHARTNAME:;
#STEPSTYPE:dance-single;
#DESCRIPTION:;
#CHARTSTYLE:;
#DIFFICULTY:Hard;
#METER:8;
#RADARVALUES:0.576517,0.526715,0.265252,0.530504,0.000000,342.000000,28.000000,56.000000,0.000000,0.000000,0.000000,0.000000,0.000000,0.576517,0.526715,0.265252,0.530504,0.000000,342.000000,28.000000,56.000000,0.000000,0.000000,0.000000,0.000000,0.000000;
#CREDIT:;
#NOTES:
0000
0000
0000
0000
,
0000
0000
0000
0000
,
0000
0000
0000
0000
,
0000
0000
0000
0000
,
1000
0000
1000
0000
,
0010
0000
0010
0000
,
0100
0000
0100
0000
,
0001
0000
0001
0000
,
0010
0000
0010
0000
,
0100
0000
0100
0000
,
1000
0000
1000
0000
0001
1000
0001
1000
,
0100
0010
0100
0010
0001
1000
1001
0000
,
1000
0010
0100
0010
0100
0010
2000
0000
,
3100
0100
0010
0100
0010
0100
0010
0000
,
0001
0010
0100
0010
0100
0010
0002
0000
,
0013
0010
0100
0100
1000
0010
0100
0000
,
0001
0100
1000
0100
1000
0100
0020
0000
,
1030
0010
0001
0010
0001
0010
1000
0000
,
0001
0010
1000
0010
1000
0010
0200
0000
,
1300
0100
1000
0100
1000
0001
0010
0001
,
0100
0000
0110
0000
0010
1000
0001
0000
,
0010
0100
1000
0000
0001
0100
0010
0000
,
1000
0000
1010
0000
0010
0100
0001
0000
,
1000
0010
0100
0010
0100
0010
2000
0000
,
3001
0000
0011
0000
0010
0001
1000
0000
,
0010
1000
0001
0000
0010
0100
1000
0000
,
0010
0100
0001
0010
0001
0010
0100
1000
,
0000
0110
0001
0101
,
2002
0000
3003
0000
1000
0010
1000
0010
,
0100
0001
0100
0001
1000
0000
1100
0000
,
2002
0000
3003
0001
0100
0000
0001
0100
,
1000
0100
0001
0001
1000
0000
1010
0000
,
0202
0000
0303
0000
0001
1000
0001
1000
,
0100
0010
0100
0010
0001
0010
0001
0010
,
0100
1000
0100
1000
0010
0100
0010
0100
,
0010
1000
1001
0000
0001
0100
0000
0100
,
0010
1000
0000
1000
0001
0010
0000
0100
,
0000
0100
1000
0000
1002
0000
0103
0010
,
2000
0000
3001
0010
0200
0000
0310
0100
,
2000
0000
3010
0000
1020
0000
0130
0010
,
2000
0000
3010
0100
0002
0000
1003
0100
,
0020
0000
0130
0000
2001
0000
3010
1000
,
0002
0000
0013
0001
0200
0000
0310
1000
,
0200
1300
1200
0310
,
0120
0031
0201
0310
,
0110
0000
1010
0000
1001
1000
0001
0000
,
0020
0000
0031
0010
0200
0000
0310
0100
,
2000
0000
3100
0000
1200
0000
1300
0001
,
0200
0000
0310
0100
0002
0000
1003
0010
,
0200
0000
0310
0000
0210
0000
0301
1000
,
0200
0000
0310
0001
2000
0000
3010
0100
,
0002
1003
1020
0130
,
0210
0301
0021
0130
,
0110
0000
1001
0000
1000
0000
0001
0010
,
1000
0000
0001
0100
1000
0000
0001
0010
,
1000
0010
0001
1000
0010
0000
1000
0010
,
0001
0000
1000
0100
0001
0000
1000
0010
,
0001
0010
1000
0001
0100
0000
0010
1000
,
0100
0000
0010
0001
0100
0000
0010
1000
,
0100
0001
0100
1000
0010
0000
0100
0001
,
0010
0000
0100
1000
0010
0000
0100
0001
,
0010
1000
0010
0001
2000
0000
3000
1000
,
0020
0000
0030
0010
0002
0000
0003
0001
,
2000
0000
3000
0000
2000
0000
3000
1000
,
0002
0000
0003
0001
0020
0000
0030
0010
,
2000
3000
0002
0003
,
0020
0000
0030
0000
0200
0000
0300
0100
,
2000
3000
0020
0030
,
0020
0030
0200
0300
,
0100
0200
0300
0000
;

//---------------dance-single - ----------------
#NOTEDATA:;
#CHARTNAME:;
#STEPSTYPE:dance-single;
#DESCRIPTION:;
#CHARTSTYLE:;
#DIFFICULTY:Medium;
#METER:6;
#RADARVALUES:0.414118,0.395036,0.198939,0.748390,0.000000,206.000000,21.000000,79.000000,0.000000,0.000000,0.000000,0.000000,0.000000,0.414118,0.395036,0.198939,0.748390,0.000000,206.000000,21.000000,79.000000,0.000000,0.000000,0.000000,0.000000,0.000000;
#CREDIT:;
#NOTES:
0000
0000
0000
0000
,
0000
0000
0000
0000
,
0000
0000
0000
0000
,
0000
0000
0000
0000
,
1000
0000
1000
0000
,
1000
0000
1000
0000
,
0010
0000
0010
0000
,
0010
0000
0010
0000
,
0100
0000
0100
0000
,
0100
0000
0100
0000
,
0001
0000
0001
0000
,
0001
1000
0001
1001
,
1000
0000
0010
0000
0100
0001
0200
0000
,
0000
0010
0001
0301
,
1000
0000
0100
0000
0010
0001
0020
0000
,
0000
0100
0001
0031
,
0001
0000
0100
0000
0010
1000
0020
0000
,
0000
0100
1000
1030
,
0001
0000
0010
0000
0001
0100
0001
0000
,
1000
0100
1000
0000
0010
0000
0110
0000
,
1001
0000
1000
2000
0000
0000
0010
0000
,
0000
0001
0000
3100
,
0000
0000
0001
0002
0000
2003
0000
3002
,
0000
1000
0000
0103
,
0101
0000
0001
2000
0000
3000
1000
0100
,
0000
0010
0000
0200
0000
0300
1000
0001
,
0000
0100
0000
1000
0000
0100
0000
0001
,
0000
1001
1000
0011
,
2200
3300
1000
0001
,
0100
0100
0000
0100
0000
0000
0101
0000
,
1010
0000
0000
0010
1000
0000
0001
0000
,
0010
0010
0000
0010
0000
0000
1001
0000
,
0220
0330
1000
0001
,
0100
0100
0000
0010
0000
0000
1000
0000
,
1000
0002
0000
0023
0000
0000
0230
0000
,
0000
2300
0000
0000
3001
1000
0000
0000
,
0001
1000
0000
0000
0001
1000
0000
0100
,
0000
0100
0100
0000
2002
0000
3003
1000
,
0002
0000
0003
0001
0200
0000
0300
0010
,
0010
0000
0000
0010
2000
0000
3000
1000
,
0002
0000
0003
0001
0020
0000
0030
0100
,
0100
0000
0000
0000
2002
0000
3003
0001
,
0200
0000
0300
0100
0020
0000
0030
1000
,
1000
0000
2020
3030
,
0022
0033
0202
0303
,
0200
2000
3300
0000
,
0002
0000
0003
0001
0020
0000
0030
0100
,
0100
0000
0000
0000
2002
0000
3003
1000
,
0020
0000
0030
0010
0200
0000
0300
0001
,
0001
0000
0000
0000
2002
0000
3003
0001
,
0020
0000
0030
0010
0200
0000
0300
1000
,
1000
0000
2200
3300
,
0202
0303
0022
0033
,
0020
2000
0030
0000
,
0010
0000
0001
0000
,
3100
0000
0002
0000
,
0100
0000
1000
0000
,
0013
0000
2000
3000
,
0200
0300
0020
0030
,
0002
0003
2000
3000
,
0020
0030
0200
0300
,
0002
0000
0003
0000
2000
0000
3000
1000
,
0002
0000
0003
0001
0020
0000
0030
0010
,
0200
0000
0300
0000
2000
0000
3000
1000
,
0002
0000
0003
0001
0200
0000
0300
0100
,
0020
0030
2000
3000
,
2000
0000
3000
0000
0002
0000
0003
0001
,
0200
0300
0020
0030
,
0020
0030
0200
0300
,
0100
0200
0300
0000
;

//---------------dance-single - ----------------
#NOTEDATA:;
#CHARTNAME:;
#STEPSTYPE:dance-single;
#DESCRIPTION:;
#CHARTSTYLE:;
#DIFFICULTY:Easy;
#METER:4;
#RADARVALUES:0.304498,0.362116,0.104206,0.539977,0.000000,157.000000,11.000000,57.000000,0.000000,0.000000,0.000000,0.000000,0.000000,0.304498,0.362116,0.104206,0.539977,0.000000,157.000000,11.000000,57.000000,0.000000,0.000000,0.000000,0.000000,0.000000;
#CREDIT:;
#NOTES:
0000
0000
0000
0000
,
0000
0000
0000
0000
,
0000
0000
0000
0000
,
0000
0000
0000
0000
,
1000
0000
1000
0000
,
1000
0000
1000
0000
,
0001
0000
0001
0000
,
0001
0000
0001
0000
,
0010
0000
0010
0000
,
0010
0000
0010
0000
,
0100
0000
0100
0000
,
0100
0100
0100
1001
,
0001
0100
0001
2000
,
0000
0010
3010
0000
,
0001
0010
0001
2000
,
0000
0100
3100
0000
,
1000
0100
1000
0002
,
0000
0010
0013
0000
,
1000
0010
1000
0001
,
0100
0100
0100
1001
,
0000
1000
0000
1000
,
0000
0001
0000
0001
,
0000
0010
0000
0010
,
0000
0100
0000
0100
,
1000
0100
0000
0100
,
1000
0010
0000
0010
,
0100
0001
1000
0001
,
0000
0000
0010
1001
,
2002
3003
0001
0100
,
0010
1000
0100
1001
,
1001
0000
1000
0001
,
0010
0010
0010
1001
,
2002
3003
0001
0010
,
0100
1000
0001
0100
,
0010
1000
0100
0100
,
0100
1001
0000
0000
,
0000
0000
0000
0000
,
0000
1001
0002
0000
,
0023
0000
0230
0000
,
1300
0000
2000
0000
,
3002
0000
0023
0000
,
0130
0000
2000
0000
,
3002
0000
0203
0000
,
0310
0000
0200
0000
,
0302
0000
2003
0000
,
3001
2002
3003
0000
,
0002
0000
0203
0000
,
0310
0000
2000
0000
,
3020
0000
0230
0000
,
0301
0000
2000
0000
,
3002
0000
0023
0000
,
0130
0000
2000
0000
,
3002
0000
0203
0000
,
0310
0020
0030
0000
,
1000
0000
1000
0000
,
1000
0000
0001
0000
,
0001
0000
0001
0000
,
0001
0000
0020
0030
,
0020
0030
0002
0003
,
0002
0003
0200
0300
,
0200
0300
0002
0003
,
0002
0003
2000
3000
,
2000
3000
0020
0030
,
0020
0030
0200
0300
,
0200
0300
0002
0003
,
0002
0003
2000
3000
,
2000
3000
0002
0003
,
0002
0003
0020
0030
,
0020
0030
0200
0300
,
0100
0200
0300
0000
;

//---------------dance-single - ----------------
#NOTEDATA:;
#CHARTNAME:;
#STEPSTYPE:dance-single;
#DESCRIPTION:;
#CHARTSTYLE:;
#DIFFICULTY:Beginner;
#METER:2;
#RADARVALUES:0.108266,0.130731,0.018947,0.000000,0.000000,78.000000,2.000000,0.000000,0.000000,0.000000,0.000000,0.000000,0.000000,0.108266,0.130731,0.018947,0.000000,0.000000,78.000000,2.000000,0.000000,0.000000,0.000000,0.000000,0.000000,0.000000;
#CREDIT:;
#NOTES:
0000
0000
0000
0000
,
0000
0000
0000
0000
,
0000
0000
0000
0000
,
0000
0000
0000
0000
,
1000
0000
0000
0000
,
0000
0000
0000
0000
,
1000
0000
0000
0000
,
0000
0000
0000
0000
,
0001
0000
0000
0000
,
0000
0000
0000
0000
,
0001
0000
0000
0000
,
0000
0000
0000
0000
,
0100
0000
0000
0000
,
0100
0000
0000
0000
,
0100
0000
0000
0000
,
0100
0000
0000
0000
,
0010
0000
0000
0000
,
0010
0000
0000
0000
,
0010
0000
0000
0000
,
0010
0000
0000
0000
,
1000
0000
0000
0000
,
1000
0000
0000
0000
,
0001
0000
0000
0000
,
0001
0000
0000
0000
,
1000
0000
0000
0000
,
0001
0000
0000
0000
,
1000
0000
0000
0000
,
0000
0000
0000
0000
,
1001
0000
0000
0000
,
0100
0000
0000
0000
,
0100
0000
0000
0000
,
0100
0000
0000
0000
,
1001
0000
0000
0000
,
0010
0000
0000
0000
,
0010
0000
0000
0000
,
0010
0000
0000
0000
,
0000
0000
0000
0000
,
0000
0000
1000
0000
,
1000
0000
1000
0000
,
1000
0000
0001
0000
,
0001
0000
0001
0000
,
0001
0000
0010
0000
,
0010
0000
0010
0000
,
0010
0000
0100
0000
,
0100
0000
0100
0000
,
0100
0000
0000
0000
,
1000
0000
1000
0000
,
1000
0000
0010
0000
,
0010
0000
0010
0000
,
0010
0000
0100
0000
,
0100
0000
0100
0000
,
0100
0000
0001
0000
,
0001
0000
0001
0000
,
0001
0000
0000
0000
,
0000
0000
1000
0000
,
0000
0000
0001
0000
,
0000
0000
1000
0000
,
0000
0000
0010
0000
,
0000
0000
0010
0000
,
0000
0000
0100
0000
,
0000
0000
0100
0000
,
0000
0000
0001
0000
,
0001
0000
0001
0000
,
0000
0000
1000
0000
,
1000
0000
1000
0000
,
0000
0000
0010
0000
,
0010
0000
0010
0000
,
0000
0000
0100
0000
,
0100
0000
0100
0000
,
0100
0000
0000
0000
;
