#VERSION:0.81;
#TITLE:ニッポン笑顔百景;
#SUBTITLE:;
#ARTIST:Momokurotei Ichimon;
#TITLETRANSLIT:Nippon Egao Hyakkei;
#SUBTITLETRANSLIT:;
#ARTISTTRANSLIT:;
#GENRE:;
#ORIGIN:;
#CREDIT:;
#BANNER:[Theme] - Nippon Egao Hyakkei.png;
#BACKGROUND:[Theme] - Nippon Egao Hyakkei-bg.png;
#PREVIEWVID:;
#JACKET:[Theme] - Nippon Egao Hyakkei-jacket.png;
#CDIMAGE:;
#DISCIMAGE:;
#LYRICSPATH:;
#CDTITLE:cdtitle.png;
#MUSIC:[Theme] - Nippon Egao Hyakkei.ogg;
#OFFSET:0.140000;
#SAMPLESTART:86.159775;
#SAMPLELENGTH:12.000000;
#SELECTABLE:YES;
#BPMS:0.000=160.000;
#STOPS:;
#DELAYS:;
#WARPS:;
#TIMESIGNATURES:0.000=4=4;
#TICKCOUNTS:0.000=4;
#COMBOS:0.000=1;
#SPEEDS:0.000=1.000=0.000=0;
#SCROLLS:0.000=1.000;
#FAKES:;
#LABELS:0.000=Song Start;
#BGCHANGES:;
#KEYSOUNDS:;
#ATTACKS:
;

//---------------dance-single - ----------------
#NOTEDATA:;
#CHARTNAME:;
#STEPSTYPE:dance-single;
#DESCRIPTION:;
#CHARTSTYLE:;
#DIFFICULTY:Hard;
#METER:9;
#RADARVALUES:0.592901,0.549723,0.154234,0.140213,0.140213,550.000000,22.000000,20.000000,0.000000,0.000000,0.000000,0.000000,0.000000,0.592901,0.549723,0.154234,0.140213,0.140213,550.000000,22.000000,20.000000,0.000000,0.000000,0.000000,0.000000,0.000000;
#CREDIT:;
#NOTES:
// measure 0
0000
0000
0000
0000
,  // measure 1
0000
0000
0000
0000
,  // measure 2
0000
0000
0000
0000
,  // measure 3
0000
0000
0000
0000
,  // measure 4
0000
0000
2002
0000
,  // measure 5
0000
0000
3003
0000
1000
1000
0001
0001
,  // measure 6
1000
0010
1000
0010
1000
0001
0100
0001
,  // measure 7
1000
0100
0001
0100
1000
0010
0001
0010
,  // measure 8
1000
0010
0001
0010
1000
0100
0010
0001
,  // measure 9
1000
0001
1000
0001
1000
0000
0000
0000
0001
0000
0100
0000
1000
0000
0100
0000
,  // measure 10
0001
0000
1000
0000
0001
0000
0000
0000
1000
0000
0000
1000
0010
0000
0100
0000
,  // measure 11
0001
0000
0000
0001
0010
0000
0100
0000
1000
0000
0000
1000
0001
0000
0000
0001
,  // measure 12
1000
0000
0000
1000
0002
0000
0000
0000
1000
0000
1000
0000
1000
0000
1000
0000
,  // measure 13
1000
1000
1003
0000
0001
0100
0010
0100
,  // measure 14
0001
0010
0100
0000
0010
0100
1000
0010
,  // measure 15
0100
0000
0001
0010
0100
0000
0010
0000
0001
0000
1000
0010
0100
0000
0010
0000
,  // measure 16
1000
0100
0001
0100
1000
0000
1000
0000
,  // measure 17
0001
0000
0001
0000
2000
0000
3001
0100
,  // measure 18
1000
0000
0110
0000
0001
0000
1000
0010
,  // measure 19
0001
0110
2001
3002
,  // measure 20
1003
0010
1000
0010
0000
1010
0000
0101
,  // measure 21
0000
0100
0001
0100
0002
0000
1003
0100
,  // measure 22
0001
0000
0110
0000
1000
0000
0001
0010
,  // measure 23
1000
0110
1002
0000
,  // measure 24
0000
0000
1000
1000
,  // measure 25
1003
0000
0001
0100
1000
0000
1000
0010
,  // measure 26
0001
0000
0000
0000
1000
0000
0010
0000
0100
0000
0000
0100
0010
0000
1000
0000
,  // measure 27
0001
0000
1000
0100
0001
0000
0001
0100
,  // measure 28
1000
0000
0001
0100
0010
1000
0010
0100
,  // measure 29
0001
0000
1000
0001
1000
0000
0001
0001
,  // measure 30
1000
0000
1000
0000
0001
0000
0100
0000
0010
0000
0000
0010
0100
0000
0001
0000
,  // measure 31
1000
0000
0001
0010
0100
0000
0100
0010
,  // measure 32
0001
0000
0000
0001
1000
0000
0010
0000
0100
0000
0010
0000
1000
0000
0100
0010
,  // measure 33
0100
1000
0001
0100
0110
0000
1000
0100
,  // measure 34
0110
0000
0000
0000
0001
0000
0100
0000
0010
0000
0000
0010
0100
0000
0001
0000
,  // measure 35
1000
0000
0001
0010
0110
0000
1000
0010
,  // measure 36
0110
0000
0001
0010
0100
1000
0100
0010
,  // measure 37
0001
0000
1000
0001
2000
0000
0001
0001
,  // measure 38
3001
0000
0000
0000
1000
0000
0100
0000
0010
0000
0000
0010
0100
0000
1000
0000
,  // measure 39
0001
0000
1000
0010
0100
0000
0100
0010
,  // measure 40
1000
0000
0000
1000
0001
0000
0010
0000
0100
0000
0010
0000
0001
0000
0100
0000
,  // measure 41
0010
0000
0100
0000
1000
0000
0100
0000
0001
0000
0000
0001
0000
0000
0001
0000
,  // measure 42
1000
0000
0000
1000
0000
0000
1000
0000
0001
0000
0000
0010
0000
0000
0001
0000
,  // measure 43
1000
0000
0000
0010
0000
0000
1000
0000
0001
0000
0000
0100
0000
0000
0010
0000
,  // measure 44
1000
0000
0000
0100
0000
0000
0010
0000
0001
0000
0000
0001
0000
0000
0001
0000
,  // measure 45
1000
0000
0000
1000
0000
0000
1000
0000
0001
0000
0000
0001
1000
0000
0100
0000
,  // measure 46
0001
0000
0100
0000
0100
0000
0000
0000
1000
0000
0000
1000
0001
0000
0100
0000
,  // measure 47
1000
0000
0100
0000
0100
0000
0000
0000
0001
0000
0000
0001
0000
0000
0001
0000
,  // measure 48
1000
0000
0000
1000
0000
0000
1000
0000
0001
0000
0010
0000
0100
0000
1000
0000
,  // measure 49
0010
0100
0100
0000
0001
1000
0100
1000
,  // measure 50
0100
0000
1000
0010
0000
0110
0000
0100
,  // measure 51
0001
0000
1000
0100
0001
0000
0001
0100
,  // measure 52
1000
0000
0010
0100
0010
0000
1000
0000
0001
0000
0010
0000
0100
0000
1000
0000
,  // measure 53
0100
0010
0001
0000
0000
1000
1000
0000
,  // measure 54
0001
0001
1000
1000
0001
0100
0010
1000
,  // measure 55
0010
0100
0001
0000
1000
0100
0001
0100
,  // measure 56
1000
0010
0001
0010
1000
0000
0001
1000
,  // measure 57
0001
1001
1002
0000
,  // measure 58
0100
0000
2003
0000
,  // measure 59
0100
0000
3002
0010
,  // measure 60
2003
0000
0010
0000
3001
0100
1000
0100
,  // measure 61
0001
0010
1000
0010
0002
0000
0000
0000
,  // measure 62
0100
0000
2003
0000
,  // measure 63
0100
0000
3002
0000
,  // measure 64
0000
0000
2000
0000
,  // measure 65
0000
0000
3003
0000
1000
0010
0100
0001
,  // measure 66
0100
0010
1000
0100
0001
0000
0001
0010
,  // measure 67
1000
0000
0000
0000
0001
0000
0010
0000
0100
0000
0000
0100
0010
0000
0001
0000
,  // measure 68
1000
0000
0001
0100
1000
0000
1000
0100
,  // measure 69
0001
0000
1000
0100
0010
0001
0010
0100
,  // measure 70
1000
0000
0001
1000
0001
0000
1000
1000
,  // measure 71
0001
0000
0001
0000
1000
0000
0100
0000
0010
0000
0000
0010
0100
0000
1000
0000
,  // measure 72
0001
0000
1000
0010
0100
0000
0100
0010
,  // measure 73
1000
0000
0000
1000
0001
0000
0010
0000
0100
0000
0010
0000
0001
0000
0100
0010
,  // measure 74
0100
0001
1000
0100
0011
0000
0001
0100
,  // measure 75
1010
0000
0000
0000
1000
0000
0100
0000
0010
0000
0000
0010
0100
0000
1000
0000
,  // measure 76
0001
0000
1000
0010
0101
0000
0001
0010
,  // measure 77
1100
0000
1000
0010
0100
0001
0100
0010
,  // measure 78
1000
0000
0001
1000
0002
0000
1000
1000
,  // measure 79
1003
0000
0000
0000
0001
0000
0100
0000
0010
0000
0000
0010
0100
0000
0001
0000
,  // measure 80
1000
0000
0001
0010
0100
0000
0100
0010
,  // measure 81
0001
0000
0000
0001
1000
0000
0010
0000
0100
0000
0010
0000
1000
0000
0100
0000
,  // measure 82
0010
0100
0001
0100
2000
0000
0010
0000
,  // measure 83
3002
0000
0000
0000
0100
0000
0000
0000
1003
0000
0100
0000
0010
0100
0010
0000
,  // measure 84
0100
0010
0100
0000
0010
0100
0010
0000
0001
0000
0100
0000
1000
0000
0000
0000
,  // measure 85
0001
0010
1000
0000
0001
0001
0001
0000
,  // measure 86
1000
0000
1000
0000
1000
0000
0000
0000
1001
0000
0000
1000
0001
0000
0010
0000
,  // measure 87
0100
1000
0100
0010
0001
0001
1000
1000
,  // measure 88
0001
1000
1000
0000
1000
0100
0001
0000
,  // measure 89
1000
0010
0001
0000
1000
1000
1000
0000
,  // measure 90
0001
0001
0001
0000
1000
0010
0100
0001
,  // measure 91
0000
0001
0100
0010
1000
1000
0001
0001
,  // measure 92
1000
1001
0000
0000
;

//---------------dance-single - ----------------
#NOTEDATA:;
#CHARTNAME:;
#STEPSTYPE:dance-single;
#DESCRIPTION:;
#CHARTSTYLE:;
#DIFFICULTY:Medium;
#METER:7;
#RADARVALUES:0.552840,0.517386,0.259394,0.119181,0.038559,498.000000,37.000000,17.000000,0.000000,0.000000,0.000000,0.000000,0.000000,0.552840,0.517386,0.259394,0.119181,0.038559,498.000000,37.000000,17.000000,0.000000,0.000000,0.000000,0.000000,0.000000;
#CREDIT:;
#NOTES:
0000
0000
0000
0000
,
0000
0000
0000
0000
,
0000
0000
0000
0000
,
0000
0000
0000
0000
,
0000
0000
2002
0000
,
0000
0000
3003
0000
0001
0001
1000
1000
,
0001
0100
0001
0100
0001
1000
0010
1000
,
0001
0010
1000
0010
0001
0100
1000
0100
,
0001
0100
1000
0100
0001
0010
0100
1000
,
0001
0001
1001
0000
1000
0100
1000
0100
,
1000
0010
0100
0000
0001
0010
0100
0000
,
0100
0010
0001
0000
0001
0000
1000
0000
,
1000
2002
0000
0000
,
0000
0000
3003
0000
0001
0100
0000
0100
,
0001
0000
0000
0010
0000
0000
0001
0000
1000
0000
0100
0000
0000
0000
0100
0000
,
1000
0000
0000
0010
0000
0000
1000
0000
0001
0000
0000
0001
0000
0000
0001
0000
,
1000
0000
0000
1000
0000
0000
1000
0000
0001
0000
0000
0000
0001
0000
0000
0000
,
1000
0000
1000
0000
0002
0000
1003
0100
,
0001
0000
0110
0000
2001
0000
0000
0001
,
3001
1001
1010
0101
,
0001
0010
0001
0010
0000
0011
0000
1100
,
0000
0100
1000
0100
2000
0000
3001
0100
,
1000
0000
0110
0000
1002
0000
0000
1000
,
1003
1001
1002
0000
,
0000
0000
1000
1000
,
1003
0000
0001
0100
0010
0000
0001
0100
,
0010
0000
0001
0100
0010
0100
0010
1000
,
0100
0000
1000
0100
0010
0000
1000
0100
,
0010
0000
1000
0100
0010
0100
0010
0001
,
0100
0000
0001
1000
0001
0000
1001
0000
,
1001
0000
0001
0100
0010
1000
0010
0100
,
0001
0000
1000
0100
0001
0000
0001
0100
,
1000
0000
0001
0100
0010
0010
0100
0100
,
0010
0010
1000
0100
0010
0000
1000
0100
,
0010
0000
1000
0100
0010
0100
0010
0001
,
0100
0000
0001
0100
0010
0000
0001
0100
,
0010
0000
0001
0100
0010
0100
0010
1000
,
0100
0000
1000
0001
1000
0000
1001
0000
,
1001
0000
1000
0100
0010
0001
0010
0100
,
1000
0000
0001
0100
1000
0000
1000
0100
,
0001
0000
1000
0100
0010
0010
0100
0100
,
0010
0000
0010
0000
0001
0000
0100
0000
1000
0000
0000
1000
0000
0000
1000
0000
,
0100
0000
0000
0100
0000
0000
0100
0000
0001
0000
0000
0001
1000
0000
0001
0000
,
0001
0000
0000
0000
1000
0000
0100
0000
0001
0000
0000
0001
0000
0000
0001
0000
,
0100
0000
0000
0100
0000
0000
0100
0000
1000
0000
0000
1000
0001
0000
0001
0000
,
1000
0000
1001
0000
1000
0100
0010
0100
,
1000
0001
0001
0000
0001
0100
0010
0100
,
0001
1000
1000
0000
0001
0100
0010
1000
,
0001
0001
1000
1000
0001
0100
0010
1000
,
0010
0100
0001
0000
1000
0001
0100
0001
,
0100
0000
0001
0010
0000
0110
0000
0100
,
1000
0000
0001
0100
1000
0000
1000
0100
,
0001
0010
0100
0100
1000
0010
0100
0001
,
0100
0010
1000
0000
0000
0001
0001
0000
,
1000
1000
0001
0001
1000
0100
0010
0001
,
0010
0100
1000
0000
0001
0100
1000
0100
,
0001
0010
1000
0010
0001
0000
1000
0001
,
1000
1001
2001
0000
,
0010
0000
3002
0000
,
0010
0000
2003
0100
,
3002
0000
0100
0000
1003
0100
0001
0100
,
1000
0010
0001
0010
1000
0000
0000
0000
,
1000
0000
0001
0000
,
0001
0000
2001
0000
,
0000
0000
0002
0000
,
0000
0000
3003
0000
1000
0010
0100
0001
,
0100
0010
1000
0100
0110
0000
1000
0100
,
0110
0000
1000
0100
0010
0100
0010
0001
,
0100
0000
0001
0100
0110
0000
0001
0100
,
0110
0000
0001
0100
0010
0100
0010
1000
,
0100
0000
1000
0001
1000
0000
1001
0000
,
1001
0000
1000
0100
0010
0001
0010
0100
,
1000
0000
0001
0100
1000
0000
1000
0100
,
0001
0000
1000
0100
0010
0010
0100
0100
,
0010
0010
0001
0100
0110
0000
0001
0100
,
0110
0000
0001
0100
0010
0100
0010
1000
,
0100
0000
1000
0100
0110
0000
1000
0100
,
0110
0000
1000
0100
0010
0100
0010
0001
,
0100
0000
0001
1000
0001
0000
1001
0000
,
1001
0000
0001
0100
0010
1000
0010
0100
,
0001
0000
1000
0100
0001
0000
0001
0100
,
1000
0000
0001
0100
0010
0010
0100
0100
,
0010
0010
1000
0001
2000
0000
0000
0000
,
0002
0000
3003
0000
1000
0001
1000
0001
,
1000
0001
1000
0000
0001
0001
0001
0000
,
0000
0000
0000
0000
1000
1000
1000
0000
,
0000
0000
0000
0000
0000
0000
0000
0000
0001
0000
0000
0001
1000
0000
0010
0000
,
0100
0001
0100
0010
1000
1000
0001
0001
,
1000
0000
1001
0000
0001
0001
0001
0000
,
0000
0000
0000
0000
1000
1000
1000
0000
,
0000
0000
0000
0000
0001
0010
0100
1000
,
0000
1000
0100
0010
0001
0001
1000
1000
,
0001
1001
0000
0000
;

//---------------dance-single - ----------------
#NOTEDATA:;
#CHARTNAME:;
#STEPSTYPE:dance-single;
#DESCRIPTION:;
#CHARTSTYLE:;
#DIFFICULTY:Easy;
#METER:4;
#RADARVALUES:0.358545,0.420376,0.434661,0.133202,0.000000,277.000000,62.000000,19.000000,0.000000,0.000000,0.000000,0.000000,0.000000,0.358545,0.420376,0.434661,0.133202,0.000000,277.000000,62.000000,19.000000,0.000000,0.000000,0.000000,0.000000,0.000000;
#CREDIT:;
#NOTES:
0000
0000
0000
0000
,
0000
0000
0000
0000
,
0000
0000
0000
0000
,
0000
0000
0000
0000
,
0000
0000
2002
0000
,
0000
3003
0001
0001
,
1000
1000
0010
0100
,
0010
0100
0001
1100
,
1000
0101
1000
1000
,
0001
0001
1000
0100
,
0010
0001
1000
0101
,
0001
1100
0001
0001
,
1000
1000
2002
0000
,
0000
3003
0001
0000
,
0001
0000
1000
0000
,
1000
0100
0010
0001
,
0010
0100
1000
1000
,
0001
0001
1001
0000
,
0001
0100
1000
0000
,
0110
1001
0001
0100
,
0001
0001
1000
0100
,
1000
1000
1001
0000
,
1000
0100
0001
0000
,
0110
1001
2001
0000
,
0000
0000
0001
0001
,
3001
1002
0103
1002
,
0013
0100
1000
1000
,
1001
2001
3100
2001
,
3010
0100
0001
0001
,
1001
0001
1000
1001
,
1001
0001
0100
0010
,
1000
0001
0100
1000
,
0100
0001
1000
0001
,
1001
2010
3001
2100
,
3001
1000
0001
0001
,
1001
0012
1003
0102
,
1003
0001
1000
1000
,
1001
1000
0001
1001
,
1001
1000
0010
0100
,
0001
1000
0100
0001
,
0100
1000
0001
1000
,
1001
0000
0001
0000
,
0010
0000
0100
1000
,
0100
0000
1000
0000
,
0010
0000
0100
0001
,
0100
0000
0001
1000
,
0001
0000
1000
0001
,
1000
0000
0001
0100
,
0010
1000
0010
0100
,
0100
0001
1001
0000
,
0000
0000
1001
0000
,
0000
0000
0001
0001
,
1000
1000
0010
0100
,
0010
0000
0100
0000
,
0100
0000
0010
0000
,
0010
0000
1000
0001
,
1000
0001
1000
1000
,
0001
0001
2001
0000
,
0000
0000
3002
0000
,
0000
0000
2003
0000
,
0002
3003
1001
0000
,
0000
0000
0001
0000
,
0000
0000
0001
0000
,
0000
0000
1000
0000
,
0000
0000
1000
0000
,
0000
0000
0000
0000
,
0000
0001
0110
0001
,
0110
0001
0100
0010
,
1010
1000
0110
1000
,
0110
1000
0100
0010
,
0011
0001
0001
1000
,
0001
1000
1000
0001
,
1001
0001
0101
1000
,
1100
0001
0011
0110
,
1100
1000
1010
1000
,
1010
1000
0010
0100
,
0101
0001
0011
0001
,
0011
0001
0010
0100
,
1100
1000
1000
0001
,
1000
0001
0001
1000
,
1001
1000
1100
0001
,
0101
1000
1010
0110
,
0101
0000
2002
0000
,
0000
0000
3003
0000
,
0000
0000
0000
0000
0001
0001
0001
0000
,
0000
0000
0000
0000
1000
1000
1000
0000
,
0000
0000
0001
1000
,
0001
1000
0001
1000
,
1001
0000
0000
0000
0001
0001
0001
0000
,
0000
0000
0000
0000
1000
1000
1000
0000
,
0000
0000
0001
1000
,
0001
1000
0001
1000
,
0001
1001
0000
0000
;
