#TITLE:Mario Kart 7 Opening Theme;
#SUBTITLE:;
#ARTIST:Kenta Nagata & Satomi Terui;
#TITLETRANSLIT:;
#SUBTITLETRANSLIT:;
#ARTISTTRANSLIT:;
#GENRE:;
#CREDIT:;
#BANNER:Mario Kart 7 Opening Theme-bn.png;
#BACKGROUND:Mario Kart 7 Opening Theme-bg.png;
#LYRICSPATH:;
#CDTITLE:;
#MUSIC:Mario Kart 7 Opening Theme.ogg;
#OFFSET:-0.550113;
#SAMPLESTART:30.790001;
#SAMPLELENGTH:12.000000;
#SELECTABLE:YES;
#DISPLAYBPM:135.000000;
#BPMS:0.000000=135.022995
;
#STOPS:
;
#BGCHANGES:;
#KEYSOUNDS:;
#ATTACKS:;

//---------------dance-single - ----------------
#NOTES:
     dance-single:
     :
     Hard:
     8:
     0.617619,0.550242,0.494927,0.625937,0.429422,220.000000,34.000000,43.000000,0.000000,0.000000,0.000000,0.617619,0.550242,0.494927,0.625937,0.429422,220.000000,34.000000,43.000000,0.000000,0.000000,0.000000:
0000
0000
0000
0000
,
1000
0000
0001
0000
0100
0000
0001
0100
0000
0010
0000
0000
1000
0100
0000
0000
,
0010
0000
0100
0000
1000
0001
0000
0200
0000
0000
0000
0000
0310
0000
0000
0000
,
0001
0000
0010
0000
1000
0000
0100
0000
0010
0001
0000
2000
0000
0000
3100
0000
,
0010
0000
0011
0000
0011
0000
0000
0000
2200
0000
3300
0101
0000
0000
0000
0000
,
0100
0000
0001
0000
0100
0010
0000
1000
0000
0001
0000
0000
1000
0100
0000
0000
,
0010
0000
0100
0000
1000
0010
0000
0002
0000
0000
0000
0000
0013
0000
0000
0000
,
0200
0000
0000
0000
1300
0000
0100
0000
0001
0010
0000
0200
0000
0000
0310
0000
,
0001
0000
0010
0000
0100
0000
1000
0002
0000
0000
0100
0000
0103
0000
0010
0000
,
1000
0000
0001
0000
0010
0000
0100
0010
0000
0001
0000
0000
1000
0100
0000
0000
,
0010
0000
0100
0000
1000
0010
0000
0200
0000
0000
0000
0000
0310
0000
0000
0000
,
1000
0000
0010
0000
0100
0000
0001
0000
0010
0100
0000
0020
0000
0000
0031
0000
,
1000
0000
1010
0000
1010
0000
0000
0000
0202
0000
0303
1100
0000
0000
0000
0000
,
0001
0000
0010
0000
0001
0100
0000
0010
0000
1000
0000
0000
0100
0010
0000
0000
,
0100
0000
1000
0000
0010
0100
0000
0002
0000
0000
1000
0000
1003
0000
0100
0000
,
0020
0000
0000
0000
0130
0000
1000
0000
0010
0100
0000
0200
0000
0000
0310
0000
,
0001
0000
0010
0000
1000
0000
0100
0010
0000
0010
0001
0000
1000
0000
0010
0000
,
0210
0000
0000
0301
0000
0000
1000
0000
0010
0000
0100
0000
,
0102
0000
1003
0000
0200
0010
0000
1300
,
1002
0000
0000
1003
0000
0000
0010
0000
0100
0000
0001
0000
,
2001
0000
0000
0000
3100
0000
0000
0000
0020
0000
0001
0000
0000
0000
0130
1000
,
0200
0000
0000
0000
1300
0000
0001
1000
0002
0000
0000
0000
0103
0000
0000
0000
,
0120
0000
0000
0000
1030
0000
0100
0010
0200
0000
0000
0000
1300
0000
0000
0000
,
1002
0000
0000
0000
0103
0000
0010
0000
1000
0000
0000
0001
0000
0000
0100
0000
,
0210
0000
0000
0000
0310
0000
1000
0000
0001
0000
0010
0100
0000
1000
0000
0001
,
0100
0000
0100
0000
0010
0000
0100
0010
0000
0010
0000
1000
0001
1000
0001
1000
,
0000
0000
1001
0000
1001
0000
0000
0000
0220
0000
0330
1001
0000
0000
0000
0000
,
0210
0000
0000
0000
0301
0000
0000
0000
1000
0000
0001
0000
0000
0010
0000
0000
,
0210
0000
1300
0002
0000
0100
0000
1003
,
0002
0000
0000
0000
0023
0000
0000
0000
1030
0000
0000
0010
0000
0000
0002
0000
,
0000
2000
0003
3010
,
0120
0000
0000
0000
1030
0000
0000
0000
0100
0000
1100
0000
0000
1001
0000
0000
,
0201
0000
0310
1001
0000
1100
0000
0010
,
0011
0000
0000
0000
1100
0000
0000
0000
0201
0000
0000
0310
0000
0000
0120
0000
,
0000
0000
0000
0000
1030
0000
1000
0002
0000
0000
0000
0000
0013
0000
0000
0000
,
0100
0000
1000
0000
0001
1000
0000
0000
1010
0000
0000
0101
0000
0000
2002
0000
,
3003
0000
0000
0000
;

//---------------dance-single - ----------------
#NOTES:
     dance-single:
     :
     Medium:
     6:
     0.424223,0.419232,0.174680,0.320247,0.036392,170.000000,12.000000,22.000000,0.000000,0.000000,0.000000,0.424223,0.419232,0.174680,0.320247,0.036392,170.000000,12.000000,22.000000,0.000000,0.000000,0.000000:
0000
0000
0000
0000
,
1000
0100
1000
0000
0001
0100
0001
0000
,
0100
0000
0100
0010
0200
0000
0000
0000
,
0301
1000
0001
0000
0010
0100
0010
0000
,
0001
0000
1000
0000
0001
0000
0000
0000
0100
0000
0000
0100
0000
0000
0000
0000
,
0001
0010
0001
0000
1000
0010
1000
0000
,
0010
0000
0010
0100
0020
0000
0000
0000
,
1030
0001
1000
0000
0100
0010
0100
0000
,
1000
0001
1000
0000
0020
0000
0000
0000
,
0130
0001
1000
0000
0100
1000
0001
0000
,
0010
0001
0010
0001
2000
0000
0000
0000
,
3001
0100
0010
0000
1000
0100
0010
0000
,
0001
0000
1000
0000
0001
0000
0000
0000
0100
0000
0000
0100
0000
0000
0000
0000
,
0010
1000
0001
0000
0010
0001
1000
0000
,
0100
1000
0100
1000
0002
0000
0000
0000
,
1003
0010
0100
0000
0001
0010
0100
0000
,
1000
0001
1000
0000
0010
0100
0010
0100
,
0002
0013
0100
1000
,
2100
3001
0100
0010
,
0120
1030
0001
0010
,
0021
0130
1000
0001
,
0102
0013
0100
1000
,
2010
3100
0010
0001
,
1002
0103
0010
1000
,
0100
0010
0100
0000
1000
0001
1000
0000
,
0010
0100
0010
0100
0010
0100
0010
0100
,
0000
0000
0001
0000
0001
0000
0000
0000
1000
0000
0000
1001
0000
0000
0000
0000
,
2010
0000
3001
0000
0010
0001
0100
0001
,
0020
0000
0130
0000
1000
0100
0001
0100
,
2000
0000
0000
0000
3010
0000
0000
0000
0100
0000
0000
0100
0000
0000
0100
0000
,
0000
2002
3000
0103
,
0102
0000
1003
0000
0100
1000
0010
1000
,
0200
0000
0310
0000
0001
0010
1000
0010
,
0002
0000
0000
0000
0103
0000
0000
0000
0010
0000
0000
1000
0000
0000
2002
0000
,
0000
0000
0000
0000
,
3003
0000
0000
0000
,
1001
0000
0000
0000
;

//---------------dance-single - ----------------
#NOTES:
     dance-single:
     :
     Easy:
     3:
     0.278656,0.262020,0.072783,0.407587,0.000000,101.000000,5.000000,28.000000,0.000000,0.000000,0.000000,0.278656,0.262020,0.072783,0.407587,0.000000,101.000000,5.000000,28.000000,0.000000,0.000000,0.000000:
0000
0000
0000
0000
,
1000
0100
0010
0000
,
0001
0100
0020
0030
,
1000
0100
1000
0000
,
0001
1000
1001
0000
,
0001
0100
0010
0000
,
1000
0100
0020
0030
,
0001
0100
0001
0000
,
1000
0001
2002
3003
,
1000
0010
1000
0010
,
0100
0001
0020
0030
,
0100
1000
0001
0100
,
0000
0010
0220
0330
,
0001
0010
0001
0010
,
0100
1000
0020
0030
,
1000
0010
1000
0010
,
0100
0001
0010
0100
,
0020
0000
0130
1000
,
0002
0000
0103
0000
,
0020
0000
1030
0100
,
0020
0000
0031
0000
,
2000
0000
3100
0000
,
0020
0000
0031
0000
,
0200
0000
0310
0000
,
2000
0000
3001
0000
,
0010
0100
1000
0001
,
0000
1000
2002
3003
,
0200
0001
0000
0301
,
2000
0100
0000
3100
,
0010
0010
0001
1000
,
0020
0200
0000
0330
,
0002
1000
0000
1003
,
0200
0010
0000
0310
,
0002
0103
0020
1030
,
0200
0000
0020
0000
,
0330
0000
0000
0000
,
1001
0000
0000
0000
;

//---------------dance-double - ----------------
#NOTES:
     dance-double:
     :
     Hard:
     8:
     0.646732,0.550242,0.494927,0.684164,0.429422,230.000000,34.000000,47.000000,0.000000,0.000000,0.000000,0.646732,0.550242,0.494927,0.684164,0.429422,230.000000,34.000000,47.000000,0.000000,0.000000,0.000000:
00000000
00000000
00000000
00000000
,
10000000
00000000
00010000
00000000
01000000
00000000
00100000
01000000
00000000
00010000
00000000
00000000
00100000
01000000
00000000
00000000
,
00010000
00000000
00001000
00000000
00000010
00000001
00000000
00000200
00000000
00000000
00000010
00000000
00001300
00000000
00010000
00000000
,
00001000
00000000
00010000
00000000
01000000
00000000
10000000
00000000
00100000
10000000
00000000
00020000
00000000
00000000
00100000
00000000
,
00031000
00000000
00001100
00000000
00001100
00000000
00000000
00000000
00020200
00000000
00030300
00001001
00000000
00000000
00000000
00000000
,
00000001
00000000
00001000
00000000
00000010
00000100
00000000
00000010
00000000
00001000
00000000
00000000
00000100
00000010
00000000
00000000
,
00001000
00000000
00010000
00000000
01000000
10000000
00000000
00200000
00000000
00000000
01000000
00000000
00310000
00000000
00001000
00000000
,
00000020
00000000
00000000
00000000
00000130
00000000
00001000
00000000
00000001
00000100
00000000
00000200
00000000
00000000
00000310
00000000
,
00000001
00000000
00001000
00000000
00000100
00000000
00000010
00020000
00000000
00000000
00001000
00000000
00031000
00000000
00000100
00000000
,
00000001
00000000
00001000
00000000
00000010
00000000
00000100
00000010
00000000
00001000
00000000
00000000
00000100
00000010
00000000
00000000
,
00001000
00000000
00010000
00000000
01000000
10000000
00000000
00200000
00000000
00000000
01000000
00000000
00310000
00000000
00001000
00000000
,
00010000
00000000
00001000
00000000
00000010
00000000
00000001
00000000
00000100
00000001
00000000
00002000
00000000
00000000
00000100
00000000
,
00013000
00000000
00110000
00000000
00110000
00000000
00000000
00000000
00202000
00000000
00303000
10010000
00000000
00000000
00000000
00000000
,
10000000
00000000
00010000
00000000
01000000
00100000
00000000
01000000
00000000
00010000
00000000
00000000
00100000
01000000
00000000
00000000
,
00010000
00000000
00001000
00000000
00000010
00000001
00000000
00000200
00000000
00000000
00000010
00000000
00001300
00000000
00010000
00000000
,
02000000
00000000
00000000
00000000
03100000
00000000
00010000
00000000
10000000
00100000
00000000
00200000
00000000
00000000
01300000
00000000
,
10000000
00000000
00010000
00000000
00100000
00000000
01000000
00001000
00000000
00001000
00010000
00000000
00001000
00000000
00000100
00000000
,
00000210
00000000
00000000
00000301
00000000
00000000
00000010
00000000
00001000
00000000
00010000
00000000
,
02010000
00000000
13000000
00000000
00200000
10000000
00000000
00310000
,
00012000
00000000
00000000
00000100
00000000
00000000
01003000
00000000
00010000
00000000
00001000
00000000
,
00002100
00000000
00000000
00000000
00003001
00000000
00000000
00000000
00000200
00000000
00000010
00000000
00000000
00000000
00001300
00010000
,
00002000
00000000
00000000
00000000
00103000
00000000
01000000
00100000
00020000
00000000
00000000
00000000
10030000
00000000
00000000
00000000
,
10200000
00000000
00000000
00000000
01300000
00000000
00100000
00010000
00002000
00000000
00000000
00000000
00013000
00000000
00000000
00000000
,
00010200
00000000
00000000
00000000
00000310
00000000
00000001
00000000
00001000
00000000
00000000
00000010
00000000
00000000
00000100
00000000
,
00000201
00000000
00000000
00000000
00000310
00000000
00000100
00000000
00001000
00000000
00010000
00001000
00000000
00010000
00000000
01000000
,
10000000
00000000
10000000
00000000
00010000
00000000
10000000
00010000
00000000
00010000
00000000
10000000
00010000
01000000
00010000
01000000
,
00000000
00000000
01001000
00000000
00011000
00000000
00000000
00000000
00020200
00000000
00030300
00002002
00003003
00000000
00000000
00000000
,
00000210
00000000
00000000
00000000
00001300
00000000
00010000
00000000
01000000
00000000
20000000
00000000
00000000
30100000
00000000
00000000
,
02100000
00000000
03010000
00100000
01000000
00010000
00001000
00000100
,
00000201
00000000
00000000
00000000
00000320
00000000
00000000
00000000
00001030
00000000
00000000
00000100
00000000
00000000
00020100
00000000
,
00000000
00002000
00030000
00013000
,
00021000
00000000
00000000
00000000
01030000
00000000
10000000
00000000
00100000
00000000
00020000
00000000
00000000
00031000
00000000
00000000
,
00021000
00000000
00030100
00000110
00000000
00002100
00000000
00003001
,
00000101
00000000
00000000
00000000
00001100
00000000
00000000
00000000
00021000
00000000
00000000
01030000
00000000
00000000
21000000
00000000
,
00000000
00000000
00000000
00000000
30100000
00000000
00100000
00020000
00000000
00000000
00000000
00000000
00031000
00000000
00000000
00000000
,
00000100
00000000
00000001
00000000
00001000
00000001
00000000
00000000
00000101
00000000
00000000
00001100
00000000
00000000
00022000
00000000
,
00033000
00000000
00000000
00000000
;

//---------------dance-double - ----------------
#NOTES:
     dance-double:
     :
     Medium:
     6:
     0.451257,0.419232,0.189237,0.305690,0.029113,183.000000,13.000000,21.000000,0.000000,0.000000,0.000000,0.451257,0.419232,0.189237,0.305690,0.029113,183.000000,13.000000,21.000000,0.000000,0.000000,0.000000:
00000000
00000000
00000000
00000000
,
00010000
00001000
00100000
00000000
00010000
10000000
01000000
00000000
,
00100000
00010000
00100000
00001000
00020000
00000000
00000000
00000000
,
00031000
00010000
00000100
00000000
00000010
00000001
00000100
00000000
,
00000001
00000000
00000010
00000000
00000010
00000000
00000000
00000000
00000100
00000000
00000000
00000100
00000000
00000000
00000000
00000000
,
00001000
00000100
00010000
00000000
00001000
00010000
01000000
00000000
,
00100000
01000000
10000000
00100000
00020000
00000000
00000000
00000000
,
00031000
00100000
00010000
00000000
00001000
00000100
00000010
00000000
,
00000001
00000100
00001000
00010000
00002000
00000000
00000000
00003000
,
00010000
01000000
10000000
00000000
10000000
00100000
01000000
00000000
,
00010000
00100000
01000000
00010000
00002000
00000000
00000000
00000000
,
00003100
00000001
00000010
00000100
00001000
00000001
00001000
00000000
,
00000100
00000000
00010000
00000000
00010000
00000000
00000000
00000000
00001000
00000000
00000000
00001000
00000000
00000000
00000000
00000000
,
00001000
00000100
00000001
00000000
00000001
00000100
00000010
00000000
,
00001000
00000100
00000010
00001000
00020000
00000000
00000000
00000000
,
01030000
10000000
00100000
00000000
01000000
00100000
00010000
00000000
,
00001000
00000100
00001000
00010000
01000000
10000000
00100000
00000000
,
02010000
00000000
03100000
00000000
10000000
01000000
00010000
00000000
,
00012000
00000000
00003100
00000000
00000001
00000010
00000100
00000000
,
00001200
00000000
00010300
00000000
00001000
00010000
01000000
00000000
,
21000000
00000000
30100000
00000000
01000000
00010000
00100000
00000000
,
00102000
00000000
00013000
00000000
00000100
00000010
00000001
00000000
,
00001002
00000000
00000103
00000000
00000010
00000100
00001000
00000000
,
00021000
00000000
01030000
00000000
10000000
00100000
01000000
00000000
,
01020000
00000000
00130000
00001000
00010000
00001000
00010000
00000000
,
00001000
00010000
00000100
00001000
00000010
00000100
00000001
00001000
,
00000000
00000000
00000001
00000000
00001000
00000000
00000000
00000000
00000010
00000000
00000000
00000110
00000000
00000000
00000000
00000000
,
00000120
00000000
00001030
00000000
00000100
00010000
00001000
00010000
,
02000000
00000000
13000000
00000000
00100000
00010000
00001000
00010000
,
00000200
00000000
00000310
00000000
00000001
00000100
00000010
00000100
,
00001000
00020000
00000000
00031000
,
02001000
00000000
03100000
00000000
10000000
00100000
01000000
00100000
,
00020000
00000000
00031000
00000000
00000010
00001000
00000010
00000100
,
00000010
00000000
00000000
00000000
00000001
00000000
00000000
00000000
00000100
00000000
00000000
00001000
00000000
00000000
00022000
00000000
,
00000000
00000000
00000000
00000000
,
00033000
00000000
00000000
00000000
,
00011000
00000000
00000000
00000000
;

//---------------dance-double - ----------------
#NOTES:
     dance-double:
     :
     Easy:
     4:
     0.268259,0.314424,0.116453,0.291134,0.000000,101.000000,8.000000,20.000000,0.000000,0.000000,0.000000,0.268259,0.314424,0.116453,0.291134,0.000000,101.000000,8.000000,20.000000,0.000000,0.000000,0.000000:
// measure 0
00000000
00000000
00000000
00000000
,  // measure 1
00010000
00001000
00100000
00010000
,  // measure 2
01000000
00100000
20000000
30000000
,  // measure 3
01000000
00010000
00001000
00000100
,  // measure 4
00000000
00000001
00002002
00003003
,  // measure 5
00000010
00000001
00000100
00000010
,  // measure 6
00001000
00000100
00020000
00030000
,  // measure 7
00001000
00010000
01000000
10000000
,  // measure 8
00100000
01000000
00020000
00030000
,  // measure 9
00100000
00001000
00010000
01000000
,  // measure 10
10000000
00100000
02000000
03000000
,  // measure 11
00010000
00100000
00001000
00000100
,  // measure 12
00000000
00000001
00001001
00000000
,  // measure 13
00000010
00000001
00000100
00001000
,  // measure 14
00010000
00001000
02000000
03000000
,  // measure 15
00100000
10000000
01000000
00010000
,  // measure 16
00001000
00010000
00001000
00000100
,  // measure 17
00000020
00000000
00000000
00000000
,  // measure 18
00002030
00000000
00000000
00000000
,  // measure 19
00003200
00000000
00000000
00000000
,  // measure 20
00020300
00000000
00000000
00000000
,  // measure 21
02030000
00000000
10000000
00000000
,  // measure 22
03200000
00000000
00010000
00000000
,  // measure 23
00302000
00000000
00000100
00000000
,  // measure 24
00023000
00000000
00001000
00000000
,  // measure 25
00030100
00010000
00001000
00010000
,  // measure 26
00000000
00001000
00022000
00033000
,  // measure 27
00010000
01000000
10000000
00100000
,  // measure 28
00010000
00001000
00010000
00000000
,  // measure 29
00001000
00000100
00000001
00000010
,  // measure 30
00001000
00020000
00000000
00030000
,  // measure 31
00001000
00000100
00000010
00001000
,  // measure 32
00000100
00010000
00001000
00100000
,  // measure 33
00110000
00110000
10010000
10010000
,  // measure 34
20000000
30000000
00020000
00030000
,  // measure 35
00000000
00000000
00000000
00000000
,  // measure 36
01100000
00000000
00000000
00000000
;
