#TITLE:空想メソロギヰ;
#SUBTITLE:;
#ARTIST:妖精帝國;
#TITLETRANSLIT:Kuusou Mesorogiwi;
#SUBTITLETRANSLIT:;
#ARTISTTRANSLIT:Yousei Teikoku;
#CREDIT:Chmurek;
#BANNER:[Theme] - Kuusou Mesorogiwi.png;
#BACKGROUND:[Theme] - Kuusou Mesorogiwi-bg.png;
#LYRICSPATH:;
#CDTITLE:cdtitle.png;
#MUSIC:[Theme] - Kuusou Mesorogiwi.ogg;
#OFFSET:-0.081;
#SAMPLESTART:51.580;
#SAMPLELENGTH:17.500;
#SELECTABLE:YES;
#DISPLAYBPM:230.000;
#BPMS:0.000=115.000,16.000=230.000;
#STOPS:;
#BGCHANGES:-0.100=[Theme] - Kuusou Mesorogiwi.avi=1.000=1=1=0,
312.000=[Theme] - Kuusou Mesorogiwi-bg.png=1.000=1=0=1,
99999=-nosongbg-=1.000=0=0=0 // don't automatically add -songbackground-
;

//---------------dance-single - Chmurek----------------
#NOTES:
     dance-single:
     Chmurek:
     Hard:
     9:
     0.644,0.740,0.223,0.011,0.022: // measure 1
0000
0000
0000
0000
,  // measure 2
0000
0000
0000
0000
,  // measure 3
0000
0000
0000
0000
,  // measure 4
0000
0000
0000
0000
,  // measure 5
1000
0001
1000
0000
0100
0010
0000
0001
,  // measure 6
0000
1000
0000
0010
0000
0100
0001
0000
,  // measure 7
1000
0100
1000
0000
0100
0010
0000
0010
,  // measure 8
0001
0000
0001
0100
0000
0100
0010
0000
,  // measure 9
1000
0001
1000
0000
0001
0100
0000
0010
,  // measure 10
0000
1000
0000
0100
0000
0010
0001
0000
,  // measure 11
1000
0001
1000
0000
0001
0100
0000
0100
,  // measure 12
0010
0000
0010
1000
0000
1000
0001
0000
,  // measure 13
1000
0100
0010
0100
,  // measure 14
1000
0001
0000
0100
0000
0001
0010
0000
,  // measure 15
0100
1000
0010
0100
,  // measure 16
0001
0100
0001
0000
1000
0100
1000
0000
,  // measure 17
0001
0010
0100
0010
,  // measure 18
0001
1000
0000
0010
0000
1000
0001
0000
,  // measure 19
1000
0100
0010
0001
,  // measure 20
1000
0010
1000
0000
0001
0010
0001
0000
,  // measure 21
1000
0100
0010
0001
1000
0010
0100
0001
,  // measure 22
1000
0000
0001
0000
,  // measure 23
0100
0010
1000
0001
,  // measure 24
1000
0100
1000
0000
0001
0100
0001
0000
,  // measure 25
1000
0010
1000
0000
0001
0010
0001
0000
,  // measure 26
1000
0000
0100
0000
,  // measure 27
1000
0010
0100
0001
,  // measure 28
0010
0100
0010
0000
0100
1000
0100
0000
,  // measure 29
1000
0010
1000
0000
0001
0100
0001
0000
,  // measure 30
1100
0110
0011
0110
,  // measure 31
1000
0010
0100
0001
,  // measure 32
0011
1001
1100
1001
,  // measure 33
1000
0010
0100
0001
,  // measure 34
1000
0010
0100
0001
1000
0010
0100
0010
,  // measure 35
1000
0001
0010
0100
1000
0001
0010
0100
,  // measure 36
1000
0001
0100
0010
0100
0001
1000
0010
,  // measure 37
0100
0001
0010
0100
1000
0001
0010
0100
,  // measure 38
1000
0000
0010
0100
0010
0000
1000
0000
,  // measure 39
0100
0010
0100
1000
,  // measure 40
0001
0000
0100
1000
0100
0000
0001
0000
,  // measure 41
0010
0100
0010
0001
,  // measure 42
1000
0000
0010
0001
0010
0000
1000
0000
,  // measure 43
0100
0010
0100
1000
,  // measure 44
0001
0000
0100
0010
0100
0000
0001
0010
,  // measure 45
0100
1000
0010
0100
0010
1000
0100
0010
,  // measure 46
0001
0000
M2MM
0300
,  // measure 47
1001
0000
0001
0100
0000
0010
1000
0000
,  // measure 48
0001
0010
0100
0010
,  // measure 49
0001
0000
1000
0010
0000
0010
1000
0000
,  // measure 50
0100
0010
0001
0100
,  // measure 51
0101
0000
0010
1000
0000
0001
0100
0000
,  // measure 52
0001
0010
0100
1000
,  // measure 53
0010
0000
0100
0001
0000
0001
0100
0000
,  // measure 54
0010
1000
0001
0010
,  // measure 55
1000
0000
0010
0000
0001
0010
0100
0000
,  // measure 56
1000
0000
0010
0000
0100
0010
1000
0000
,  // measure 57
0001
0000
0010
0000
0100
0010
0001
0000
,  // measure 58
0100
0000
0010
0000
1000
0100
0010
0000
,  // measure 59
0001
0010
0001
0010
0000
0100
1000
0010
,  // measure 60
1000
0000
0100
0010
0000
0010
0001
0000
,  // measure 61
1000
0010
0100
0001
,  // measure 62
0011
0000
0000
1100
0000
0000
0011
0000
,  // measure 63
1000
0000
1010
0000
0001
0100
0010
0100
,  // measure 64
0001
0000
0101
0000
1000
0100
0010
0100
,  // measure 65
1000
0000
1100
0000
1000
0010
0100
0001
,  // measure 66
1000
0100
0110
0000
,  // measure 67
0001
0000
1001
0000
0001
0010
0100
1000
,  // measure 68
0010
0000
1010
0000
1000
0100
0010
0001
,  // measure 69
0100
0000
0101
0000
0001
1000
0010
1000
,  // measure 70
0001
0000
0010
0000
0100
0000
1000
0000
0010
0000
0100
0000
,  // measure 71
0001
1000
0001
0000
1000
0100
0000
0100
,  // measure 72
0010
0000
0010
0100
0000
0100
1000
0000
,  // measure 73
0001
0100
0001
0000
1000
0010
0000
0010
,  // measure 74
0001
0000
0001
0010
0000
0010
1000
0000
,  // measure 75
0001
0010
0001
0000
1000
0100
0000
0100
,  // measure 76
0001
0000
0001
0100
0000
0100
1000
0000
,  // measure 77
0001
1000
0001
0000
0100
0010
0000
0010
,  // measure 78
1000
0001
0100
0010
1000
0001
0010
0100
,  // measure 79
1000
0000
0000
0000
;

//---------------dance-single - Chmurek----------------
#NOTES:
     dance-single:
     Chmurek:
     Medium:
     7:
     0.464,0.479,0.100,0.123,0.000:
0000
0000
0000
0000
,
0000
0000
0000
0000
,
0000
0000
0000
0000
,
0000
0000
0000
0000
,
0001
1000
0001
0000
0010
0000
0100
0000
,
0010
0001
0100
0010
,
1000
0001
1000
0000
0010
0000
0100
0000
,
0001
0010
0100
1000
,
0001
0100
0001
0000
1000
0000
0100
0000
,
0010
0100
1000
0001
,
1000
0100
1000
0000
0001
0000
0010
0000
,
0100
1000
0010
0100
,
0001
0010
1000
0010
,
0001
0100
0010
1000
,
0001
0010
0001
1000
,
1001
0000
0110
0000
,
1000
0010
0001
0010
,
1000
0100
0010
0100
,
1000
0010
1000
0100
,
0110
0000
1001
0000
,
0001
1000
0001
1000
,
0002
0000
0000
0000
,
1003
0000
0010
0000
,
0100
0001
0100
0010
,
0100
0001
0100
0010
,
2000
0000
0000
0000
,
3001
0000
0010
0000
,
0001
1000
0010
1000
,
0100
1000
0010
1000
,
0100
0100
0100
0100
,
1000
0010
0100
0001
,
0010
0010
0010
0010
,
0100
1000
0100
0010
,
0001
0100
0001
0100
,
0010
1000
0010
1000
,
0001
0010
0001
0010
,
0100
1000
0100
1000
,
0002
0000
0203
0000
,
0310
1000
0100
0010
,
0002
0000
0023
0000
,
0130
0010
0001
0100
,
0020
0000
2030
0000
,
3001
0010
0100
0010
,
0002
0000
0203
0000
,
0310
1000
0100
0010
,
0001
0000
MMMM
0000
,
1000
0000
0100
1000
0000
0100
1000
0000
,
0001
0010
0100
0010
,
0001
0100
0010
1000
,
0100
0010
0001
0000
,
0100
0000
0001
0100
0000
0001
0100
0000
,
0001
0010
0100
0010
,
0001
1000
0010
0100
,
0001
0010
0001
0100
,
1000
0100
0001
0100
,
1000
0100
0001
0010
,
1000
0010
0001
0010
,
1000
0010
0001
0010
,
0100
1000
0100
0010
,
0001
0100
0010
1000
,
0001
0010
0100
1000
,
1001
0000
0000
0110
0000
0000
1001
0000
,
0001
0001
0001
0001
,
0010
0010
0010
0010
,
0100
0100
0100
0100
,
1001
0000
0110
0000
,
1000
1000
1000
1000
,
0010
0010
0010
0010
,
0100
0100
0100
0100
,
0002
0000
0000
0000
,
1003
0100
0010
0100
,
0001
0100
1000
0010
,
0100
0001
0100
0010
,
1000
0100
0010
0100
,
1000
0001
0100
0010
,
0100
0001
0010
0100
,
1000
0010
0001
0010
,
1000
0001
0010
0100
,
1000
0000
0000
0000
;

//---------------dance-single - Chmurek----------------
#NOTES:
     dance-single:
     Chmurek:
     Easy:
     4:
     0.279,0.348,0.156,0.145,0.000:
0000
0000
0000
0000
,
0000
0000
0000
0000
,
0000
0000
0000
0000
,
0000
0000
0000
0000
,
1000
0001
1000
0000
,
0010
0000
0100
0000
,
0001
1000
0001
0000
,
0100
0000
0001
0000
,
0010
0100
0010
0000
,
0001
0000
1000
0000
,
0100
0010
0100
0000
,
1000
0000
0001
0000
,
1001
0000
1000
0000
,
0010
0000
0100
0000
,
0001
0000
0010
0000
,
0200
0000
0310
0000
,
0001
0000
1000
0000
,
0010
0000
0100
0000
,
0001
0000
0010
0000
,
0200
0000
1300
0000
,
1001
0000
0000
0000
,
0002
0000
0000
0000
,
2003
0000
0000
0000
,
3010
0000
1000
0000
,
0100
0000
0010
0000
,
0002
0000
0000
0000
,
2003
0000
0000
0000
,
3100
0000
0010
0000
,
0001
0000
1000
0000
,
0001
0001
0001
0001
,
0000
0000
0000
0000
,
1000
1000
1000
1000
,
0000
0000
0000
0000
,
0002
0000
0000
0000
,
0010
0000
0100
0000
,
2003
0000
0000
0000
,
0100
0000
0010
0000
,
3001
0000
0010
0000
,
0001
0000
1000
0000
,
0001
1000
0001
0000
,
0100
0000
0010
0000
,
1000
0001
1000
0000
,
0001
0000
0010
0000
,
0100
0010
0100
0000
,
1000
0001
1000
0001
,
1000
0000
0000
0000
,
1001
0000
0001
0000
,
1000
0000
0010
0000
,
0100
0000
0001
0000
,
0010
0000
0100
0000
,
0110
0000
1000
0000
,
0010
0000
0100
0000
,
0001
0000
0010
0000
,
0100
0000
1000
0000
,
0002
0000
0100
0000
,
0203
0000
0010
0000
,
0320
0000
1000
0000
,
2030
0000
0100
0000
,
3100
0000
0010
0000
,
0100
0000
1000
0000
,
0001
0000
0100
0000
,
0110
0000
0000
0000
,
1001
0000
0001
0000
,
0110
0000
0100
0000
,
1001
0000
0001
0000
,
0110
0000
0100
0000
,
1001
0000
0100
0000
,
0110
0000
1000
0000
,
1001
0000
0001
0000
,
2000
0000
0000
3000
,
1001
0000
0001
0000
,
0010
0000
0100
0000
,
1000
0000
0010
0000
,
0100
0000
0001
0000
,
1001
0000
0001
0000
,
0010
0000
0001
0000
,
1000
0000
0010
0000
,
1000
0000
0100
0000
,
0010
0000
0000
0000
;

//---------------dance-single - Chmurek----------------
#NOTES:
     dance-single:
     Chmurek:
     Beginner:
     1:
     0.092,0.174,0.112,0.056,0.000:
0000
0000
0000
0000
,
0000
0000
0000
0000
,
0000
0000
0000
0000
,
0000
0000
0000
0000
,
1000
0000
0000
0000
,
0000
0000
0000
0000
,
0001
0000
0000
0000
,
0000
0000
0000
0000
,
0010
0000
0000
0000
,
0000
0000
0000
0000
,
0100
0000
0000
0000
,
0000
0000
0000
0000
,
1001
0000
0000
0000
,
0000
0000
0000
0000
,
0001
0000
0000
0000
,
0000
0000
0000
0000
,
0010
0000
0000
0000
,
0000
0000
0000
0000
,
0100
0000
0000
0000
,
0000
0000
0000
0000
,
2000
0000
0000
0000
,
3000
0000
0000
0000
,
0001
0000
0000
0000
,
0002
0000
0000
0000
,
0003
0000
0000
0000
,
0100
0000
0000
0000
,
0200
0000
0000
0000
,
0300
0000
0000
0000
,
0000
0000
0000
0000
,
1001
0000
0000
0000
,
0000
0000
0000
0000
,
0110
0000
0000
0000
,
0000
0000
0000
0000
,
1001
0000
0000
0000
,
0000
0000
0000
0000
,
0110
0000
0000
0000
,
0000
0000
0000
0000
,
0001
0000
0000
0000
,
0000
0000
0000
0000
,
0010
0000
0000
0000
,
0000
0000
0000
0000
,
0100
0000
0000
0000
,
0000
0000
0000
0000
,
1000
0000
0000
0000
,
0000
0000
0000
0000
,
0001
0000
0000
0000
,
1001
0000
0000
0000
,
0000
0000
0000
0000
,
1000
0000
0000
0000
,
0000
0000
0000
0000
,
0110
0000
0000
0000
,
0000
0000
0000
0000
,
0010
0000
0000
0000
,
0000
0000
0000
0000
,
0002
0000
0000
0000
,
0003
0000
0000
0000
,
2000
0000
0000
0000
,
3000
0000
0000
0000
,
1001
0000
0000
0000
,
0000
0000
0000
0000
,
0110
0000
0000
0000
,
0000
0000
0000
0000
,
1000
0000
0000
0000
,
1000
0000
0000
0000
,
0001
0000
0000
0000
,
0001
0000
0000
0000
,
0010
0000
0000
0000
,
0010
0000
0000
0000
,
0100
0000
0000
0000
,
0100
0000
0000
0000
,
1000
0000
0000
0000
,
0000
0000
0000
0000
,
0010
0000
0000
0000
,
0000
0000
0000
0000
,
0100
0000
0000
0000
,
0000
0000
0000
0000
,
0001
0000
0000
0000
,
0000
0000
0000
0000
,
1001
0000
0000
0000
;
