#TITLE:恋は渾沌の隷也;
#SUBTITLE:;
#ARTIST:後ろから這いより隊G;
#TITLETRANSLIT:Koi wa Chaos no Shimobe Nari;
#SUBTITLETRANSLIT:;
#ARTISTTRANSLIT:Ushirokara Haiyoritai G;
#GENRE:;
#CREDIT:brunobg24;
#MENUCOLOR:;
#METERTYPE:DDR;
#BANNER:[Theme] - Koi wa Chaos no Shimobe Nari.png;
#BACKGROUND:[Theme] - Koi wa Chaos no Shimobe Nari-bg.png;
#JACKET:[Theme] - Koi wa Chaos no Shimobe Nari-jacket.png;
#LYRICSPATH:;
#CDTITLE:;
#MUSIC:[Theme] - Koi wa Chaos no Shimobe Nari.mp3;
#OFFSET:-0.080;
#SAMPLESTART:66.925;
#SAMPLELENGTH:12.152;
#SELECTABLE:YES;
#LISTSORT:;
#BPMS:0.000=158.000;
#STOPS:;
#BGCHANGES:-0.750=[Theme] - Koi wa Chaos no Shimobe Nari.avi=1.000=1=0=0,
232.000=[Theme] - Koi wa Chaos no Shimobe Nari-bg.png=1.000=1=0=1,
99999=-nosongbg-=1.000=0=0=0 // don't automatically add -songbackground-
;
#ATTACKS:;

//---------------dance-single - ----------------
#NOTES:
     dance-single:
     :
     Hard:
     9:
     0.689,0.725,0.218,0.087,0.240:
0000
0000
0000
0000
,
0000
0000
0000
0000
,
1000
0100
1000
0000
0001
0000
0100
0000
0001
0010
0001
0010
0000
0000
0100
0000
,
1000
0001
1000
0000
0001
0100
0000
0100
0000
0000
0000
0000
0001
0000
0100
0000
,
2000
0000
0000
0000
3100
0000
0000
0000
0010
0100
0000
0001
0000
0000
1000
0000
,
0010
0000
0000
0010
0000
0000
0100
0000
0000
0000
0001
0000
1000
0000
0000
0000
,
0001
0010
0001
0000
1000
0000
0010
0000
1000
0100
1000
0100
0000
0000
0010
0000
,
0001
1000
0001
0000
1000
0010
0000
0010
0000
0000
0000
0000
1000
0000
0001
0000
,
1000
0000
0000
0000
1001
0000
0000
0000
0001
0100
0000
0110
0000
0000
1100
0000
,
0000
0001
0010
0100
1000
0000
0101
0000
,
1000
0100
0010
0100
0001
0100
0010
0100
,
1000
0000
0010
0100
0010
0000
0100
0000
0001
0000
0000
0000
1000
0000
0000
0000
,
0010
0000
1000
0100
1000
0000
0001
0000
0200
0000
0000
0000
0310
0000
0000
0000
,
1000
0010
0001
0010
1000
0000
1001
0000
,
0001
0010
0100
0010
1000
0010
0100
0010
,
0001
0000
0100
0010
0100
0000
0010
0000
1000
0000
0000
0000
0001
0000
0000
0000
,
0100
0000
0001
1000
0001
0000
1000
0000
0200
0000
0000
0000
0310
0000
0000
0000
,
0001
0100
1000
0100
0001
0000
1001
1000
,
1000
0100
0010
0100
1000
0100
0001
0100
,
1000
1000
0001
0100
0010
0010
0100
0001
,
0010
0100
0010
0001
0010
1000
0010
0001
,
0100
0100
0001
1000
0010
0010
0100
0001
,
1000
0010
0001
0010
0100
0010
1000
0100
,
0010
0010
0001
1000
0001
0001
0100
0010
,
1000
0100
0010
0001
1000
0010
0100
0001
,
1000
0010
0001
0010
0100
0000
0101
0000
,
0001
0010
0100
0001
0100
1000
0010
1000
,
0001
0000
1000
0010
1000
0000
0001
0000
0100
0000
0010
0000
1000
0000
0100
0000
,
0010
0000
0001
1000
0001
0000
1000
0000
0020
0000
0000
0000
0130
0000
0000
0000
,
0001
0100
1000
0100
0001
0000
1001
0000
,
1000
0100
0010
1000
0010
0001
0100
0010
,
1000
0000
0001
0010
0001
0000
0010
0000
0100
0000
1000
0000
0010
0000
0100
0000
,
0001
0000
1000
0010
1000
0000
0001
0000
0200
0000
0000
0000
0310
0000
0000
0000
,
1000
0010
0001
0010
1000
0000
1001
0000
,
1000
1000
0010
0010
0100
0100
0001
0010
,
0000
0010
0001
1000
0000
1000
0100
0001
,
0100
1000
0010
0100
0001
0010
0001
1000
,
0001
0010
0001
0010
0100
1000
0100
1000
,
0001
0001
0100
0100
0010
0010
1000
0100
,
0000
0100
1000
0001
0000
0001
0010
1000
,
0010
0001
0100
0010
1000
0100
1000
0001
,
0000
1000
0001
0200
0010
0010
0010
0310
,
0000
1000
0001
1000
0001
0000
1001
0001
,
0100
0001
0100
0001
0100
0000
0110
0000
,
1010
0000
0000
0000
0101
0000
0000
0000
1000
0010
0000
0100
0000
0000
0001
0000
,
0010
0000
0100
0000
1000
0001
0000
0020
0000
0000
0100
0000
0130
0000
1000
0000
,
0100
0001
0100
1000
0010
0001
0010
1000
,
0000
0000
0001
0000
0100
0000
0001
0000
1000
0010
0000
0100
0000
0001
0100
0000
,
0101
0000
0000
0000
1010
0000
0000
0000
0001
0100
0000
0010
0000
0000
1000
0000
,
0100
0000
0010
0000
0001
1000
0000
0200
0000
0000
0010
0000
0310
0000
0001
0000
,
0100
1000
0100
0001
0010
1000
0010
0001
,
0000
1000
0100
1000
0001
0001
0100
0010
,
0000
1000
0100
0010
1000
0010
0001
0100
,
0001
0010
0100
0001
0100
1000
0010
0100
,
0000
0000
0001
0010
0001
0000
1000
0010
1000
0000
0001
0100
0001
0000
1000
0100
,
1000
0000
0001
1000
0001
0000
1000
0001
1000
0000
0100
0000
0010
0000
0001
0000
,
1001
0000
0000
0000
0110
0000
0000
0000
0100
0010
0000
0110
0000
0000
0101
0000
,
0000
0001
0010
0100
1000
0000
1001
0000
;

//---------------dance-single - ----------------
#NOTES:
     dance-single:
     :
     Medium:
     6:
     0.468,0.473,0.109,0.000,0.022:
0000
0000
0000
0000
,
0000
0000
0000
0000
,
1000
0100
1000
0000
0001
0100
0001
0000
,
1000
0010
1000
0000
0001
0100
0001
0000
,
0100
0010
0100
0000
0010
1000
0010
0000
,
0100
0001
0100
0001
1000
0010
1000
0010
,
0100
0001
0100
0000
0001
0010
0001
0000
,
1000
0010
1000
0000
0100
1000
0100
0000
,
0010
0000
0000
0000
0110
0000
0000
0000
0100
0000
0000
0100
0000
0000
1000
0000
,
0000
0001
0100
0001
0100
0000
1001
0000
,
1000
0000
0001
0100
0001
0000
1000
0000
,
0001
0010
0100
0000
0010
0000
0001
0000
,
1000
0000
0010
1000
0010
0000
0100
0000
,
0001
0010
0001
0010
0001
0000
1001
0000
,
1000
0000
0010
0100
0001
0000
1000
0000
,
0010
1000
0010
0000
1000
0000
0100
0000
,
0010
0000
0001
1000
0100
0000
1000
0000
,
0010
1000
0010
1000
0010
0000
0101
0000
,
1000
0010
0100
0001
,
1000
0100
1000
0000
0001
0010
0001
0000
,
0100
0010
1000
0001
,
1000
0010
1000
0000
0001
0100
0001
0000
,
0010
0100
1000
0001
,
0100
0001
0100
0000
0010
1000
0010
0000
,
1000
0001
0100
0010
,
1000
0001
1000
0001
1000
0000
1001
0000
,
0010
0000
1000
0100
1000
0000
0001
0000
,
0100
0000
0010
1000
0010
0000
0100
0000
,
0001
0000
1000
0010
1000
0000
0001
0000
,
0100
0010
0100
0010
0100
0000
0110
0000
,
1000
0000
0001
0100
0001
0000
1000
0000
,
0010
0000
0100
0010
0100
0000
0001
0000
,
1000
0000
0100
0010
0100
0000
0010
0000
,
0001
1000
0001
1000
0001
0000
1001
0000
,
1000
0010
1000
0010
1000
0000
0001
0000
,
0010
0100
0010
0001
,
0100
0010
0100
0010
0100
0000
0001
0000
,
1000
0010
0100
0001
,
1000
0010
1000
0010
1000
0000
0001
0000
,
0100
0010
1000
0001
,
0100
0001
0100
0001
0100
0000
0010
0000
,
1000
0000
0001
0000
1000
0100
0010
0001
,
0000
1000
1000
0001
0001
0000
0000
0100
,
0100
0010
0010
1000
0001
0000
1001
0000
,
0001
0000
0000
0000
0100
0000
0000
0000
0010
0000
0000
0010
0000
0000
1000
0000
,
0001
1000
0001
0000
1000
0000
0010
0000
,
0100
0100
0001
0001
,
1000
0100
0010
0001
,
1000
0000
0000
0000
0010
0000
0000
0000
0100
0000
0000
0100
0000
0000
0001
0000
,
1000
0001
1000
0000
0010
0000
0100
0000
,
0001
0001
0010
0010
,
0100
1000
0001
1000
,
0000
0001
0010
0000
0001
0000
0100
0000
,
1000
0000
0100
0000
0001
0000
0010
0100
,
0000
1000
0010
0000
0100
0000
0001
0000
,
1000
0000
0010
0000
1000
0100
0010
0001
,
0100
0000
0000
0000
0110
0000
0000
0000
0010
0000
0000
0010
0000
0000
1000
0000
,
0000
0001
0010
0100
1000
0000
1001
0000
;

//---------------dance-single - ----------------
#NOTES:
     dance-single:
     :
     Easy:
     3:
     0.284,0.347,0.065,0.000,0.011:
0000
0000
0000
0000
,
0000
0000
0000
0000
,
1000
1000
0001
0001
,
0100
0100
0010
0010
,
1000
0000
0001
0000
,
1000
0010
1000
0001
,
0100
0100
0010
0010
,
1000
1000
0001
0001
,
1000
0000
0000
0000
0001
0000
0000
0000
0010
0000
0000
0010
0000
0000
0010
0000
,
0000
0001
1000
0000
,
0001
0000
0100
0000
,
0010
0000
1000
0000
,
0100
0000
0010
0000
,
0001
0000
1000
0000
,
0010
0000
0100
0000
,
0001
0000
1000
0000
,
0100
0000
0010
0000
,
0001
0000
1000
0000
,
0001
0010
0100
1000
,
0001
0001
1000
1000
,
0001
0100
0010
1000
,
0010
0010
0100
0100
,
0001
1000
0010
0100
,
0001
0001
0100
0100
,
0001
0100
0010
1000
,
0100
0100
0010
0010
,
0001
0000
1000
0000
,
0010
0000
0100
0000
,
0001
0000
1000
0000
,
0100
0000
0010
0000
,
0001
0000
1000
0000
,
0001
0000
0100
0000
,
0010
0000
1000
0000
,
0100
0000
0010
0000
,
0001
0001
0001
1000
,
0010
0100
0001
0000
,
1000
1000
1000
0010
,
0100
0001
1000
0010
,
0100
0100
0100
0001
,
1000
0001
0100
0000
,
0010
0010
0010
1000
,
0100
1000
0001
1000
,
0000
1001
1001
0000
,
0110
0110
0110
0000
,
1000
1000
0001
0100
,
0001
0001
0100
0010
,
1000
0000
0010
0000
,
0100
0000
0001
0000
,
0100
0100
0010
1000
,
0001
0001
0100
0010
,
1000
0000
0001
0000
,
1000
0000
0010
0000
,
1000
0100
1000
0010
,
0100
0001
0010
0010
,
0001
1000
0100
1000
,
0001
0100
0010
0010
,
1000
0000
0000
0000
0001
0000
0000
0000
0100
0000
0000
0100
0000
0000
0100
0000
,
0000
0001
1000
1001
;

//---------------dance-single - ----------------
#NOTES:
     dance-single:
     :
     Beginner:
     1:
     0.139,0.189,0.000,0.000,0.000: // measure 1
0000
0000
0000
0000
,  // measure 2
0000
0000
0000
0000
,  // measure 3
1000
0000
1000
0000
,  // measure 4
0001
0000
0001
0000
,  // measure 5
1000
0000
1000
0000
,  // measure 6
0001
0000
0001
0000
,  // measure 7
0100
0000
0100
0000
,  // measure 8
0010
0000
0010
0000
,  // measure 9
0100
0000
0100
0000
,  // measure 10
0010
0000
0010
0000
,  // measure 11
1000
0000
0000
0000
,  // measure 12
0001
0000
0000
0000
,  // measure 13
1000
0000
0000
0000
,  // measure 14
0001
0000
0000
0000
,  // measure 15
0100
0000
0000
0000
,  // measure 16
0010
0000
0000
0000
,  // measure 17
0100
0000
0000
0000
,  // measure 18
0010
0000
0000
0000
,  // measure 19
1000
0000
0000
0000
,  // measure 20
0010
0000
0000
0000
,  // measure 21
1000
0000
0000
0000
,  // measure 22
0010
0000
0000
0000
,  // measure 23
0100
0000
0000
0000
,  // measure 24
0001
0000
0000
0000
,  // measure 25
0100
0000
0000
0000
,  // measure 26
0001
0000
0000
0000
,  // measure 27
1000
0000
0000
0000
,  // measure 28
0001
0000
0000
0000
,  // measure 29
1000
0000
0000
0000
,  // measure 30
0001
0000
0000
0000
,  // measure 31
0100
0000
0000
0000
,  // measure 32
0010
0000
0000
0000
,  // measure 33
0100
0000
0000
0000
,  // measure 34
0010
0000
0000
0000
,  // measure 35
1000
0000
1000
0000
,  // measure 36
0001
0000
0001
0000
,  // measure 37
1000
0000
1000
0000
,  // measure 38
0001
0000
0001
0000
,  // measure 39
0010
0000
0010
0000
,  // measure 40
0100
0000
0100
0000
,  // measure 41
0010
0000
0010
0000
,  // measure 42
0100
0000
0100
0000
,  // measure 43
0000
1000
1000
0000
,  // measure 44
0001
0001
0001
0000
,  // measure 45
1000
0000
0001
0000
,  // measure 46
1000
0000
0001
0000
,  // measure 47
0100
0000
0010
0000
,  // measure 48
0100
0000
0010
0000
,  // measure 49
1000
0000
0010
0000
,  // measure 50
1000
0000
0010
0000
,  // measure 51
0100
0000
0001
0000
,  // measure 52
0100
0000
0001
0000
,  // measure 53
1000
0000
1000
0000
,  // measure 54
0001
0000
0001
0000
,  // measure 55
0100
0000
0100
0000
,  // measure 56
0010
0000
0010
0000
,  // measure 57
1000
0000
0001
0000
,  // measure 58
0000
0000
0100
0010
;
