#VERSION:0.81;
#TITLE:HAPPY limelight;
#SUBTITLE:;
#ARTIST:Qrispy Joybox feat.Megumi Tatsumi;
#TITLETRANSLIT:;
#SUBTITLETRANSLIT:;
#ARTISTTRANSLIT:;
#GENRE:;
#ORIGIN:;
#CREDIT:;
#BANNER:[Theme] - HAPPY limelight.png;
#BACKGROUND:[Theme] - HAPPY limelight-bg.png;
#PREVIEWVID:;
#JACKET:[Theme] - HAPPY limelight-jacket.png;
#CDIMAGE:;
#DISCIMAGE:;
#LYRICSPATH:;
#CDTITLE:;
#MUSIC:[Theme] - HAPPY limelight.ogg;
#OFFSET:0.020000;
#SAMPLESTART:0.005000;
#SAMPLELENGTH:17.518248;
#SELECTABLE:YES;
#BPMS:0.000=137.000;
#STOPS:;
#DELAYS:;
#WARPS:;
#TIMESIGNATURES:0.000=4=4;
#TICKCOUNTS:0.000=4;
#COMBOS:0.000=1;
#SPEEDS:0.000=1.000=0.000=0;
#SCROLLS:0.000=1.000;
#FAKES:;
#LABELS:0.000=Song Start;
#BGCHANGES:;
#KEYSOUNDS:;
#ATTACKS:
;

//---------------dance-single - S-EXPERT----------------
#NOTEDATA:;
#CHARTNAME:xRGTMx-ESP;
#STEPSTYPE:dance-single;
#DESCRIPTION:S-EXPERT;
#CHARTSTYLE:;
#DIFFICULTY:Hard;
#METER:8;
#RADARVALUES:0.596996,0.551253,0.401824,0.361642,0.205935,340.000000,40.000000,36.000000,0.000000,0.000000,0.000000,0.000000,0.000000,0.596996,0.551253,0.401824,0.361642,0.205935,340.000000,40.000000,36.000000,0.000000,0.000000,0.000000,0.000000,0.000000;
#CREDIT:xRGTMx;
#NOTES:
0000
0000
0000
0000
,
0000
0000
0000
0000
,
0010
1000
0001
0000
0011
0010
0001
2000
,
0000
0000
3010
0000
1000
0000
0100
0000
0000
0000
1000
0100
1000
0000
0001
0000
,
0000
0100
0001
0100
0010
1000
0100
0020
,
0000
0100
0100
0000
0200
0000
0000
0000
,
0330
0010
0001
0000
1010
0010
1000
0002
,
0000
0000
0013
0000
0001
0000
0100
0000
0000
0000
0001
0010
0001
0000
1000
0000
,
0000
0000
0010
0100
0010
0000
1000
0000
0100
0000
1000
0000
0001
0000
2002
0000
,
0000
0000
0000
3003
,
0012
0000
0100
0000
0013
0001
1000
0010
,
0200
0001
0302
0000
0013
0001
1000
0100
,
0200
0000
0010
0000
1300
0100
1000
0010
,
0200
0001
0302
0010
0000
1003
1000
0010
,
2010
0000
0100
0000
3010
1000
0001
0010
,
0200
1000
2300
0000
3010
1000
0001
0100
,
0110
0010
0000
1001
0000
1000
0001
0101
,
0000
0000
1010
0000
0100
0000
0011
0000
0000
0000
0100
0000
0010
0100
0010
0100
,
0010
0000
1001
1000
0010
0100
0001
0200
,
0000
1300
0100
0000
0001
0010
0001
0100
,
0010
0000
1000
0010
0000
1000
0100
0002
,
0000
0023
0000
2030
0000
3001
0010
0100
,
1000
0000
1001
0000
0001
0100
0020
0000
,
1030
0100
1000
0000
0001
0101
0000
0100
,
0010
0000
0000
2002
0000
3003
0000
1100
,
0000
0010
0000
0101
0000
0110
0000
1001
,
1000
0000
0000
0100
0000
0000
0100
0000
1000
0000
0000
0000
0000
0000
1000
0000
,
0001
0000
0001
0100
0000
0000
0100
0000
0001
1000
0100
0000
0010
0000
0000
0000
,
0001
0010
0001
0010
0000
0000
0000
0000
0011
0000
1001
0000
0000
0000
0000
0000
,
1000
0010
1000
0010
0000
0000
0000
0000
1010
0000
1001
0000
0000
0000
0000
0000
,
0001
0000
0000
0010
0000
0000
0010
0000
0001
0000
0000
0000
0000
0000
0001
0000
,
1000
0000
1000
0010
0000
0000
0010
1000
0001
0000
0001
1000
0000
0000
0010
0000
,
1000
0100
1000
0100
0000
0000
0000
0000
0001
0100
0001
0100
0000
0000
2010
0000
,
0000
3001
0000
0012
0000
2003
0000
0000
,
3000
0000
0001
0000
0010
0000
1000
0000
0100
0000
0001
0000
0010
0100
0010
0100
,
0010
0001
1000
0000
1020
0000
0031
0010
,
0000
0000
1000
0000
0100
0000
0010
0000
0001
0000
1000
0010
1000
0000
0001
0000
,
1000
0100
0100
0010
0001
0100
0010
2000
,
0100
0000
0000
0000
0000
0000
0010
0000
0010
0000
0000
0000
3001
1000
0001
1000
,
0001
0010
0100
0000
1010
1000
0001
0010
,
0000
0000
1000
0000
0010
0000
0001
0000
0100
0000
0010
1000
0010
0000
0100
0000
,
0101
0000
0101
0000
0000
0000
1100
0000
0000
0000
0010
0100
0010
0000
0012
0000
,
0000
0000
0100
0000
1003
0000
2001
0000
0000
0000
0000
0000
3010
0100
0010
0100
,
0010
1000
0001
0000
0021
0000
1030
0010
,
0000
0000
0001
0000
0100
0000
0010
0000
1000
0000
0001
0010
0001
0000
1000
0000
,
0001
0100
0100
0010
1000
0100
0010
0002
,
0100
0000
0000
0000
0000
0000
0010
0000
0010
0000
0000
0000
1003
0001
1000
0001
,
1000
0010
0100
0000
0011
0001
1000
0010
,
0000
0000
0001
0000
0010
0000
1000
0000
0100
0000
0010
0001
0010
0000
0100
0000
,
1100
1100
0000
0101
0100
0010
0000
2010
,
0000
0100
3001
2002
0000
3000
0003
0000
,
1000
0100
1000
0100
1000
0000
0001
0000
1000
0100
1000
0100
1000
0000
0102
0000
,
0000
0000
0000
0000
0000
0000
1003
0001
,
0001
0010
0001
0010
0001
0000
1000
0000
0001
0010
0001
0010
0001
0000
2010
0000
,
0000
0000
0000
0000
0000
0001
0001
3001
;

//---------------dance-single - S-DIFFICULT----------------
#NOTEDATA:;
#CHARTNAME:xRGTMx-DSP;
#STEPSTYPE:dance-single;
#DESCRIPTION:S-DIFFICULT;
#CHARTSTYLE:;
#DIFFICULTY:Medium;
#METER:6;
#RADARVALUES:0.410435,0.468565,0.271231,0.442007,0.000000,215.000000,27.000000,44.000000,0.000000,0.000000,0.000000,0.000000,0.000000,0.410435,0.468565,0.271231,0.442007,0.000000,215.000000,27.000000,44.000000,0.000000,0.000000,0.000000,0.000000,0.000000;
#CREDIT:xRGTMx;
#NOTES:
0000
0000
0000
0000
,
0000
0000
0000
0000
,
0000
0001
0020
0000
0032
0000
2003
0000
,
3010
1000
0100
1000
0000
1010
0000
0011
,
0000
0001
0010
0100
1000
0100
1000
0002
,
0000
0000
0000
0000
,
0003
1000
0020
0000
2030
0000
3001
0010
,
0001
0100
0001
1000
0000
0011
0000
1100
,
0000
1000
0010
0100
0010
0100
0001
2002
,
0000
0000
0000
3003
,
0000
0000
2000
0000
0000
0010
0010
3020
,
0000
0200
0000
0000
0030
0000
0000
0000
,
0300
0000
0002
0000
0000
0010
0010
0023
,
0000
0100
0000
0200
0000
0000
0000
0000
,
0330
0000
2000
0000
0000
0001
0001
3002
,
0000
0100
0000
0203
0000
0010
0000
0310
,
0100
0010
0000
1010
0000
0000
0000
0021
,
0000
0130
0000
1020
0000
0130
0000
0000
,
0000
0000
0010
0000
0010
1000
0000
2000
,
0000
0100
0000
0100
0000
3001
0000
0000
,
0000
0000
0010
0000
0010
0001
0000
0002
,
0000
0100
0000
0100
0000
1003
0000
0000
,
0000
0000
0100
0000
0100
1000
0000
0020
,
0000
0100
0000
0230
0000
0010
0000
0310
,
0100
0000
0000
1001
0000
0000
0000
2100
,
0000
3001
0000
0102
0000
2003
0000
3100
,
0000
0100
0010
0000
0011
0000
0001
0100
,
0010
0100
0010
1000
0000
1100
0000
0202
,
0000
0000
0000
0303
,
0001
1000
0000
0000
1000
0001
0000
0000
,
0000
0100
0010
0000
1010
0000
1000
0000
,
0100
0010
0100
0010
0000
0001
0000
2020
,
0000
0000
0000
0000
0000
3030
0000
1010
,
0000
1000
0000
0011
0000
0001
0000
0000
,
0000
0001
1000
0000
0100
0000
0001
0000
,
0010
1000
0001
0000
0110
0000
1000
0000
,
0001
1000
0100
1000
0000
1020
0000
0230
,
0000
0301
0100
0000
0010
1000
0100
0020
,
0000
0000
0000
0030
,
0010
0001
1000
0000
0110
0000
0001
1000
,
0001
0100
0001
0010
0000
0021
0000
0230
,
0000
1300
0100
1000
0100
0010
0000
0102
,
0000
1003
0001
0200
0000
0000
0300
0000
,
0010
1000
0100
0000
0110
0000
0010
0001
,
1000
0001
1000
0200
0000
0000
0000
0000
,
0300
1000
0010
0000
0010
0100
0001
0200
,
0000
0000
0010
0310
,
0100
0001
0010
0000
0110
0000
0100
1000
,
0001
0100
0001
0100
0000
2010
0000
3001
,
0000
0001
1000
0100
1000
0010
0000
0110
,
0000
0100
0002
2000
0000
0000
3003
0000
,
1000
0100
1000
0000
0001
0100
0001
0200
,
0000
0000
0310
0000
,
0001
0100
0001
0000
1000
0100
1000
0200
,
0000
0000
0000
0000
0000
0000
0000
0300
;

//---------------dance-single - S-BASIC----------------
#NOTEDATA:;
#CHARTNAME:xRGTMx-BSP;
#STEPSTYPE:dance-single;
#DESCRIPTION:S-BASIC;
#CHARTSTYLE:;
#DIFFICULTY:Easy;
#METER:3;
#RADARVALUES:0.190867,0.221003,0.070319,0.140639,0.000000,112.000000,7.000000,14.000000,0.000000,0.000000,0.000000,0.000000,0.000000,0.190867,0.221003,0.070319,0.140639,0.000000,112.000000,7.000000,14.000000,0.000000,0.000000,0.000000,0.000000,0.000000;
#CREDIT:xRGTMx;
#NOTES:
0000
0000
0000
0000
,
0000
0000
0000
0000
,
1000
0000
1000
0000
,
0001
0000
0001
0001
,
0100
0000
0000
0000
0010
0000
0000
0020
,
0000
0000
0030
0000
,
0001
0000
0001
0000
,
1000
0000
1000
1000
,
0100
0000
0000
0000
0010
0000
0000
0020
,
0000
0000
0030
0000
,
1001
0000
0000
1000
,
0000
0100
0000
0010
,
0010
0000
0000
0001
,
0010
0010
0100
0000
,
1001
0000
0000
0001
,
0000
0100
0000
1000
,
0100
0000
0000
0100
0000
0000
0000
0010
,
0000
0000
0000
0110
0000
0000
0000
0000
,
1001
0000
0001
0000
,
0010
0010
0010
0000
,
0100
0000
0100
0100
,
0100
0000
1000
0000
,
1001
0000
0001
0000
,
0010
0100
0010
0000
,
0100
0000
0000
0100
0000
0000
0000
1000
,
0000
0000
0000
0001
0000
0000
0000
0000
,
0000
0000
0100
0000
,
0000
0000
0100
0000
,
0020
0030
0000
0000
0200
0300
0000
0000
,
0020
0030
0000
0000
0200
0300
0000
0000
,
0000
0000
0001
0000
,
0000
0000
1000
0000
,
0002
0003
0000
0000
2000
3000
0000
0010
,
0000
0000
0000
0010
0000
0000
0000
0000
,
0000
0200
0000
0000
0000
0000
0300
0000
,
0000
0001
0000
0001
,
0000
1000
0001
1000
,
0000
0010
0000
0010
,
0200
0000
0310
0000
,
0000
1000
0000
1000
,
0000
0001
1000
0001
,
0010
0000
0000
0010
0000
0000
0000
0100
,
0000
0000
0000
1001
0000
0000
0000
0000
,
0000
1000
1000
0000
,
1000
0000
0000
2000
0000
0000
3001
0000
,
0000
0000
0001
0000
0001
0000
0000
0002
,
0000
0000
1003
0000
,
0000
0001
0010
0000
,
0010
0100
1000
0000
,
0010
0000
0000
1001
0000
0000
0000
1000
,
0000
0100
0000
0001
0000
0000
0000
0000
,
0010
0100
0010
0010
,
0200
0000
0000
0300
,
0001
1000
1000
0001
,
2000
0000
0000
0000
,
3000
0000
0000
0000
;

//---------------dance-single - ----------------
#NOTEDATA:;
#CHARTNAME:;
#STEPSTYPE:dance-single;
#DESCRIPTION:;
#CHARTSTYLE:;
#DIFFICULTY:Beginner;
#METER:2;
#RADARVALUES:0.123417,0.162362,0.010046,0.050228,0.000000,80.000000,1.000000,5.000000,0.000000,0.000000,0.000000,0.000000,0.000000,0.123417,0.162362,0.010046,0.050228,0.000000,80.000000,1.000000,5.000000,0.000000,0.000000,0.000000,0.000000,0.000000;
#CREDIT:;
#NOTES:
// measure 0
0000
0000
0000
0000
,  // measure 1
0000
0000
0000
0000
,  // measure 2
1000
0000
0000
0000
,  // measure 3
0000
0000
1000
0000
,  // measure 4
0100
0000
0000
0000
0000
0000
0000
0010
,  // measure 5
0000
0000
0000
0000
,  // measure 6
0001
0000
0000
0000
,  // measure 7
0000
0000
0001
0000
,  // measure 8
0100
0000
0000
0000
0000
0000
0000
0010
,  // measure 9
0000
0000
0000
0000
,  // measure 10
0000
1000
0000
0000
,  // measure 11
0000
0000
1000
0000
,  // measure 12
0000
0001
0000
0000
,  // measure 13
0000
0000
0001
0000
,  // measure 14
0000
0100
0000
0000
,  // measure 15
0000
0000
0100
0000
,  // measure 16
0010
0000
0000
0000
0000
0000
0000
0010
,  // measure 17
0000
0000
0000
0010
0000
0000
0000
0000
,  // measure 18
1000
0000
0000
0000
,  // measure 19
1000
0000
0100
0000
,  // measure 20
0100
0000
0000
0000
,  // measure 21
0100
0000
0010
0000
,  // measure 22
0010
0000
0000
0000
,  // measure 23
0010
0000
0001
0000
,  // measure 24
0001
0000
0000
0000
0000
0000
0000
1000
,  // measure 25
0000
0000
0000
1000
0000
0000
0000
0000
,  // measure 26
0002
0000
0003
0000
,  // measure 27
0000
0000
0000
0000
,  // measure 28
0001
0000
0001
0000
,  // measure 29
0001
0000
0001
0000
,  // measure 30
2000
0000
3000
0000
,  // measure 31
0000
0000
0000
0000
,  // measure 32
1000
0000
0000
0000
0000
0000
0000
1000
,  // measure 33
0000
0000
0000
0001
0000
0000
0000
0000
,  // measure 34
0000
0000
0000
0000
,  // measure 35
0000
1000
0000
1000
,  // measure 36
0000
0100
0000
0100
,  // measure 37
0000
0000
0010
0000
0010
0000
0000
0002
,  // measure 38
0000
0000
0003
0000
,  // measure 39
0000
0001
0000
0001
,  // measure 40
0000
0100
0000
0100
,  // measure 41
0000
0000
0010
0000
0010
0000
0000
1000
,  // measure 42
0000
0000
0000
1001
0000
0000
0000
0000
,  // measure 43
0001
0000
1000
0000
,  // measure 44
0100
0100
0100
0000
,  // measure 45
1000
0000
0000
0000
0001
0000
0000
0100
,  // measure 46
0000
0100
0100
0000
,  // measure 47
0001
0000
1000
0000
,  // measure 48
0010
0010
0010
0000
,  // measure 49
1000
0000
0000
0001
0000
0000
0000
0010
,  // measure 50
0000
0000
0000
0010
0000
0000
0000
0000
,  // measure 51
0001
0000
0001
0000
0001
0000
0002
0003
,  // measure 52
0000
0000
0000
0000
,  // measure 53
1000
0000
1000
0000
1000
0000
2000
3000
;
