#TITLE:Bob's Burgers Theme;
#SUBTITLE:;
#ARTIST:Loren Bouchard;
#TITLETRANSLIT:;
#SUBTITLETRANSLIT:;
#ARTISTTRANSLIT:;
#GENRE:;
#CREDIT:;
#BANNER:bobsburgers-bn.png;
#BACKGROUND:bobsburgers-background.png;
#LYRICSPATH:;
#CDTITLE:;
#MUSIC:Bob's Burgers Theme Song.ogg;
#OFFSET:-0.012000;
#SAMPLESTART:8.705849;
#SAMPLELENGTH:19.038462;
#SELECTABLE:YES;
#BPMS:0.000000=103.999985
,48.000000=104.250000
;
#STOPS:
;
#BGCHANGES:;
#KEYSOUNDS:;
#ATTACKS:;

//---------------dance-single - ----------------
#NOTES:
     dance-single:
     :
     Beginner:
     1:
     0.048319,0.038235,0.000000,0.000000,0.000000,23.000000,0.000000,0.000000,0.000000,0.000000,0.000000,0.048319,0.038235,0.000000,0.000000,0.000000,23.000000,0.000000,0.000000,0.000000,0.000000,0.000000:
0000
0000
0000
0000
,
0000
0000
0000
0000
,
0000
0000
0000
0000
,
0000
0000
0000
0000
,
1000
0000
0000
0000
,
0001
0000
0000
0000
,
0100
0000
0000
0000
,
0010
0000
0000
0000
,
0100
0000
0000
0000
,
0001
0000
0000
0000
,
1000
0000
0000
0000
,
0100
0000
0000
0000
,
0010
0000
0000
0000
,
0010
0000
0000
0000
,
0100
0000
0000
0000
,
0100
0000
0000
0000
,
1000
0000
0000
0000
,
1000
0000
0000
0000
,
0001
0000
0000
0000
,
0001
0000
0000
0000
,
0100
0000
0000
0000
,
0010
0000
0000
0000
,
0100
0000
0000
0000
,
0010
0000
0000
0000
,
1000
0000
0000
0000
,
0001
0000
0000
0000
,
1000
0000
0000
0000
;

//---------------dance-single - ----------------
#NOTES:
     dance-single:
     :
     Easy:
     3:
     0.147059,0.131250,0.000000,0.000000,0.000000,70.000000,0.000000,0.000000,0.000000,0.000000,0.000000,0.147059,0.131250,0.000000,0.000000,0.000000,70.000000,0.000000,0.000000,0.000000,0.000000,0.000000:
// measure 0
0000
0000
0000
0000
,  // measure 1
0000
0000
0000
0000
,  // measure 2
0000
0000
0000
0000
,  // measure 3
0000
0000
0000
0000
,  // measure 4
0010
0010
0010
0000
,  // measure 5
0100
0100
0100
0000
,  // measure 6
0001
0001
0001
0000
,  // measure 7
1000
1000
1000
0000
,  // measure 8
0001
0010
0001
0000
,  // measure 9
1000
0100
1000
0000
,  // measure 10
0001
0100
0001
0000
,  // measure 11
1000
0010
1000
0000
,  // measure 12
0010
1000
0100
0100
,  // measure 13
0010
0001
0100
0000
,  // measure 14
0100
0001
0010
0010
,  // measure 15
0100
1000
0010
0000
,  // measure 16
1000
0001
0100
0100
,  // measure 17
0001
1000
0100
0000
,  // measure 18
1000
0001
0010
0010
,  // measure 19
0001
1000
0010
0000
,  // measure 20
0100
0001
1000
0000
,  // measure 21
0001
0100
0010
0000
,  // measure 22
1000
0001
0010
0000
,  // measure 23
0001
0100
0010
0000
,  // measure 24
1000
0100
0010
0000
,  // measure 25
0001
0100
0010
0000
;

//---------------dance-single - ----------------
#NOTES:
     dance-single:
     :
     Medium:
     5:
     0.241597,0.196691,0.000000,0.000000,0.000000,115.000000,0.000000,0.000000,0.000000,0.000000,0.000000,0.241597,0.196691,0.000000,0.000000,0.000000,115.000000,0.000000,0.000000,0.000000,0.000000,0.000000:
// measure 0
0000
0000
0000
0000
,  // measure 1
0000
0000
0000
0000
,  // measure 2
0000
0000
0000
0000
,  // measure 3
0000
0000
0000
0000
,  // measure 4
1000
0000
0001
1000
0000
1000
0001
0000
,  // measure 5
0100
0000
0010
0100
0000
0100
0010
0000
,  // measure 6
1000
0000
0100
1000
0000
1000
0100
0000
,  // measure 7
0010
0000
0001
0010
0000
0010
0001
0000
,  // measure 8
0100
0000
0010
0100
0000
0100
0010
0000
,  // measure 9
1000
0000
0001
1000
0000
1000
0001
0000
,  // measure 10
0010
0000
0100
0010
0000
0010
0100
0000
,  // measure 11
1000
0000
0001
1000
0000
1000
0001
0000
,  // measure 12
0100
0000
0010
0000
0100
0001
0100
0000
,  // measure 13
0010
0000
1000
0000
0100
1000
0100
0000
,  // measure 14
0010
0000
0100
0000
1000
0100
1000
0000
,  // measure 15
0010
0000
0100
0000
0001
0100
0001
0000
,  // measure 16
1000
0000
0100
0000
0010
0001
0010
0000
,  // measure 17
0100
0000
1000
0000
0010
0100
0010
0000
,  // measure 18
1000
0000
0001
0000
1000
0100
1000
0000
,  // measure 19
0100
0000
0010
0000
0001
0100
0001
0000
,  // measure 20
1000
0000
0100
0000
0010
0001
0010
0000
,  // measure 21
0100
0000
1000
0000
0001
0100
0001
0000
,  // measure 22
1000
0000
0010
0000
0100
0010
0100
0000
,  // measure 23
0010
0000
1000
0000
0001
1000
0001
0000
,  // measure 24
0010
0000
0100
0000
1000
0100
1000
0000
,  // measure 25
0001
0000
0100
0000
0010
1000
0010
0000
,  // measure 26
0100
0000
0001
0000
0010
0100
0010
0000
;

//---------------dance-single - ----------------
#NOTES:
     dance-single:
     :
     Hard:
     7:
     0.365546,0.329412,0.000000,0.000000,0.352941,174.000000,0.000000,0.000000,0.000000,0.000000,0.000000,0.365546,0.329412,0.000000,0.000000,0.352941,174.000000,0.000000,0.000000,0.000000,0.000000,0.000000:
// measure 0
0000
0000
0000
0000
,  // measure 1
0000
0000
0000
0000
,  // measure 2
0000
0000
0000
0000
,  // measure 3
0000
0000
0000
0000
,  // measure 4
1000
0000
0000
0010
0000
0000
1000
0000
0000
0010
0000
0000
1000
0000
0010
0000
,  // measure 5
1000
0000
0000
0100
0000
0000
1000
0000
0000
0100
0000
0000
1000
0000
0100
0000
,  // measure 6
0010
0000
0000
0001
0000
0000
0010
0000
0000
0001
0000
0000
0010
0000
0001
0000
,  // measure 7
0100
0000
0000
0010
0000
0000
0100
0000
0000
0010
0000
0000
0100
0000
0010
0000
,  // measure 8
1000
0000
0000
0100
0000
0000
1000
0000
0000
0001
0000
0000
0100
0000
0001
0000
,  // measure 9
1000
0000
0000
0010
0000
0000
1000
0000
0000
0001
0000
0000
0010
0000
0001
0000
,  // measure 10
0100
0000
0000
0010
0000
0000
0100
0000
0000
0001
0000
0000
1000
0000
0001
0000
,  // measure 11
0010
0000
0000
0001
0000
0000
0010
0000
0000
0100
0000
0000
1000
0000
0100
0000
,  // measure 12
1000
0000
0000
1000
0010
0000
1000
0000
0000
1000
0010
0000
0100
0000
0001
0000
,  // measure 13
0010
0000
0000
0010
0001
0000
0100
0000
0000
0100
0001
0000
0010
0000
0100
0000
,  // measure 14
1000
0000
0000
1000
0010
0000
1000
0000
0000
1000
0100
0000
0010
0000
0001
0000
,  // measure 15
0100
0000
0000
0100
0001
0000
0010
0000
0000
0010
0001
0000
0100
0000
0010
0000
,  // measure 16
1000
0000
0000
1000
0100
0000
0010
0000
0000
0010
0100
0000
1000
0000
0010
0000
,  // measure 17
0100
0000
0000
0100
0001
0000
0100
0000
0000
0100
0010
0000
1000
0000
0100
0000
,  // measure 18
0001
0000
0000
0001
0100
0000
1000
0000
0000
1000
0100
0000
0010
0000
0001
0000
,  // measure 19
1000
0000
0000
1000
0010
0000
0001
0000
0000
0001
0010
0000
0100
0000
0001
0000
,  // measure 20
1000
0000
0000
1000
0100
0000
0010
0000
0000
0010
1000
0000
0010
0000
0100
0000
,  // measure 21
1000
0000
0000
1000
0010
0000
0001
0000
0000
0001
0010
0000
0100
0000
0001
0000
,  // measure 22
0010
0000
0000
0010
0001
0000
1000
0000
0000
1000
0100
0000
0001
0000
0100
0000
,  // measure 23
0010
0000
0000
0010
0100
0000
1000
0000
0000
1000
0010
0000
0100
0000
0001
0000
,  // measure 24
0100
0000
0000
0100
0010
0000
1000
0000
0000
1000
0001
0000
1000
0000
0100
0000
,  // measure 25
0010
0000
0000
0010
0001
0000
0100
0000
0000
0100
0010
0000
0100
0000
1000
0000
,  // measure 26
0100
0000
0000
0100
0010
0000
1000
0000
0000
1000
0001
0000
0010
0000
0100
0000
,  // measure 27
1000
0000
0000
0010
0000
0000
0100
0000
0000
0001
0000
0000
0010
0000
0000
0000
,  // measure 28
0100
0000
0000
0000
;
