#TITLE:All Out;
#SUBTITLE:;
#ARTIST:izna;
#TITLETRANSLIT:;
#SUBTITLETRANSLIT:;
#ARTISTTRANSLIT:;
#GENRE:;
#CREDIT:Loodee;
#BANNER:All Out-bn.png;
#BACKGROUND:All Out-bg.png;
#LYRICSPATH:;
#CDTITLE:loodeecdtitle.png;
#MUSIC:All Out.ogg;
#OFFSET:-0.203;
#SAMPLESTART:71.694;
#SAMPLELENGTH:30.000;
#SELECTABLE:YES;
#DISPLAYBPM:128.000;
#BPMS:0.000=128.000,144.250=120.000,144.500=110.000,144.750=100.000,145.000=90.000,145.250=80.000,145.500=70.000,145.750=60.000,145.875=50.000,146.000=40.000,146.125=37.750,147.500=128.000;
#STOPS:;
#BGCHANGES:;
#KEYSOUNDS:;

//---------------dance-single - Loodee----------------
#NOTES:
     dance-single:
     Loodee:
     Challenge:
     10:
     0.748,0.681,0.182,0.410,1.000:
0000
0000
0000
0000
,
0000
0000
0000
0000
,
0000
0000
0000
0000
,
0000
0000
0000
0000
,
0012
0000
1003
0010
0100
0010
0001
0010
,
1000
0100
0010
0100
1000
0100
0001
0100
,
1000
0010
1000
0001
0100
0010
0001
0010
,
0210
0000
0000
0000
0301
0000
1000
0000
0001
0010
0100
1000
0010
0100
0010
1000
,
0001
0000
0010
0000
0000
0010
0000
0001
0000
0100
0010
1000
0000
0001
0010
0100
,
0000
0010
0100
0000
0000
0100
0000
1000
0000
0010
0100
0001
0000
0100
0001
0010
,
0000
0001
1000
0000
0000
1000
0000
0010
0000
1000
0100
0010
0000
0001
1000
0001
,
0000
0010
0100
0000
0000
1000
0000
0001
0000
0100
0010
1000
0000
0001
0010
0001
,
0000
1000
0100
0000
1000
0100
0000
1000
0000
0010
0100
0001
0000
0100
0010
1000
,
0000
0100
1000
0000
0100
1000
0000
0001
0000
0100
0010
0100
0000
0001
1000
0100
,
0000
1000
0010
0000
1000
0010
0000
0100
0000
0001
0010
0100
0000
0010
0100
1000
,
0000
0010
0100
0000
0010
0100
0000
0001
0000
1000
0100
0010
0000
0100
0010
0001
,
2000
0000
0000
3000
0010
0100
0000
0100
0000
0001
0020
0000
0130
0000
0020
0000
,
0032
0000
0000
0003
0010
0001
0000
0001
0000
1000
0020
0000
0100
0000
0000
0000
,
0230
0000
0000
0300
0010
0100
0000
0100
0000
0001
1000
0000
0010
0000
0100
0001
,
0100
0000
1000
0000
0100
0000
0001
0000
0010
0000
1000
0000
0010
0000
0001
0000
1000
0000
0000
0000
0000
0010
0000
0000
,
0020
0000
0000
0030
1000
0100
0000
0100
0000
1000
0002
0000
0103
0000
0002
0000
,
0023
0000
0000
0030
0100
0010
0000
0010
0000
0001
1000
0000
0010
0000
0100
0000
,
0002
0000
0000
0000
0203
0000
0300
1000
0000
1000
0100
0000
0001
0000
1000
0100
,
0010
0001
0001
0000
1000
0000
0000
0000
,
2020
0000
0000
3030
0000
0000
0000
0000
0000
0000
0000
0000
0000
0000
0001
0010
,
0002
0000
0000
0000
0003
0000
0011
0000
0000
0000
0000
0000
0000
0000
0000
0000
0000
0000
0000
0000
0000
0000
0000
0000
0000
0000
0000
0000
0010
M00M
0010
0000
,
2000
0000
0000
0000
3000
0000
0000
0000
0000
0000
0000
0000
0000
0000
0001
1000
,
0002
0000
0000
0000
0003
0000
0101
0000
0000
0000
0000
0000
0000
0000
0000
0000
0200
0000
0000
0000
0000
0000
0300
0000
0001
0000
1000
0000
0100
M00M
0100
0000
,
0002
0000
1003
0010
0000
0000
0100
0010
0000
0000
0100
0001
1000
0010
1000
0100
,
0020
0000
0000
0000
0030
0000
1001
0000
0000
0000
0000
0000
0001
0000
1000
0000
0000
0000
0000
0000
0001
0000
0100
0000
0010
0000
1000
0000
0010
M00M
0010
0000
,
0002
0000
1003
0010
0000
0000
0100
0010
0000
0000
0100
0001
0010
0100
0010
0001
,
2000
0000
3000
1100
0000
0000
0000
0000
0002
0000
0000
0003
1000
0010
0000
0000
,
0210
0000
0000
0000
0301
0000
0010
0001
0021
0000
0000
0000
0130
0000
1000
0100
,
2100
0000
0000
0000
3010
0000
0100
0001
0102
0000
0000
0000
0000
0000
0013
0100
,
1000
0000
0010
1000
0000
0001
0100
0000
0010
1000
0000
0100
0010
0000
1001
0000
,
0101
0000
0001
0100
0000
0010
1000
0000
0100
0010
0000
0100
1000
0000
0011
0000
,
2M20
000M
0M00
000M
0M00
000M
0M00
000M
0M00
000M
0M00
000M
0M00
303M
1000
0001
,
0200
0000
0300
0000
0110
0000
0010
1000
0200
0000
0310
0000
1001
0000
0002
0000
,
0013
0000
0100
0010
0100
0000
1000
0010
0200
0000
0302
0000
0023
0000
0000
0030
,
1001
0000
0100
0000
1001
0000
0001
0100
0020
0000
0032
0000
0013
0000
1000
0100
,
0002
0000
0000
0000
0203
0000
0000
1300
0100
1000
0001
0100
0010
0100
0001
1000
,
0020
0000
0030
0000
0101
0000
0001
0010
0002
0000
1003
0000
1010
0000
0002
0000
,
0013
0000
0100
1000
0100
0000
1000
0001
0200
0000
0320
0000
2030
0000
0000
3000
,
1100
0000
0001
0000
1100
0000
1000
0001
0200
0000
0310
0000
1000
0000
0010
0100
,
1000
0000
0100
0000
0001
0000
0010
0000
1000
0000
0010
0000
0001
0000
1000
0000
0010
1000
0010
0000
0100
0000
0001
0000
,
0010
0000
0001
0100
0000
0001
0100
0010
1000
0000
0001
0010
0001
0000
1000
0000
,
1000
0100
0010
0001
0000
0010
0001
1000
0010
0000
0100
0010
0200
0000
0000
0000
,
0301
0000
0100
0001
0000
1000
0001
0100
0010
0000
1000
0100
0010
0000
0001
1000
,
0001
0000
0000
0000
0010
0000
0000
0000
0100
0000
0000
0000
1000
0000
0000
0100
0000
0000
0010
0000
0000
0001
0000
0000
1000
0000
0000
0010
0000
0000
0100
0000
0000
0001
0000
0000
1000
0000
0000
0010
0000
0000
0100
0000
0000
0010
0000
0000
,
1000
0000
0010
0100
0000
0010
0100
0001
1000
0000
0010
0100
0001
0000
0010
0000
,
0010
0100
1000
0100
0000
1000
0100
1000
0001
0100
0010
1000
0002
0000
0000
0000
,
0103
0000
0010
0100
0000
0010
0100
0001
1000
0000
0010
1000
0100
0000
0010
0100
,
0001
0000
0000
0000
0000
0000
0000
0000
0000
0000
0000
0000
0000
0000
0000
0000
0100
0000
0000
0000
0000
0000
0000
0000
0000
0000
0000
0000
0000
0000
0000
0000
0010
0000
0000
0000
0000
0000
0000
0000
0000
0000
0000
0000
0000
0000
0000
0000
0001
0000
0000
0000
0000
0000
0000
0000
0000
0000
0000
0000
0000
0000
0000
0000
1000
0000
0000
0000
0000
0000
0000
0000
0000
0000
0000
0000
0000
0000
0000
0000
0010
0000
0000
0000
0000
0000
0000
0000
0000
0000
0000
0000
0000
0000
0000
0000
1000
0000
0000
0000
0000
0000
0000
0000
0000
0000
0000
0000
0000
0000
0000
0000
1000
0000
0000
0000
0000
0000
0000
0000
0000
0000
0000
0000
0000
0000
0000
0000
0001
0000
0000
0000
0000
0000
0000
0000
0000
0000
0000
0000
0000
0000
0000
0000
0001
0000
0000
0000
0000
0000
0000
0000
0000
0000
0000
0000
0000
0000
0000
0000
1000
0000
0000
0000
0000
0000
0000
0000
0100
0000
0000
0000
0000
0000
0000
0000
1000
0000
0000
0000
0000
0000
0100
0000
0000
0000
0000
0000
1000
0000
0000
0000
,
0100
0000
1000
0001
0000
1000
0001
0100
0001
0000
0010
0100
1000
0000
0010
0000
,
0010
0100
0010
1000
0000
0001
1000
0001
0010
0000
0100
1000
0200
0000
0000
0000
,
0310
0000
0001
1000
0000
0001
1000
0010
0100
0000
0001
0100
0010
0000
1000
0100
,
0001
0000
0000
0000
0100
0000
0000
0000
1000
0000
0000
0000
0001
0000
0000
0010
0000
0000
0100
0000
0000
0010
0000
0000
0001
0000
0000
1000
0000
0000
0010
0000
0000
0100
0000
0000
0001
0000
0000
0100
0000
0000
0010
0000
0000
1000
0000
0000
,
0001
0000
1000
0100
0000
1000
0100
0010
0100
0000
1000
0010
1000
0000
0001
0000
,
0001
0010
0100
0010
0000
0001
0010
0001
1000
0010
0100
0001
2000
0000
0000
0000
,
3010
0000
0100
0010
0000
0100
0010
1000
0010
0000
0100
0001
0010
0000
0100
0010
,
1000
0010
0100
1000
0001
0100
0001
0001
0010
1000
0010
0001
,
1000
0010
1000
0001
0100
0001
1000
1000
0010
0001
0010
1000
,
0001
0000
0000
0000
0000
0000
0000
0000
0000
0000
0000
0000
0000
0000
0000
0000
0100
0000
0000
0000
0000
0000
0000
0000
0000
0000
0000
0000
0000
0000
0000
0000
1000
0000
0000
0000
0000
0000
0000
0000
0000
0000
0000
0000
0000
0000
0000
0000
0100
0000
0000
0000
0000
0000
0000
0000
0000
0000
0000
0000
0000
0000
0000
0000
0001
0000
0000
0000
0000
0000
0000
0000
0000
0000
0000
0000
0000
0000
0000
0000
0010
0000
0000
0000
0000
0000
0000
0000
0000
0000
0000
0000
0000
0000
0000
0000
0001
0000
0000
0000
0000
0000
0000
0000
0000
0000
0000
0000
0000
0000
0000
0000
0001
0000
0000
0000
0000
0000
0000
0000
0000
0000
0000
0000
0000
0000
0000
0000
1000
0000
0000
0000
0000
0000
0000
0000
0010
0000
0000
0000
0000
0000
0000
0000
1000
0000
0000
0000
0000
0000
0000
0000
0000
0000
0000
0000
0000
0000
0000
0000
0000
0000
0000
0000
0000
0000
0000
0000
0001
0000
0000
0000
0000
0000
0000
0000
1000
0000
0000
0000
0000
0000
0001
0000
0000
0000
0000
0000
1000
0000
0000
0000
,
0002
0000
0000
0003
0101
0000
0001
1000
0000
0001
1000
0100
0000
0010
0000
0100
,
0000
0000
1000
0010
0000
0000
0100
0010
0000
1000
0001
0010
0000
0100
0000
0010
,
0000
0000
0001
0100
0000
0000
0010
1000
0000
0100
1000
0001
0000
1000
0000
0010
,
0000
0000
0100
0001
0000
0000
0010
0001
1000
0100
0010
0001
0100
0010
1000
0100
,
0020
0000
0000
0000
,
0000
0000
0000
0000
,
0030
0000
0000
0000
;

//---------------dance-single - Loodee----------------
#NOTES:
     dance-single:
     Loodee:
     Hard:
     8:
     0.536,0.629,0.273,0.539,0.497:
0000
0000
0000
0000
,
0000
0000
0000
0000
,
0000
0000
0000
0000
,
0000
0000
0000
0000
,
2010
0000
3010
0100
0001
1000
0010
0000
,
1000
0100
0010
0100
1000
0100
0010
0000
,
0001
0100
0001
0100
0010
1000
0001
0000
,
1002
0000
0000
0000
0013
0000
0100
0000
4000
0400
0000
0000
0000
0000
3300
0000
,
1001
0000
0001
0000
0000
0010
0000
0001
0000
1000
0000
0001
0000
0100
0000
0010
,
0000
0000
1000
0000
0000
0100
0000
1000
0000
0010
0000
0100
0000
0010
0000
1000
,
0000
0000
0001
0000
0000
0010
0000
0001
0000
0100
0000
0010
0000
1000
0000
0100
,
0000
0000
0010
0000
0000
0001
0000
1000
0000
0001
0000
0100
0000
0001
0000
0010
,
0000
0000
1000
0000
0000
0010
0000
0100
0000
1000
0000
0010
0000
0100
0000
1000
,
0000
0000
0100
0000
0000
0010
0000
1000
0000
0001
0000
0010
0000
0100
0000
0001
,
0000
0000
0100
0000
0000
1000
0000
0010
0000
1000
0000
0010
0000
0100
0000
1000
,
0000
0000
0100
0000
0000
0010
0000
1000
0000
0100
0000
1000
0000
0010
0000
0000
,
2000
0000
0000
0000
3001
0000
0000
1000
0000
0000
0200
0000
1300
0000
0002
0000
,
0103
0000
0000
0000
0001
0000
0000
0100
0000
0000
0020
0000
0000
0000
0000
0000
,
0230
0000
0000
0000
0301
0000
0000
0010
0000
0000
0001
0000
0000
0000
0000
0000
,
1000
0000
0001
0000
1000
0000
0001
0000
0100
0000
0001
0000
1000
0000
0001
0000
1000
0000
0000
0000
0000
0001
0000
0000
,
0002
0000
0000
0000
0013
0000
0000
0100
0000
0000
2000
0000
3010
0000
0200
0000
,
0301
0000
0000
0000
0100
0000
0000
0010
0000
0000
2000
0000
3200
0000
0000
0000
,
0320
0000
0000
0000
0031
0000
0000
1000
0000
0000
0010
0000
0000
0000
0000
0000
,
0100
0001
0001
0000
,
2002
0000
0000
3003
0000
0000
0000
0000
0000
0000
0000
0000
0000
0000
0000
0000
,
2020
0000
0000
3030
0000
0000
1010
0000
0000
0000
0000
0000
0000
0000
0000
0000
0000
0000
0000
0000
0000
0000
0000
0000
0000
0000
0000
0000
0000
0000
0000
0000
,
0022
0000
0000
0033
0000
0000
0000
0000
0000
0000
0000
0000
0000
0000
0000
0000
,
0220
0000
0000
0330
0000
0000
0110
0000
0000
0000
0000
0000
0000
0000
0000
0000
2000
0000
0000
0000
0000
0000
0000
0000
3001
0000
0100
0000
0000
0000
0000
0000
,
0202
0000
0000
0303
0000
0001
1000
0000
0000
0001
0010
0000
0000
0100
0000
0000
,
2200
0000
0000
3300
0000
0000
1100
0000
0000
0000
0000
0000
1000
0000
0001
0000
0000
0000
0000
0000
0100
0000
0010
0000
0000
0000
0100
0000
0000
0000
0000
0000
,
2002
0000
0000
3003
0000
0000
1000
0010
0000
0000
0100
0001
0000
0010
0000
0000
,
0022
0000
0000
0033
0000
0000
0011
0000
0000
0000
0000
0000
0000
0000
0000
0000
2000
0000
0000
0000
0000
0000
0000
0000
3100
0000
0010
0000
0000
0000
0000
0000
,
M22M
0000
0000
0330
M00M
0000
0000
0000
2MM2
0000
0000
3003
0MM0
0000
0000
0000
,
2M2M
0000
0000
3030
0M0M
0000
0000
0000
M2M2
0000
0000
0000
0000
0000
0303
0000
,
0011
0000
0000
0011
0000
0000
1100
0000
0000
1100
0000
0000
1000
0000
0010
0000
,
0101
0000
0000
0101
0000
0000
1010
0000
0000
1010
0000
0000
0010
0000
0100
0000
,
0002
0000
0000
0000
0000
0000
0000
0013
,
0200
0300
1100
0000
2000
3020
0030
0200
,
0000
0300
1001
0000
0002
0023
0000
0030
,
0110
0000
0000
0000
1100
0000
0000
0000
2000
0000
3002
0000
0003
0000
0010
0001
,
0020
0000
0230
0000
2300
3002
0000
0000
,
0203
0300
0110
0000
0002
2003
3000
0200
,
0000
0300
0011
0000
0002
0203
0000
0300
,
1010
0000
0101
0000
0002
0203
0300
0010
,
1000
0100
1000
0001
1000
0001
1000
0100
1000
0001
1000
0001
,
0010
0000
0000
0001
0000
0000
0100
0000
0010
0000
1000
0000
0010
0000
1000
0000
,
0100
0000
0000
0010
0000
0000
0001
0000
0100
0000
0010
0000
1000
0000
0001
0000
,
0010
0000
0000
0100
0000
0000
0010
0000
0001
0000
0010
0000
0001
0000
1000
0001
,
2000
0000
3200
0000
0320
0032
0000
0000
,
0103
0000
0000
0010
0000
0000
1000
0000
0100
0000
1000
0000
0001
0000
0100
0000
,
0010
0000
0000
1000
0000
0000
0001
0000
0010
0000
0100
0000
1000
0000
0010
0000
,
0100
0000
0000
0001
0000
0000
0010
0000
0100
0000
1000
0000
0001
0000
0100
0000
,
0010
0100
0010
1000
0001
1000
0010
0100
0010
1000
0001
1000
,
0100
0000
0000
0001
0000
0000
0100
0000
1000
0000
0010
0000
0100
0000
0001
0000
,
0100
0000
0000
1000
0000
0000
0100
0000
0010
0000
0100
0000
0001
0000
0010
0000
,
0100
0000
0000
0001
0000
0000
0100
0000
1000
0000
0100
0000
1000
0000
0010
0100
,
0002
0000
0023
0000
0230
2300
0000
0000
,
3010
0000
0000
0001
0000
0000
0010
0000
0100
0000
0001
0000
1000
0000
0100
0000
,
0010
0000
0000
1000
0000
0000
0010
0000
0100
0000
0010
0000
0001
0000
1000
0000
,
0010
0000
0000
0001
0000
0000
0010
0000
0100
0000
0001
0000
1000
0000
0001
0000
,
0010
0001
0010
0100
1000
0100
1000
0001
1000
0001
1000
0001
,
1000
0010
1000
0010
0100
0001
0100
0001
1000
0100
0010
0001
,
0100
0000
0000
1000
0000
0000
0100
0000
0000
0010
0000
0000
1000
0000
0010
0000
0100
0000
0001
0000
0010
0000
0100
0000
,
2000
0000
3010
0100
0001
0100
0010
0100
,
0001
0010
0100
0010
0001
0010
0100
1000
,
0001
1000
0001
1000
0010
0100
0010
0100
,
0001
0000
0100
0000
0010
0000
1000
0000
0004
0040
0000
0000
0000
0000
0033
0000
,
2002
0000
0000
0000
,
0000
0000
0000
0000
,
3003
0000
0000
0000
;

//---------------dance-single - Loodee----------------
#NOTES:
     dance-single:
     Loodee:
     Medium:
     6:
     0.446,0.407,0.137,0.433,0.262:
0000
0000
0000
0000
,
0000
0000
0000
0000
,
0000
0000
0000
0000
,
0000
0000
0000
0000
,
2001
0000
3001
0000
0100
0010
0100
0000
,
0001
1000
0001
0000
1000
0100
0010
0000
,
0001
0100
0001
0000
1000
0010
0100
0000
,
1002
1003
0040
0000
,
0130
0000
0001
0000
0000
0000
0000
0001
0000
1000
0000
0010
0000
0000
0000
1000
,
0000
0000
0010
0000
0000
0000
0000
0010
0000
1000
0000
0100
0000
0000
0000
0010
,
0000
0000
0001
0000
0000
0000
0000
0001
0000
0100
0000
0010
0000
0000
0000
1000
,
0000
0000
0100
0000
0000
0000
0000
0100
0000
0010
0000
0001
0000
0000
0000
1000
,
0000
0000
0010
0000
0000
0000
0000
0010
0000
0100
0000
0010
0000
0000
0000
1000
,
0000
0000
0001
0000
0000
0000
0000
0001
0000
1000
0000
0001
0000
0000
0000
0010
,
0000
0000
0100
0000
0000
0000
0000
0100
0000
1000
0000
0100
0000
0000
0000
1000
,
0000
0000
0010
0000
0000
0000
0000
0100
0000
0001
0000
0100
0000
0000
0000
0000
,
0002
0000
0013
0000
0100
1000
0100
0000
,
2000
0000
3001
0000
0100
0001
0020
0000
,
0130
0000
0010
0000
0001
2000
3000
0000
,
0010
0100
0010
0100
0000
0000
0001
1000
0001
0000
0000
0000
,
0020
0000
0130
0000
0010
0001
1000
0000
,
0200
0000
1300
0000
0010
0100
0002
0000
,
0023
0000
0031
0000
1000
0010
1000
0000
,
0100
0010
0100
0000
0100
0000
0100
0000
,
2200
0000
0000
3300
0000
0000
0000
0000
0000
0000
0000
0000
0000
0000
0000
0000
,
0202
0000
0000
0303
0000
0000
0000
0000
0000
0000
0000
0000
0000
0000
0000
0000
,
2002
0000
0000
3003
0000
0000
0000
0000
0000
0000
0000
0000
0000
0000
0000
0000
,
0220
0000
0000
0330
0000
0000
0000
0000
0002
0000
0000
0000
0003
0100
0000
0000
,
2020
0000
0000
3030
0000
0000
0000
1000
0000
0000
0000
1000
0000
0000
0000
0000
,
0022
0000
0000
0033
0000
0000
0000
0001
0000
0000
0000
0001
0000
0000
0000
0000
,
0202
0000
0000
0303
0000
0000
0000
1000
0000
0000
0000
1000
0000
0000
0000
0000
,
2002
0000
0000
3003
0000
0000
0000
0000
0020
0000
0000
0030
0000
0100
0000
0000
,
2002
0000
0000
3003
0000
0000
0000
0000
2200
0000
0000
3300
0000
0000
0000
0000
,
0022
0000
0000
0033
0000
0000
0000
0000
2002
0000
0000
3003
0000
0000
0000
0000
,
0001
0000
0000
0001
0000
0000
1000
0000
0000
1000
0000
0000
0001
0000
0010
0000
,
0100
0000
0000
0100
0000
0000
0010
0000
0000
0010
0000
0000
0001
0000
0100
0000
,
0020
0000
0000
0000
0000
0000
0000
0030
,
2000
0000
3100
0000
0010
0001
0100
0020
,
0000
0030
1001
0000
1000
0200
0000
0300
,
0110
0000
0002
0003
0100
0010
0000
1000
,
0002
0000
0023
0000
0230
2300
0000
0000
,
3001
0000
0100
0000
0010
0100
0001
0200
,
0000
0300
0101
0000
0001
0020
0000
0030
,
0110
0000
0200
0300
0010
0001
0000
0001
,
1000
0100
1000
0100
0000
0000
0010
0001
0010
0001
0000
0000
,
1000
0010
1000
0010
0100
0001
0100
0001
,
0010
0100
0010
0100
1000
0100
1000
0100
,
0010
0001
1000
0010
0100
0001
0010
0100
,
2000
0000
3020
0000
0230
0302
0000
0000
,
0013
0100
1000
0100
1000
0010
0100
0001
,
0010
0001
0010
0001
0100
0010
1000
0001
,
0100
0010
0100
0010
1000
0100
0010
0001
,
0100
0010
0100
0010
0000
0000
1000
0001
1000
0001
0000
0000
,
1000
0100
0010
0001
1000
0100
0010
0100
,
1000
0010
0100
0010
0100
0001
1000
0010
,
1000
0100
0010
0100
0010
0001
0100
0001
,
2000
0000
3200
0000
0320
0032
0000
0000
,
0103
0010
0100
0001
0100
0010
1000
0010
,
1000
0100
1000
0001
1000
0100
0010
0001
,
1000
0001
1000
0001
0100
0010
0100
0001
,
1000
0010
1000
0010
0000
0000
1000
0100
1000
0100
0000
0000
,
1000
0001
1000
0001
0000
0000
0100
0001
1000
0010
0000
0000
,
1000
0100
0010
0001
0000
0000
1000
0010
0100
0001
1000
0010
,
0200
0000
0301
0000
0010
0100
0010
0000
,
0001
1000
0010
0000
1000
0100
1000
0000
,
0001
0010
0100
0000
0010
0001
1000
0000
,
0010
0100
0010
0000
4000
0000
0000
0000
,
3001
0000
0000
0000
;

//---------------dance-single - Blank----------------
#NOTES:
     dance-single:
     Blank:
     Easy:
     3:
     0.306,0.407,0.038,0.440,0.061:
0000
0000
0000
0000
,
0000
0000
0000
0000
,
0000
0000
0000
0000
,
0000
0000
0000
0000
,
0001
0010
0100
1000
,
0100
0000
1000
0000
0001
1000
0001
0000
,
0100
0001
1000
0010
,
1000
0100
0010
0000
,
0220
0000
0000
0000
,
0330
0000
0000
0000
0000
0000
0000
0000
0000
0000
0000
0000
0000
0000
0000
1000
,
0000
0000
0000
0000
0000
0000
0000
0001
0000
0000
0000
0000
0000
0000
0000
1000
,
0000
0000
0000
0000
0000
0000
0000
0010
0000
0000
0000
0000
0000
0000
0000
1000
,
0000
0000
0000
0000
0000
0000
0000
0100
0000
0000
0000
0000
0000
0000
0000
0010
,
0000
0000
0000
0000
0000
0000
0000
0001
0000
0000
0000
0000
0000
0000
0000
0100
,
0000
0000
0000
0000
0000
0000
0000
0010
0000
0000
0000
0000
0000
0000
0000
0100
,
0000
0000
0000
0000
0000
0000
0000
0001
0000
0000
0000
0000
0000
0000
0000
0000
,
0010
0000
0100
0000
1000
0100
1000
0000
,
0001
0000
0100
0000
0010
0100
0010
0000
,
1000
0001
0001
0001
,
0020
0000
0000
0000
0230
0000
0000
0300
,
1000
0000
0100
0000
1000
0010
1000
0000
,
0001
0000
0100
0000
0010
1000
0010
0000
,
1000
0100
0100
0100
,
0020
0000
0030
0000
,
0022
0000
0000
0033
0000
0000
0000
0000
0000
0000
0000
0000
0000
0000
0000
0000
,
2002
0000
0000
3003
0000
0000
0000
0000
0000
0000
0000
0000
0000
0000
0000
0000
,
0220
0000
0000
0330
0000
0000
0000
0000
0000
0000
0000
0000
0000
0000
0000
0000
,
2002
0000
0000
3003
0000
0000
0000
0000
0002
0000
0000
0003
0000
0000
0000
0000
,
1000
1000
1000
1000
,
0010
0010
0010
0010
,
0100
0100
0100
0100
,
0010
0010
1000
1000
,
0002
1003
0020
1030
,
0002
1003
0002
0103
,
0010
0000
0000
0010
0000
0000
0010
0000
0000
0010
0000
0000
0010
0000
0000
0000
,
1000
0000
0000
1000
0000
0000
1000
0000
0000
1000
0000
0000
1000
0000
0000
0000
,
0200
0000
0000
0000
0000
0000
0000
0300
,
2000
0000
3001
0000
0100
0010
0000
2000
,
0000
3000
0100
0000
0010
0002
0000
0003
,
0100
0000
0100
0000
0010
1000
0000
0000
,
0002
0023
0032
0000
,
2003
0000
3010
0000
0100
0001
0000
0020
,
0000
0030
0100
0000
0010
0002
0000
0003
,
1000
0000
1000
0000
0010
0100
0000
0000
,
0002
0023
0230
2300
,
3100
0100
0010
0010
,
0001
1000
0001
1000
,
0010
0010
0100
0100
,
0002
0023
0230
2300
,
3100
0100
0010
0010
,
0001
0100
0010
0100
,
0001
0001
1000
1000
,
0200
0320
0230
2300
,
3010
0100
0010
1000
,
0001
0010
0100
0010
,
0001
0100
0010
1000
,
0200
0320
0032
0023
,
0130
1000
0100
1000
,
0001
0100
0001
0100
,
0010
1000
0001
0100
,
0002
0023
0230
2300
,
3020
0230
0320
0230
,
0302
0203
2300
3200
,
0302
0000
0000
0003
0100
0000
0000
0000
0010
0000
0000
0000
1000
0000
0000
0000
,
0100
1000
0100
0010
,
0001
1000
0001
1000
,
0010
0100
0002
0000
,
0013
0000
0000
0000
;
