#TITLE:46 12 25;
#SUBTITLE:;
#ARTIST:幡谷尚史;
#TITLETRANSLIT:;
#SUBTITLETRANSLIT:;
#ARTISTTRANSLIT:Naofumi Hataya;
#GENRE:;
#CREDIT:;
#BANNER:46 12 25-banner.png;
#BACKGROUND:46 12 25-bg.png;
#LYRICSPATH:;
#CDTITLE:;
#MUSIC:46 12 25.ogg;
#OFFSET:-0.351773;
#SAMPLESTART:6.680000;
#SAMPLELENGTH:12.000000;
#SELECTABLE:YES;
#BPMS:0.000000=114.000000
;
#STOPS:
;
#BGCHANGES:;
#KEYSOUNDS:;
#ATTACKS:;

//---------------dance-single - ----------------
#NOTES:
     dance-single:
     :
     Beginner:
     1:
     0.101380,0.089280,0.011446,0.000000,0.000000,61.000000,1.000000,0.000000,0.000000,0.000000,0.000000,0.101380,0.089280,0.011446,0.000000,0.000000,61.000000,1.000000,0.000000,0.000000,0.000000,0.000000:
0000
0000
0000
0000
,
0000
0000
0000
0000
,
0000
0000
0000
0000
,
1000
0000
1000
0000
,
0001
0000
0001
0000
,
0100
0000
0100
0000
,
0010
0000
0010
0000
,
1000
0000
0000
0000
,
0100
0000
0000
0000
,
0010
0000
0000
0000
,
0001
0000
0000
0000
,
0100
0000
0000
0000
,
0010
0000
0000
0000
,
1000
0000
0000
0000
,
0001
0000
0000
0000
,
1000
1000
0000
0000
,
0001
0000
0001
0000
,
0100
0000
0100
0000
,
0010
0000
0010
0000
,
1000
1000
0000
0000
,
0100
0000
0100
0000
,
0010
0000
0010
0000
,
0001
0000
0001
0000
,
0100
0100
0000
0000
,
0010
0000
0010
0000
,
1000
0000
1000
0000
,
0001
0000
0001
0000
,
0010
0010
0000
0000
,
0100
0000
0100
0000
,
1000
0000
1000
0000
,
0001
0000
0001
0000
,
0100
0100
0000
0000
,
0010
0000
0010
0000
,
1000
0000
1000
0000
,
0001
0000
0001
0000
,
0010
0000
0000
0000
,
0100
0000
0000
0000
,
1000
0000
0000
0000
,
0001
0000
0000
0000
,
1001
0000
0000
0000
;

//---------------dance-single - ----------------
#NOTES:
     dance-single:
     :
     Easy:
     3:
     0.171692,0.178559,0.011446,0.000000,0.000000,104.000000,1.000000,0.000000,0.000000,0.000000,0.000000,0.171692,0.178559,0.011446,0.000000,0.000000,104.000000,1.000000,0.000000,0.000000,0.000000,0.000000:
0000
0000
0000
0000
,
0000
0000
0000
0000
,
0000
0000
0000
0000
,
1000
1000
1000
0000
,
0001
0001
0001
0000
,
0100
0100
0100
0000
,
0010
0010
0010
0000
,
1000
0000
1000
0000
,
0100
0000
0010
0000
,
0001
0000
0001
0000
,
0100
0000
0010
0000
,
1000
0000
1000
0000
,
0001
0000
0001
0000
,
0100
0000
0100
0000
,
0010
0000
0010
0000
,
1000
0100
0000
0010
,
0001
0100
0010
0000
,
1000
0100
0010
0000
,
0001
0100
0010
0000
,
1000
1000
0000
0001
,
0010
0100
1000
1000
,
0001
0000
0100
0000
,
0001
0000
1000
0000
,
0010
0010
0000
1000
,
0100
1000
0010
0100
,
0001
0001
1000
1000
,
0001
0001
1000
1000
,
0001
0010
0000
0100
,
1000
0010
0100
0100
,
0001
1000
0001
0001
,
1000
0001
1000
1000
,
0001
0010
0000
0100
,
1000
0010
0100
0001
,
1000
1000
0100
0100
,
0010
0010
0001
0001
,
0100
0000
0100
0000
,
0010
0000
0010
0000
,
1000
0000
1000
0000
,
0001
0000
0000
0000
,
1001
0000
0000
0000
;

//---------------dance-single - ----------------
#NOTES:
     dance-single:
     :
     Medium:
     4:
     0.248544,0.267839,0.057231,0.068677,0.000000,141.000000,5.000000,6.000000,0.000000,0.000000,0.000000,0.248544,0.267839,0.057231,0.068677,0.000000,141.000000,5.000000,6.000000,0.000000,0.000000,0.000000:
0000
0000
0000
0000
,
0000
0000
0000
0000
,
0000
0000
0000
0000
,
1000
0001
1000
0000
1000
0000
0000
0000
,
0001
1000
0001
0000
0001
0000
0000
0000
,
1000
0010
1000
0000
0010
0000
0000
0000
,
0100
0001
0100
0000
0001
0000
0000
0000
,
1000
1000
0100
0000
,
0010
0010
0001
0000
,
0100
0100
0010
0000
,
1000
1000
0001
0000
,
0010
0100
0010
0000
,
0100
1000
0100
0000
,
0010
0001
0100
0000
,
0010
1000
0100
0000
,
1000
0001
1000
0000
0000
0001
0001
0000
,
0100
0000
0100
0000
0010
1000
0010
0000
,
0100
0000
0100
0000
0001
1000
0001
0000
,
0010
0000
0010
0000
0100
1000
0100
0000
,
0010
0002
0003
0100
,
0010
0000
1000
0000
0100
0100
0100
0000
,
1000
0010
0100
0100
,
0001
0010
0100
0100
,
1000
0020
0030
0100
,
0001
0000
0010
0000
0100
0100
0100
0000
,
1000
0010
0100
0001
,
0010
0100
1000
0001
,
0100
0200
0300
0010
,
1000
0000
0100
0000
0010
0010
0010
0000
,
0001
0100
0001
1000
,
0100
1000
0001
0010
,
0001
0002
0003
1000
,
0010
0000
0100
0000
0001
0001
0001
0000
,
0010
0100
1000
0100
,
0010
0001
0100
0010
,
1000
0000
1100
0000
0001
0001
0001
0000
,
0100
0000
1010
0000
1000
1000
1000
0000
,
0100
0000
1001
0000
0010
0010
0010
0000
,
2002
0000
0000
3003
,
0110
0000
0000
0000
;

//---------------dance-single - ----------------
#NOTES:
     dance-single:
     :
     Hard:
     6:
     0.351559,0.312479,0.263260,0.080123,0.080123,185.000000,23.000000,7.000000,0.000000,0.000000,0.000000,0.351559,0.312479,0.263260,0.080123,0.080123,185.000000,23.000000,7.000000,0.000000,0.000000,0.000000:
0000
0000
0000
0000
,
0000
0000
0000
0000
,
0000
0000
0000
0000
,
1000
0100
1010
0000
0010
0100
0001
0000
,
0010
0001
0101
0000
0001
1000
0100
0000
,
0010
0100
1100
0000
1000
0010
0100
0000
,
0001
0010
0011
0000
0001
1000
0100
0000
,
1000
0100
1000
0000
1010
0000
0000
0000
,
0001
0100
0001
0000
0011
0000
0000
0000
,
0100
0010
0100
0000
0110
0000
0000
0000
,
0010
1000
0010
0000
1010
0000
0000
0000
,
1000
0100
0010
0000
0110
0000
0000
0000
,
0010
0001
0100
0000
0101
0000
0000
0000
,
0100
0010
1000
0000
1010
0000
0000
0000
,
1000
0001
0100
0000
0101
0000
0000
0000
,
0100
0010
0200
0000
0000
0310
0010
0000
,
0010
1000
1100
0000
0100
0010
0001
0000
,
0100
0001
0101
0000
0001
0010
0100
0000
,
0100
1000
1010
0000
0010
0100
0001
0000
,
1000
0000
0000
2000
0000
0000
0000
0000
0000
0000
0000
0000
0000
0000
3100
0000
,
0010
0000
0000
0100
0000
0000
1000
0000
0100
0000
1000
0000
0010
0000
0000
0000
,
0100
0001
0010
0000
0010
0001
0100
0000
,
0100
0001
1000
0000
1000
0100
0010
0000
,
0001
0000
0000
0002
0000
0000
0000
0000
0000
0000
0000
0000
0000
0000
0103
0000
,
0010
0000
0000
0001
0000
0000
0010
0000
0100
0000
0001
0000
0010
0000
0000
0000
,
0100
0100
1000
1000
0100
0100
0010
0010
,
0001
0001
0100
0100
0001
0001
0001
0000
,
0010
0000
0000
0020
0000
0000
0000
0000
0000
0000
0000
0000
0000
0000
0130
0000
,
1000
0000
0000
0010
0000
0000
0100
0000
0001
0000
0010
0000
0100
0000
0000
0000
,
1000
0001
1000
0100
1000
0001
0010
0000
,
0001
0100
0010
0100
0001
1000
0100
0000
,
1000
0000
0000
2000
0000
0000
0000
0000
0000
0000
0000
0000
0000
0000
3001
0000
,
0100
0000
0000
0010
0000
0000
0100
0000
0001
0000
0010
0000
0100
0000
0000
0000
,
1000
1000
1000
0000
0001
0001
0001
0000
,
0100
0100
0000
0010
0010
0100
0001
0000
,
0010
0000
0000
0000
1100
0000
0000
0001
0000
0001
0000
0000
1100
0000
0000
0000
,
0010
0000
0000
0000
0101
0000
0000
1000
0000
1000
0000
0000
0101
0000
0000
0000
,
0010
0000
0000
0000
1001
0000
0000
0100
0000
0100
0000
0000
1001
0000
0000
0000
,
0220
0000
0000
0330
,
1001
0000
0000
0000
;

//---------------dance-single - ----------------
#NOTES:
     dance-single:
     :
     Challenge:
     9:
     0.560859,0.568728,0.217476,0.148799,0.566582,311.000000,19.000000,13.000000,0.000000,0.000000,0.000000,0.560859,0.568728,0.217476,0.148799,0.566582,311.000000,19.000000,13.000000,0.000000,0.000000,0.000000:
0000
0000
0000
0000
,
0000
0000
0000
0000
,
0000
0000
0000
0000
,
1000
0000
0100
0000
0010
0000
0001
0100
0000
0100
0010
0000
1001
0000
0000
0000
,
1000
0000
0010
0000
0100
0000
0001
0010
0000
0010
0100
0000
1001
0000
0000
0000
,
1000
0000
0100
0000
0010
0000
0001
0100
0000
0100
0010
0000
1010
0000
0000
0000
,
0010
0000
1000
0000
0100
0000
0010
0001
0000
0001
0100
0000
0101
0000
0000
0000
,
0001
0000
1000
0000
0100
0000
1000
0000
0001
0001
0000
0000
1000
0000
0000
0000
,
0010
0000
0100
0000
0001
0000
0010
0000
0100
0100
0000
0000
1000
0000
0000
0000
,
0010
0000
0100
0000
0010
0000
1000
0000
0001
0001
0000
0000
0100
0000
0000
0000
,
0010
0000
1000
0000
0100
0000
1000
0000
0010
0010
0000
0000
0100
0000
0000
0000
,
0001
0000
0010
0000
0100
0000
1000
0000
0001
0100
0000
0000
0010
0000
0000
0000
,
1000
0000
0010
0000
0100
0000
0001
0000
0010
0100
0000
0000
1000
0000
0000
0000
,
0001
0000
1000
0000
0100
0000
1000
0000
0001
0010
0000
0000
0001
0000
0000
0000
,
1000
0000
0010
0000
0100
0000
0001
0000
0010
0100
0000
0000
1000
0000
0000
0000
,
0001
1000
0001
1000
0002
0000
0000
0000
0000
0000
0100
0000
0103
0000
0000
0000
,
0010
0000
1000
0000
0100
0000
0010
0001
0000
0001
0100
0000
0101
0000
0000
0000
,
0001
0000
0010
0000
0100
0000
1000
0010
0000
0010
0100
0000
0110
0000
0000
0000
,
0100
0000
0001
0000
0010
0000
0100
1000
0000
1000
0100
0000
1100
0000
0000
0000
,
1000
0010
1000
0020
0000
0000
0000
0000
0000
0000
0000
0000
0000
0130
0001
0100
,
0010
1000
0100
0010
0000
0010
0100
1000
0010
0000
1010
0000
0101
0000
0000
0000
,
0001
0000
0010
0000
0001
0010
0100
1000
0000
1000
0000
0001
0100
0010
1000
0000
,
0010
0100
0000
0100
0000
0001
0000
0001
1000
0000
0001
0000
0001
0000
0000
0000
,
0100
0010
1000
0002
0000
0000
0000
0000
0000
0000
0000
0000
0000
0013
0100
1000
,
0010
0100
0001
1000
0000
1000
0001
0100
0010
0000
0110
0000
1010
0000
0000
0000
,
0020
1000
2030
0100
3200
0010
0320
0001
,
0032
0100
0203
0010
0310
0000
1001
0000
,
1000
0100
0010
0200
0000
0000
0000
0000
0000
0000
0000
0000
0000
1300
0010
0100
,
0001
0010
0100
1000
0000
1000
0001
0100
0010
0000
0011
0000
1100
0000
0000
0000
,
0000
0001
0010
0100
1000
0010
0100
0001
0010
0100
1000
0000
1000
0100
1000
0000
,
0100
0010
0100
0010
0100
1000
0001
0100
0010
0000
1000
0000
0001
0000
0000
0000
,
1000
0010
0100
0002
0000
0000
0000
0000
0000
0000
0000
0000
0000
0013
0100
1000
,
0001
0100
0010
1000
0000
1000
0100
0010
0001
0000
0101
0000
1010
0000
0000
0000
,
0010
1000
0010
1000
0000
0000
0100
0000
0000
0100
0000
0000
0010
0000
0001
0010
0000
0000
0100
0000
0000
0100
0000
0000
,
1000
0000
0001
1000
0000
0000
0001
0000
0000
0001
0000
0000
0100
0000
0000
0010
0000
0000
1000
0000
0000
0000
0000
0000
,
0010
1000
0100
1000
0010
0000
0100
0001
0000
0001
0010
0000
0100
0000
0010
0100
,
1000
0010
0100
0010
1000
0000
0010
1000
0000
1000
0100
0000
0011
0000
0000
0000
,
0001
0100
0010
1000
0100
0000
1000
0010
0000
0010
0100
0000
0101
0000
0001
0010
,
0100
1000
0100
0001
0100
1000
0001
0100
1000
0100
0001
1000
0001
0000
0000
0000
,
2002
0000
0000
3003
;
