#VERSION:0.81;
#TITLE:Sakura Luminance;
#SUBTITLE:(桜龍 Remix);
#ARTIST:Ryu☆;
#TITLETRANSLIT:;
#SUBTITLETRANSLIT:(Sakuraryuu Remix);
#ARTISTTRANSLIT:Ryu*;
#GENRE:;
#ORIGIN:;
#CREDIT:vincentw;
#BANNER:[Simfile Shuffle] - Sakura Luminance (Sakuraryuu Remix).png;
#BACKGROUND:[Simfile Shuffle] - Sakura Luminance (Sakuraryuu Remix)-bg.png;
#PREVIEWVID:;
#JACKET:[Simfile Shuffle] - Sakura Luminance (Sakuraryuu Remix)-jacket.png;
#CDIMAGE:;
#DISCIMAGE:;
#LYRICSPATH:;
#CDTITLE:cdtitle.png;
#MUSIC:[Simfile Shuffle] - Sakura Luminance (Sakuraryuu Remix).ogg;
#OFFSET:0.000000;
#SAMPLESTART:83.874207;
#SAMPLELENGTH:10.052353;
#SELECTABLE:YES;
#BPMS:0.000=191.000;
#STOPS:265.979=0.314;
#DELAYS:;
#WARPS:;
#TIMESIGNATURES:0.000=4=4,
264.000=3=4,
267.000=4=4;
#TICKCOUNTS:0.000=4;
#COMBOS:0.000=1;
#SPEEDS:0.000=1.000=0.000=0;
#SCROLLS:0.000=1.000,
39.250=0.750,
39.500=0.500,
39.750=0.250,
40.000=1.000,
264.250=0.875,
264.500=0.750,
264.750=0.625,
265.000=0.500,
265.250=0.375,
265.500=0.250,
265.750=0.125,
266.000=1.000,
266.250=0.750,
266.500=0.500,
266.750=0.250,
267.000=1.000;
#FAKES:;
#LABELS:0.000=Song Start;
#BGCHANGES:0.000=[Simfile Shuffle] - Sakura Luminance (Sakuraryuu Remix)-bg.png=1.000=0=0=1=====,
99999=-nosongbg-=1.000=0=0=0 // don't automatically add -songbackground-
;
#KEYSOUNDS:;
#ATTACKS:
;

//---------------dance-single - ----------------
#NOTEDATA:;
#CHARTNAME:;
#STEPSTYPE:dance-single;
#DESCRIPTION:;
#CHARTSTYLE:;
#DIFFICULTY:Beginner;
#METER:2;
#RADARVALUES:0.167728,0.233251,0.017925,0.107551,0.000000,117.000000,2.000000,12.000000,0.000000,0.000000,0.000000,0.000000,0.000000,0.167728,0.233251,0.017925,0.107551,0.000000,117.000000,2.000000,12.000000,0.000000,0.000000,0.000000,0.000000,0.000000;
#CREDIT:;
#NOTES:
0000
0000
0000
0000
,
0000
0000
0000
0000
,
0000
0000
0000
0000
,
0000
0000
0000
0000
,
0000
0000
0000
0000
,
0000
0000
0000
0000
,
0000
0000
0000
0000
,
0000
0000
0000
0000
,
0000
0000
0000
0000
,
0000
0000
0000
0000
,
1000
0000
0000
0000
,
0001
0000
0000
0000
,
1000
0000
1000
0000
,
0001
0000
0000
0000
,
0100
0000
0000
0000
,
0010
0000
0000
0000
,
0100
0000
0100
0000
,
0000
0000
0000
0110
,
0000
0001
0000
0001
,
0000
1000
0000
1000
,
0000
0001
0000
1000
,
0000
0001
0000
0001
,
0000
0100
0000
0100
,
0000
0010
0000
0010
,
0000
0100
0000
0010
,
0000
0100
0100
0000
,
0001
0000
0001
0000
,
0010
0000
0010
0000
,
0100
0000
0100
0000
,
1000
0000
1000
0000
,
0001
0000
0001
0000
,
0200
0000
0300
0000
,
0010
0000
0010
0000
,
2000
0000
3000
0000
,
0010
0000
0010
0000
,
0010
0000
0000
0000
,
1000
0000
1000
0000
,
1000
0000
0000
0000
,
0001
0000
0001
0000
,
0001
0000
0000
0000
,
0100
0000
0100
0000
,
0000
0100
0100
0000
,
0001
0000
0000
0000
,
0100
0000
0000
0000
,
0001
0000
0100
0000
,
0001
0000
0000
0000
,
1000
0000
0000
0000
,
0010
0000
0000
0000
,
1000
0000
0010
0000
,
1000
0000
0000
0000
,
0020
0000
0000
0030
,
2000
0000
0000
3000
,
0100
0000
0100
0000
,
0200
0000
0000
0300
,
0020
0000
0000
0030
,
0002
0000
0000
0003
,
0100
0000
0100
0000
,
0200
0000
0000
0300
,
0001
0000
0001
0000
,
1000
0000
1000
0000
,
0100
0000
0100
0000
,
0200
0000
0300
0000
,
1000
0000
1000
0000
,
0001
0000
0001
0000
,
0010
0000
0010
0000
,
0020
0000
0000
0000
,
0030
0000
0000
0000
,
0001
0000
0001
0000
,
1000
0000
1000
0000
,
0010
0000
0010
0000
,
0100
0100
0000
0010
,
0000
0010
0000
1000
,
0000
1000
0000
0100
,
0000
1000
0000
0000
,
0010
0010
0000
0100
,
0000
0000
0001
0000
,
0000
0100
0000
0001
,
0000
0000
0010
0000
,
0000
0001
0000
1000
,
0000
0000
0010
0000
,
0000
1000
0000
0100
,
0000
0000
1000
0000
,
0001
0001
0000
2002
,
0000
0000
0000
0000
,
0000
0000
0000
0000
,
0000
0000
0000
0000
,
0000
0000
0000
3003
;

//---------------dance-single - ----------------
#NOTEDATA:;
#CHARTNAME:;
#STEPSTYPE:dance-single;
#DESCRIPTION:;
#CHARTSTYLE:;
#DIFFICULTY:Easy;
#METER:5;
#RADARVALUES:0.311130,0.349877,0.152364,0.125476,0.000000,212.000000,17.000000,14.000000,0.000000,0.000000,0.000000,0.000000,0.000000,0.311130,0.349877,0.152364,0.125476,0.000000,212.000000,17.000000,14.000000,0.000000,0.000000,0.000000,0.000000,0.000000;
#CREDIT:;
#NOTES:
0000
0000
0000
0000
,
0000
0000
0000
0000
,
0000
0000
0000
0000
,
0000
0000
0000
0000
,
0000
0000
0000
0000
,
0000
0000
0000
0000
,
0000
0000
0000
0000
,
0000
0000
0000
0000
,
0000
0000
0000
0000
,
0000
0000
0000
0000
,
1000
0000
0001
0000
,
1000
0001
1000
0001
,
0100
0000
0010
0000
,
0100
0010
0100
0000
,
0001
0000
0010
0000
,
0001
0010
0100
1000
,
0010
0000
1000
0000
,
0000
0001
0100
0101
,
0000
1001
0000
1001
,
0000
0110
0000
0110
,
0000
1010
0000
1010
,
0000
0101
0000
0101
,
0000
1100
0000
1100
,
0000
0011
0000
0011
,
0000
1001
0000
0110
,
0000
0100
0010
0000
,
1000
0000
0001
1000
,
0001
0001
0001
0000
,
0010
0000
0100
0010
,
0100
0100
0010
0000
,
0001
0000
1000
0001
,
1000
1000
1000
0000
,
0010
0000
0100
0010
,
0100
0100
0100
0000
,
0001
0010
0001
0000
,
1000
0100
1000
0000
,
0010
1000
0010
0000
,
0100
0001
0100
0000
,
0001
0010
0100
0010
,
0001
1000
0100
0000
,
1000
0010
0100
0010
,
1000
0001
0100
0000
,
0002
0000
0000
0000
,
0200
0000
0000
0003
,
0320
0000
2030
0000
,
3002
0000
0000
0000
,
2003
0000
0000
0000
,
0020
0000
0000
3000
,
0230
0000
0302
0000
,
2003
0100
0000
3001
,
0001
0000
1000
0000
,
0001
1000
0001
1000
,
0010
0000
0100
0000
,
0010
0100
0010
0000
,
1000
0000
0010
0000
,
1000
0010
0100
0001
,
0100
0000
0001
0000
,
1000
0010
1000
0000
,
0001
0001
1000
1000
,
0001
1000
0001
0000
,
0010
0010
0100
0100
,
0010
0100
0010
0000
,
0100
0100
1000
1000
,
0001
0010
0001
0000
,
1000
1000
0010
0010
,
0100
0001
0100
0000
,
0001
1000
1001
0001
,
0010
0100
1000
0001
,
0010
0100
0010
0001
,
0100
0010
1000
0001
,
0100
0010
0000
1000
,
0010
0100
0001
1000
,
0010
0100
0010
1000
,
0100
0010
0001
1000
,
0100
0010
0000
0001
,
0001
0100
0001
0001
,
0100
0001
0001
1000
,
1000
0010
2000
3000
,
1000
0010
0000
1000
,
1000
0100
1000
1000
,
0100
1000
1000
0001
,
0001
0010
0002
0003
,
0001
1000
0000
2002
,
0000
0000
0000
0000
,
0000
0000
0000
0000
,
0000
0000
0000
0000
,
0000
0000
0000
3003
;

//---------------dance-single - ----------------
#NOTEDATA:;
#CHARTNAME:;
#STEPSTYPE:dance-single;
#DESCRIPTION:;
#CHARTSTYLE:;
#DIFFICULTY:Medium;
#METER:7;
#RADARVALUES:0.507026,0.544253,0.224065,0.026888,0.017925,368.000000,25.000000,3.000000,0.000000,0.000000,0.000000,0.000000,0.000000,0.507026,0.544253,0.224065,0.026888,0.017925,368.000000,25.000000,3.000000,0.000000,0.000000,0.000000,0.000000,0.000000;
#CREDIT:;
#NOTES:
0000
0000
0000
0000
,
0000
0000
0000
0000
,
0000
0000
0000
0000
,
0000
0000
0000
0000
,
0000
0000
0000
0000
,
0001
0010
0100
0010
,
0001
1000
0100
0000
,
1000
0010
0100
0010
,
1000
0001
0100
0000
,
0001
1000
0000
1001
,
0001
0000
1000
0000
0100
0000
1000
0100
,
0000
1000
0001
0000
0010
0000
0001
0000
,
0100
0000
0010
0000
0100
0000
0001
0100
,
0000
0010
0100
0000
0001
0000
0000
0000
,
1000
0000
0001
0000
0010
0000
0001
0010
,
0000
0001
1000
0000
0100
0000
1000
0000
,
0010
0000
0100
0000
0010
0000
1000
0010
,
0000
0100
0010
0100
0001
0000
0101
0000
,
0010
0110
0100
0110
,
1000
1001
0001
1001
,
0010
0011
0001
0011
,
1000
1100
0100
1100
,
1000
1010
0010
1010
,
0100
0101
0001
0101
,
0100
0110
0001
1001
,
0000
0001
1000
0001
1000
0000
1001
0000
,
0000
0001
0000
0001
0000
1000
0000
1000
,
0000
0100
0000
0100
0000
0010
0000
0010
,
0000
0001
0000
0001
0000
0100
0000
0100
,
0000
1000
0000
1000
0000
0100
0000
0100
,
0000
0010
0000
0010
0000
1000
0000
1000
,
0000
0100
0000
0100
0000
0010
0000
0010
,
0000
0001
0000
0001
0000
0100
0000
0100
,
0000
0001
0100
0010
1000
0000
1001
0000
,
0001
0000
1000
0000
0001
1000
0000
0010
,
0100
0100
0100
0000
,
0001
0000
0100
0000
0001
0100
0000
0010
,
1000
1000
1000
0000
,
0100
0000
1000
0000
0100
1000
0000
0001
,
0010
0010
0010
0000
,
0001
0000
0010
0000
0100
1000
0000
0001
,
0100
0010
1000
0000
,
1000
0000
0000
0000
0010
0000
0000
0000
0100
0000
0000
0001
0000
0000
0000
0000
,
1000
0100
0001
0100
,
1000
0000
0000
0000
0100
0000
0000
0000
0010
0000
0000
0001
0000
0000
0000
0000
,
1000
0010
0001
0010
,
0100
0000
0000
0000
0001
0000
0000
0000
1000
0000
0000
0010
0000
0000
0000
0000
,
0100
0001
0010
1000
,
0100
0000
0000
0000
0010
0000
0000
0000
1000
0000
0000
0001
0000
0000
0000
0000
,
0010
0001
0010
0000
0100
0000
0110
0000
,
0010
0000
0001
0000
0010
1000
0010
0000
,
0100
0000
1000
0000
0100
0001
0100
0000
,
1000
0000
0010
0000
0001
0010
1000
0000
,
0001
0100
1000
0100
0001
0000
0000
0000
,
0001
0000
0010
0000
0001
0100
0001
0000
,
1000
0000
0100
0000
1000
0010
1000
0000
,
0100
1000
0001
0000
0010
0001
0100
0000
,
0010
1000
0100
1000
0010
0000
0000
0000
,
1000
0100
0010
0001
,
1000
0100
0010
0100
,
1000
0010
0100
0001
,
1000
0000
0010
0000
0100
0000
0010
0100
,
0001
0000
0100
0001
0010
0000
0100
1000
,
0001
0000
0100
0010
0100
0000
0001
0010
,
0001
0000
1000
0010
0001
0000
1000
0100
,
0001
1000
0100
0010
0002
0000
0000
0000
,
1003
0010
0100
0000
0110
0000
0001
0000
,
0010
0001
0010
0000
0100
0010
0100
0000
,
1000
0100
1000
0000
0001
1000
0001
0000
,
0100
0010
0100
0000
0001
1000
0001
0100
,
0010
1000
0001
0000
1001
0000
1000
0000
,
0100
0001
0100
0000
1000
0010
1000
0000
,
0001
0010
1000
0010
0001
0000
1000
0000
,
0001
0010
1000
0000
0010
0001
1000
0100
,
0001
0100
1000
0000
1100
0000
1000
0100
,
1000
0100
1000
0000
0001
0100
0001
0100
,
0001
0000
1000
0010
1000
0000
0001
0010
,
0001
0010
0001
0000
0011
0000
0000
0010
,
0100
1000
0001
0000
1001
0000
1000
0010
,
1000
0100
0001
0000
0100
0010
0100
1000
,
0001
0000
0100
0010
0100
0001
0100
0010
,
0100
0001
1000
0010
0001
0000
0000
0010
,
0100
0001
1000
0000
0001
0000
2002
0000
,
0000
0000
0000
0000
,
0000
0000
0000
0000
,
0000
0000
0000
0000
,
0000
0000
0000
3003
;

//---------------dance-single - ----------------
#NOTEDATA:;
#CHARTNAME:;
#STEPSTYPE:dance-single;
#DESCRIPTION:;
#CHARTSTYLE:;
#DIFFICULTY:Hard;
#METER:10;
#RADARVALUES:0.729810,0.933005,0.385391,0.080663,0.259915,518.000000,43.000000,9.000000,0.000000,0.000000,0.000000,0.000000,0.000000,0.729810,0.933005,0.385391,0.080663,0.259915,518.000000,43.000000,9.000000,0.000000,0.000000,0.000000,0.000000,0.000000;
#CREDIT:;
#NOTES:
// measure 0
0000
0000
0000
0000
,  // measure 1
0000
0000
0000
0000
,  // measure 2
0000
0000
0000
0000
,  // measure 3
0000
0000
0000
0000
,  // measure 4
0000
0000
0000
0000
,  // measure 5
0010
0000
1000
0100
1000
0000
0010
1000
,  // measure 6
0010
0000
0100
0001
0010
0001
0100
0000
,  // measure 7
0010
0000
1000
0100
0010
0000
0001
0100
,  // measure 8
0010
1000
0100
1000
0010
0000
0000
0000
,  // measure 9
1000
0000
0010
0000
0100
0000
0000
0000
0000
0000
0000
0000
0100
0001
0000
0000
,  // measure 10
0100
0000
0101
0000
0001
1000
0001
0020
,  // measure 11
0000
1030
0001
0100
0010
0001
1000
0010
,  // measure 12
0100
0000
0110
0000
0010
0100
0010
1000
,  // measure 13
0000
0100
1000
0001
0010
0000
0011
0000
,  // measure 14
0001
0000
0101
0000
1000
0001
1000
0200
,  // measure 15
0000
0301
1000
0010
0100
1000
0001
0100
,  // measure 16
0010
0000
0110
0000
0100
0010
0100
0001
,  // measure 17
0000
0000
0010
0000
0001
0000
1000
0000
0100
0000
0000
0000
1000
0100
0000
0000
,  // measure 18
1000
0010
0001
0010
1000
0000
0001
0010
,  // measure 19
1000
0010
0001
0000
1000
0010
0001
0010
,  // measure 20
1000
0100
0001
0100
1000
0001
0200
0000
,  // measure 21
0000
1300
0001
0010
1000
0000
1010
0000
,  // measure 22
0001
0100
1000
0100
0001
0000
1000
0100
,  // measure 23
0001
0100
1000
0000
0001
0100
1000
0100
,  // measure 24
0001
0010
1000
0010
0001
1000
0020
0000
,  // measure 25
0000
1030
1000
0001
0001
0000
1001
0000
,  // measure 26
1000
0000
1001
0000
0001
0010
1000
0010
,  // measure 27
0010
0010
0010
0001
,  // measure 28
0100
0000
0110
0000
0010
1000
0100
1000
,  // measure 29
1000
0000
1000
0000
1000
0000
0010
0100
,  // measure 30
0001
0000
1001
0000
1000
0100
0001
0100
,  // measure 31
0100
0100
0100
1000
,  // measure 32
0010
0000
0110
0000
0100
0001
0010
0001
,  // measure 33
0001
0001
0001
0100
,  // measure 34
0010
1000
0010
0100
0010
0001
0010
0100
,  // measure 35
0110
1001
0110
1001
,  // measure 36
0001
0100
1000
0100
0001
0010
1000
0010
,  // measure 37
0011
1100
1010
0101
,  // measure 38
0100
0001
0100
0010
0100
1000
0100
0010
,  // measure 39
0110
1001
0110
1001
,  // measure 40
1000
0010
0001
0010
1000
0100
0001
0100
,  // measure 41
1100
0011
0101
1010
,  // measure 42
1000
0000
0010
0000
0100
0000
0001
0000
1000
0001
1000
0001
0000
0100
0000
0001
,  // measure 43
0010
0001
0100
1000
0001
0010
1000
0100
,  // measure 44
0001
0000
0100
0000
0010
0000
0001
0000
0100
0010
0000
0100
0000
0010
0000
1000
,  // measure 45
0100
0010
0001
0100
0010
1000
0100
0010
,  // measure 46
0001
0000
0100
0000
0010
0000
1000
0000
0001
1000
0001
1000
0000
0010
0000
1000
,  // measure 47
0100
1000
0010
0001
1000
0100
0001
0010
,  // measure 48
1000
0000
0010
0000
0100
0000
1000
0000
0010
0100
0000
0010
0000
0100
0000
0001
,  // measure 49
0010
0100
1000
0010
0100
0000
0110
0000
,  // measure 50
0010
0000
0000
0000
1000
0000
0001
0000
0010
0100
0000
0010
0000
0001
0000
1000
,  // measure 51
0010
0100
0001
0010
0100
1000
0010
0100
,  // measure 52
0001
0000
0000
0000
1000
0000
0010
0000
0100
0010
0000
0100
0000
0001
0000
0010
,  // measure 53
0100
1000
0010
0001
0010
0000
1010
0000
,  // measure 54
0100
0000
0000
0000
0001
0000
1000
0000
0100
0010
0000
0100
0000
1000
0000
0001
,  // measure 55
0100
0010
1000
0100
0010
0001
0100
0010
,  // measure 56
1000
0000
0000
0000
0001
0000
0100
0000
0010
0100
0000
0010
0000
1000
0000
0100
,  // measure 57
0010
0001
0100
1000
0100
0000
0101
0000
,  // measure 58
0010
0110
1000
1001
,  // measure 59
0001
0011
1000
1100
,  // measure 60
0010
1010
0100
0101
,  // measure 61
0001
0000
0110
0000
1000
0000
1001
0001
,  // measure 62
1000
0010
1000
0010
0100
0001
0100
0001
,  // measure 63
0010
0001
0010
0001
1000
0100
1000
0100
,  // measure 64
0010
0010
0001
0001
1000
1000
0100
0100
,  // measure 65
0010
0001
0010
0001
1000
0010
1000
0010
0100
0001
0100
0001
1000
0100
1000
0100
,  // measure 66
2000
0000
3001
1000
,  // measure 67
0010
0000
0100
0000
1000
0100
0000
0010
0000
1000
0000
0100
0001
0000
1000
0000
,  // measure 68
0010
0100
0001
0100
1000
0001
0100
0000
,  // measure 69
0010
0000
0001
0000
1000
0001
0000
0010
0000
0100
0000
0001
0010
0000
0001
0000
,  // measure 70
0100
1000
0100
0000
0101
0000
0001
0000
,  // measure 71
0100
0000
0010
0000
0001
0010
0000
0100
0000
0001
0000
0010
1000
0000
0001
0000
,  // measure 72
0100
0010
1000
0010
0001
1000
0010
0000
,  // measure 73
0100
0000
1000
0000
0001
1000
0000
0100
0000
0010
0000
1000
0100
0000
1000
0000
,  // measure 74
0010
0001
0010
0000
1010
0000
1000
0010
,  // measure 75
0001
0010
1000
0000
0100
0001
1000
0001
,  // measure 76
0100
0000
1000
0010
0001
0010
1000
0100
,  // measure 77
0001
0100
1000
0001
0200
0000
0000
1300
,  // measure 78
0001
0010
1000
0000
1010
0000
0001
0100
,  // measure 79
1000
0100
0001
0000
0010
1000
0001
1000
,  // measure 80
0010
0000
0001
0100
1000
0100
0001
0010
,  // measure 81
1000
0010
0001
1000
0020
0000
0000
0130
,  // measure 82
0100
0010
0010
0000
0110
0000
2002
0000
,  // measure 83
0000
0000
0000
0000
,  // measure 84
0000
0000
0000
0000
,  // measure 85
0000
0000
0000
0000
,  // measure 86
0000
0000
0000
3003
;
