#TITLE:Lonely Lisa;
#SUBTITLE:;
#ARTIST:Mylène Farmer;
#TITLETRANSLIT:Lonely Lisa;
#SUBTITLETRANSLIT:;
#ARTISTTRANSLIT:Mylene Farmer;
#GENRE:;
#CREDIT:;
#BANNER:;
#BACKGROUND:;
#LYRICSPATH:;
#CDTITLE:;
#MUSIC:[ROUND 3] - Lonely Lisa.ogg;
#OFFSET:-0.214;
#SAMPLESTART:93.357;
#SAMPLELENGTH:14.361;
#SELECTABLE:YES;
#BPMS:0.000=133.002
,176.000=66.501
,192.000=133.002
;
#STOPS:
;
#BGCHANGES:;
#KEYSOUNDS:;
#ATTACKS:;

//---------------dance-single - ----------------
#NOTES:
     dance-single:
     :
     Hard:
     8:
     0.499,0.652,0.438,0.317,0.034,363.000,58.000,42.000,0.000,0.000,0.000,0.499,0.652,0.438,0.317,0.034,363.000,58.000,42.000,0.000,0.000,0.000:
0000
0000
0000
0000
,
0000
0000
0000
0000
,
0000
0000
0000
0000
,
0000
0000
0000
0000
,
1000
0010
0100
0001
,
0000
1000
0000
1000
0000
1000
0000
1000
,
0001
0010
0100
1000
,
0000
0100
0000
0100
0000
0100
1000
0100
,
1000
1100
0100
1100
,
1000
1001
0001
1001
,
1000
0010
0100
0001
0100
0000
0101
0000
,
0001
0000
0101
0000
0100
0000
0101
0001
,
2000
0000
3200
0000
0302
0000
0103
1000
,
0002
0000
0203
0000
2300
0000
3100
0001
,
2000
0000
3200
0000
0320
0000
0130
0010
,
0200
0000
2300
0000
3002
0000
1003
0010
,
0200
0000
0302
0000
2003
0000
3100
1000
,
0200
0000
2300
0000
3002
0000
0103
0001
,
0200
0320
2030
3001
,
2002
0000
0000
0000
3003
1000
0001
0010
,
1000
0000
1000
0010
0001
0000
0011
0000
,
0001
0010
0001
1000
0010
1000
0001
0100
,
1000
0000
1000
0100
0001
0000
0101
0000
,
0001
0100
0010
1000
0001
1000
0001
0100
,
1000
0000
1000
0100
0001
0000
0101
0000
,
0100
0001
1000
0001
0010
0100
1000
0100
,
0001
0000
0001
0100
1000
0000
1100
0000
,
0100
1000
0001
0100
0020
0000
0100
0100
,
0230
0000
0302
0000
0013
0001
1000
0001
,
2000
0000
3020
0000
0130
0010
0100
0001
,
0200
0000
0302
0000
1003
0001
1000
0100
,
0020
0000
0230
0000
1300
0100
1000
0001
,
1001
0000
0101
0000
0001
0100
1000
0100
,
0001
0000
0101
0000
0001
0010
1000
0010
,
0001
0000
0011
0000
1000
1010
0001
0011
,
1000
1010
0001
0011
0001
1000
0010
0100
,
0001
0000
1001
0000
1000
0010
0001
0010
,
1000
0000
1001
0000
0001
0010
1000
0010
,
0001
0000
0011
0000
0001
0010
0100
1000
,
0001
0000
1001
0000
1000
0010
0100
0001
,
1000
0000
1001
0000
0001
0010
0001
0100
,
0001
0000
1001
0000
1000
0010
1000
0100
,
1000
0000
1001
0000
0001
0101
0100
0110
,
0010
1010
1000
1001
0001
0011
0110
0100
,
1000
0000
0100
0000
1000
0000
0001
1000
0001
0000
1000
0000
0010
0000
1000
0010
,
1000
0000
0010
0000
0100
0000
0001
0000
2000
0000
0000
0000
0001
0000
0001
0001
,
3002
0000
0203
0000
0320
0000
2030
0000
0000
0010
0000
0010
0000
0010
0000
0010
,
3020
0000
2030
0000
3002
0000
0013
0000
0022
0000
0000
0000
0033
0001
0011
0001
,
1001
0000
1000
0010
0100
0000
0110
0000
,
0010
0100
0001
0100
0001
1000
1001
1000
,
1100
0000
1000
0100
0010
0000
0110
0000
,
0010
0100
0010
0001
1000
0010
1010
0010
,
0110
0000
0100
0001
1000
0000
1001
0000
,
0001
0010
0100
0010
0100
1000
1100
0100
,
0110
0000
0010
0001
0010
0000
0011
0000
,
0001
0100
0010
1000
0001
0010
0011
0001
,
1001
0000
1000
0010
0100
0000
0110
0000
,
0001
0010
1000
0010
0001
1000
1001
0001
,
1001
0000
1000
0010
0100
0000
0110
0000
,
1000
0010
0001
0010
1000
0100
0110
0010
,
0011
0000
0001
0100
0010
0000
0110
0000
,
1000
0100
0001
0100
1000
0001
1001
1000
,
1001
0000
0001
0100
0010
0000
0110
0000
,
0100
0001
1000
0100
0001
0000
0001
0100
,
1000
0000
0000
0000
;

//---------------dance-single - ----------------
#NOTES:
     dance-single:
     :
     Medium:
     7:
     0.354,0.410,0.332,0.023,0.023,281.000,44.000,3.000,0.000,0.000,0.000,0.354,0.410,0.332,0.023,0.023,281.000,44.000,3.000,0.000,0.000,0.000:
0000
0000
0000
0000
,
0000
0000
0000
0000
,
0000
0000
0000
0000
,
0000
0000
0000
0000
,
1000
0010
1000
0010
,
0000
1000
0000
1000
0000
1000
0000
1000
,
0001
0010
0001
0010
,
0000
0001
0000
0001
0000
0001
0001
0010
,
0010
0001
0000
1000
,
0000
0001
0000
1000
,
0000
0100
0000
1000
,
0000
0000
0001
0000
0000
0000
0100
0001
,
0100
0001
1000
0010
,
0010
1000
0001
0010
,
0010
0100
1000
0100
,
0100
0000
1000
0000
0001
0000
0100
0001
,
0100
0010
1000
0010
,
0010
1000
0001
0010
,
0010
0001
1000
0002
,
2000
0000
0000
0000
3003
1000
0001
1000
,
0001
1000
1000
0010
,
0100
0010
0100
0000
0001
1000
0001
0010
,
0100
0010
0010
0100
,
1000
0100
1000
0000
0001
0100
0010
1000
,
0010
0000
1000
0000
0001
0000
0010
0001
,
0010
0000
0001
0000
1000
0000
0001
1000
,
0001
0000
0100
0010
0100
0000
0001
0000
,
1000
0000
0001
0010
0100
0000
1000
0100
,
1000
1000
0100
1000
,
0001
0001
1000
0001
,
0100
0100
0001
0100
,
0010
0010
0100
0010
,
1010
1010
1000
0001
,
1001
1001
0001
0010
,
0011
0000
0011
0000
0000
0010
0000
0001
,
0000
0010
0000
0001
0000
0010
0010
0100
,
0100
0100
1000
0100
,
1000
1000
0001
1000
,
0001
0001
0100
0001
,
0100
0100
0010
0100
,
0110
1010
1000
0001
,
1001
0011
0010
0100
,
0110
0000
1100
0000
0000
0001
0000
1000
,
0000
0001
0000
1000
0000
0001
0001
1000
,
1000
0001
0100
0010
0010
0100
0001
0100
,
0100
0001
1000
0100
0100
0000
1000
1000
,
1000
0000
0100
0000
0010
0000
0010
0000
0000
0100
0000
0100
0000
0100
0000
0100
,
0100
0000
0010
0000
0001
0000
1000
0000
0020
0000
0000
0000
0030
0100
0001
1000
,
0001
0000
0011
0000
0110
0000
0100
0010
,
0100
0000
0110
0000
1100
0000
1000
0100
,
1000
0000
1100
0000
1001
0000
1000
0001
,
1000
0000
1001
0000
0101
0000
0100
0001
,
0100
0000
0101
0000
0101
0000
0100
0001
,
1000
0000
1001
0000
1001
0000
0001
1000
,
0100
0000
1100
0000
1100
0000
1000
0100
,
0010
0000
0110
0000
0110
0000
0010
0001
,
1000
0000
1010
0000
0011
0000
0001
0010
,
0100
0000
1100
0000
0101
0000
0001
0100
,
0010
0000
0110
0000
1001
0000
0001
0010
,
0100
0000
0110
0000
1001
0000
1000
0010
,
0100
0000
0101
0000
1010
0000
1000
0001
,
0010
0000
0011
0000
1100
0000
1000
0001
,
0100
0000
0101
0000
1001
0000
1000
0001
,
0010
0000
0011
0000
0110
0000
0100
1000
,
0001
0000
0000
0000
;

//---------------dance-single - ----------------
#NOTES:
     dance-single:
     :
     Easy:
     4:
     0.204,0.193,0.008,0.008,0.000,187.000,1.000,1.000,0.000,0.000,0.000,0.204,0.193,0.008,0.008,0.000,187.000,1.000,1.000,0.000,0.000,0.000: // measure 0
0000
0000
0000
0000
,  // measure 1
0000
0000
0000
0000
,  // measure 2
0000
0000
0000
0000
,  // measure 3
0000
0000
0000
0000
,  // measure 4
1000
0000
0010
0000
,  // measure 5
1000
0000
0000
0000
,  // measure 6
0001
0000
0010
0000
,  // measure 7
0001
0000
0000
0000
,  // measure 8
1000
0000
0001
0000
,  // measure 9
1000
0000
0000
0000
,  // measure 10
0100
0000
0010
0000
,  // measure 11
0100
0000
0000
0000
,  // measure 12
0010
0000
0001
1000
,  // measure 13
0001
0000
1000
0010
,  // measure 14
1000
0000
0010
0100
,  // measure 15
0010
0000
0100
0001
,  // measure 16
1000
0100
0010
0000
,  // measure 17
0100
1000
0001
0000
,  // measure 18
0100
0010
1000
0000
,  // measure 19
0002
0000
0000
1003
,  // measure 20
1000
0100
0100
0010
,  // measure 21
0100
0100
1000
0000
,  // measure 22
0001
1000
0001
0001
,  // measure 23
1000
0010
0010
0000
,  // measure 24
0100
0100
0001
0001
,  // measure 25
1000
1000
1000
0000
,  // measure 26
0100
0100
0010
0010
,  // measure 27
0001
0001
0001
0000
,  // measure 28
1000
0000
1000
0000
,  // measure 29
0001
0000
0001
0000
,  // measure 30
0100
0000
0100
0000
,  // measure 31
0010
0000
0010
0000
,  // measure 32
1000
0000
1000
0000
,  // measure 33
0001
0000
0001
0000
,  // measure 34
0010
0000
0010
0000
,  // measure 35
0100
0100
0100
0100
,  // measure 36
0010
0001
0010
0010
,  // measure 37
0001
1000
0001
0001
,  // measure 38
1000
0010
1000
1000
,  // measure 39
0010
0100
0010
0010
,  // measure 40
0100
0001
0100
0001
,  // measure 41
1000
0001
1000
0001
,  // measure 42
1000
0100
1000
0100
,  // measure 43
0010
0010
0010
0010
,  // measure 44
0100
0000
1000
0000
,  // measure 45
0001
0000
1000
0000
,  // measure 46
0010
0010
0010
0000
,  // measure 47
0100
0100
0100
0000
,  // measure 48
0001
0100
0001
1000
,  // measure 49
1000
0001
1000
0001
,  // measure 50
0001
0010
0001
0010
,  // measure 51
0010
0100
0010
0100
,  // measure 52
0100
1000
0100
1000
,  // measure 53
1000
0001
1000
0001
,  // measure 54
0001
0100
0001
0100
,  // measure 55
0100
0010
0100
0010
,  // measure 56
0010
1000
1000
0001
,  // measure 57
0001
0010
0100
1000
,  // measure 58
0001
0001
0100
0100
,  // measure 59
0010
1000
0001
0010
,  // measure 60
0100
0100
1000
1000
,  // measure 61
0100
1000
0001
0100
,  // measure 62
0010
0010
1000
1000
,  // measure 63
0010
1000
0001
0000
,  // measure 64
1001
0000
0000
0000
;
