#VERSION:0.81;
#TITLE:Hot Air Balloon;
#SUBTITLE:(Mandora Opening Theme);
#ARTIST:Ice Bird;
#TITLETRANSLIT:;
#SUBTITLETRANSLIT:;
#ARTISTTRANSLIT:;
#GENRE:;
#ORIGIN:;
#CREDIT:;
#BANNER:habmop-bn.png;
#BACKGROUND:habmop-bg.png;
#PREVIEWVID:;
#JACKET:;
#CDIMAGE:;
#DISCIMAGE:;
#LYRICSPATH:;
#CDTITLE:;
#MUSIC:music.ogg;
#OFFSET:-4.480000;
#SAMPLESTART:25.480000;
#SAMPLELENGTH:20.454544;
#SELECTABLE:YES;
#BPMS:0.000=110.000;
#STOPS:;
#DELAYS:;
#WARPS:;
#TIMESIGNATURES:0.000=4=4;
#TICKCOUNTS:0.000=4;
#COMBOS:0.000=1;
#SPEEDS:0.000=1.000=0.000=0;
#SCROLLS:0.000=1.000;
#FAKES:;
#LABELS:0.000=Song Start;
#BGCHANGES:;
#KEYSOUNDS:;
#ATTACKS:
;

//---------------dance-single - ----------------
#NOTEDATA:;
#CHARTNAME:;
#STEPSTYPE:dance-single;
#DESCRIPTION:;
#CHARTSTYLE:;
#DIFFICULTY:Beginner;
#METER:1;
#RADARVALUES:0.058427,0.041751,0.000000,0.000000,0.000000,48.000000,0.000000,0.000000,0.000000,0.000000,0.000000,0.000000,0.000000,0.058427,0.041751,0.000000,0.000000,0.000000,48.000000,0.000000,0.000000,0.000000,0.000000,0.000000,0.000000,0.000000;
#CREDIT:;
#NOTES:
1000
0000
0000
0000
,
1000
0000
0000
0000
,
0001
0000
0000
0000
,
0001
0000
0000
0000
,
0100
0000
0000
0000
,
0100
0000
0000
0000
,
0010
0000
0000
0000
,
0010
0000
0000
0000
,
0100
0000
0000
0000
,
0100
0000
0000
0000
,
0001
0000
0000
0000
,
0001
0000
0000
0000
,
0010
0000
0000
0000
,
0010
0000
0000
0000
,
0100
0000
0000
0000
,
0100
0000
0000
0000
,
1000
0000
0000
0000
,
1000
0000
0000
0000
,
0001
0000
0000
0000
,
0001
0000
0000
0000
,
0100
0000
0000
0000
,
0010
0000
0000
0000
,
0100
0000
0000
0000
,
0000
0000
0000
0000
,
0001
0000
0000
0000
,
1000
0000
0000
0000
,
0001
0000
0000
0000
,
0000
0000
0000
0000
,
0001
0000
0000
0000
,
0010
0000
0000
0000
,
0100
0000
0000
0000
,
1000
0000
0000
0000
,
0001
0000
0000
0000
,
0100
0000
0000
0000
,
0010
0000
0000
0000
,
1000
0000
0000
0000
,
0001
0000
0000
0000
,
0001
0000
0000
0000
,
0100
0000
0000
0000
,
0100
0000
0000
0000
,
0010
0000
0000
0000
,
0010
0000
0000
0000
,
1000
0000
0000
0000
,
1000
0000
0000
0000
,
0001
0000
0000
0000
,
0010
0000
0000
0000
,
0100
0000
0000
0000
,
1000
0000
0000
0000
,
0010
0000
0000
0000
,
0100
0000
0000
0000
;

//---------------dance-single - ----------------
#NOTEDATA:;
#CHARTNAME:;
#STEPSTYPE:dance-single;
#DESCRIPTION:;
#CHARTSTYLE:;
#DIFFICULTY:Easy;
#METER:2;
#RADARVALUES:0.124157,0.148364,0.000000,0.068165,0.000000,94.000000,0.000000,8.000000,0.000000,0.000000,0.000000,0.000000,0.000000,0.124157,0.148364,0.000000,0.068165,0.000000,94.000000,0.000000,8.000000,0.000000,0.000000,0.000000,0.000000,0.000000;
#CREDIT:;
#NOTES:
1000
0000
0001
0000
,
0100
0000
0010
0000
,
1000
0000
0100
0000
,
0010
0000
0001
0000
,
0010
0000
0100
0000
,
2000
0000
0000
0000
,
3001
0000
0100
0000
,
0010
0000
0000
0000
,
1000
0000
0100
0000
,
0010
0000
0000
0000
,
0001
0000
0010
0000
,
0100
0000
1000
0000
,
0010
0000
0100
0000
,
0001
0000
1000
0000
,
0100
0000
0010
0000
,
0002
0000
0000
0000
,
1003
0000
0010
0000
,
0100
0000
0001
0000
,
1000
0000
0100
0000
,
0010
0000
0001
0000
,
0100
0000
0100
0000
,
0010
0000
0010
0000
,
1000
0000
0000
0000
,
0001
0000
0000
0000
,
0010
0000
0010
0000
,
0100
0000
0100
0000
,
1000
0000
0000
0000
,
0001
0000
0000
0000
,
0100
0000
0000
0000
,
0010
0000
0000
0000
,
1000
0000
1000
0000
,
0001
0001
0002
0000
,
0013
0000
0100
0000
,
1000
0000
0010
0000
,
0100
0100
0100
0000
,
0001
0001
0002
0000
,
1003
0000
0100
0000
,
0010
0000
0001
0000
,
0100
0000
0010
0000
,
1000
0000
0001
0000
,
0010
0000
0100
0000
,
2000
0000
0000
0000
,
3001
0000
0100
0000
,
0010
0000
1000
0000
,
0100
0000
0010
0000
,
0001
0000
1000
0000
,
0020
0000
0130
0000
,
0200
0000
0301
0000
,
0002
0000
1003
0000
,
0100
0100
0100
0100
;

//---------------dance-single - ----------------
#NOTEDATA:;
#CHARTNAME:;
#STEPSTYPE:dance-single;
#DESCRIPTION:;
#CHARTSTYLE:;
#DIFFICULTY:Medium;
#METER:3;
#RADARVALUES:0.183801,0.170411,0.025562,0.127809,0.000000,133.000000,3.000000,15.000000,0.000000,0.000000,0.000000,0.000000,0.000000,0.183801,0.170411,0.025562,0.127809,0.000000,133.000000,3.000000,15.000000,0.000000,0.000000,0.000000,0.000000,0.000000;
#CREDIT:;
#NOTES:
1000
0000
0010
0000
,
0100
0001
1000
0000
,
0100
0000
0010
0000
,
0100
1000
0001
0000
,
0100
0000
0010
0000
,
0220
0000
0000
0330
,
0010
0010
1000
1000
,
0100
0100
0020
0030
,
0001
0001
0100
0100
,
0020
0000
0000
0030
,
1000
0000
0001
0000
,
0010
0001
0100
0000
,
0010
0000
1000
0000
,
0001
1000
0010
0000
,
0100
0000
0001
0000
,
2002
0000
0000
3003
,
0001
0001
1000
1000
,
0010
0010
0200
0300
,
0010
0010
1000
1000
,
0001
0001
0002
0003
,
0010
0000
0100
0000
,
1000
0001
0100
0010
,
1000
0000
0010
0000
,
0100
0001
0010
0100
,
1000
0000
0100
0000
,
0010
0001
1000
0000
,
0010
0000
0100
0000
,
0001
1000
0100
0000
,
0010
0000
0010
0000
,
0001
0000
0001
0000
,
0100
0000
0100
0000
,
0010
0000
0010
0000
,
1000
0000
0010
0000
,
0100
0000
0001
0000
,
1000
0000
0100
0000
,
0020
0000
0000
0000
,
0031
0100
0010
0000
,
0010
0100
0001
0000
,
1000
0010
0100
0000
,
0010
1000
0100
0000
,
0010
0001
1000
0000
,
0220
0000
0000
0330
,
0010
0010
0100
0100
,
0001
0001
2000
3000
,
0100
0100
0010
0010
,
0001
0001
0200
0300
,
0010
0010
1000
1000
,
0001
0001
0020
0030
,
0100
0100
1000
1000
,
0010
0010
0002
0000
,
0003
0000
0000
0000
;

//---------------dance-single - ----------------
#NOTEDATA:;
#CHARTNAME:;
#STEPSTYPE:dance-single;
#DESCRIPTION:;
#CHARTSTYLE:;
#DIFFICULTY:Hard;
#METER:5;
#RADARVALUES:0.271441,0.255617,0.042603,0.076685,0.004260,209.000000,5.000000,9.000000,0.000000,0.000000,0.000000,0.000000,0.000000,0.271441,0.255617,0.042603,0.076685,0.004260,209.000000,5.000000,9.000000,0.000000,0.000000,0.000000,0.000000,0.000000;
#CREDIT:;
#NOTES:
0010
1000
0100
0100
,
1000
0001
0010
0000
,
0100
1000
0001
0100
,
0010
1000
0001
0000
,
0010
0100
1000
0001
,
0200
0010
0010
0010
,
0310
1000
0100
1000
,
0001
0100
0001
0000
0100
0000
0000
0000
,
0010
1000
0100
0010
,
0100
1000
0100
0000
0020
0000
0000
0000
,
0130
1000
0010
0100
,
0001
0100
0001
0000
0010
0000
0100
0000
,
1000
0010
1000
0001
,
0100
0000
0010
0100
0010
0000
1000
0000
,
0001
0010
0100
1000
,
2001
0001
0001
0001
,
3001
0010
1000
0100
,
0001
0010
0100
1000
,
0010
0001
0100
1000
,
0010
0100
0010
0100
0020
0000
0000
0000
,
1030
0010
1000
0001
,
0010
0000
0100
0000
1000
0001
1000
0001
,
0100
0010
1000
0100
,
0010
0000
0001
0000
0100
0010
0100
0000
,
0001
0010
0100
1000
,
0001
0000
0100
0000
0010
1000
0010
0000
,
1000
0100
0010
0001
,
1001
0000
0000
0000
0110
0000
0000
2002
0000
0000
0000
0000
3003
0000
0000
0000
,
0001
0100
0001
0100
,
0010
1000
0010
1000
,
0100
0010
0100
0010
,
0001
1000
0001
1000
,
0010
0100
0001
0010
,
0100
1000
0010
0100
,
0010
1000
0001
0010
,
0100
0010
0100
0010
0200
0000
0000
0000
,
1300
0010
0100
0001
,
0010
0100
0010
0000
0001
0000
1000
0000
,
0010
0100
0001
0010
,
0100
1000
0100
0000
0010
0000
0001
0000
,
0100
0010
1000
0100
,
0120
0100
0100
0100
,
0130
1000
0010
0001
,
0100
1000
0010
0100
,
0001
0010
1000
0100
,
0001
0010
0100
1000
,
0010
0001
0100
1000
,
0010
0100
0001
1000
,
0100
0001
0010
1000
,
0001
1000
0001
1000
0002
0000
1000
0000
,
0003
0000
0000
0000
;

//---------------dance-single - ----------------
#NOTEDATA:;
#CHARTNAME:;
#STEPSTYPE:dance-single;
#DESCRIPTION:;
#CHARTSTYLE:;
#DIFFICULTY:Challenge;
#METER:7;
#RADARVALUES:0.426029,0.361219,0.281179,0.076685,0.340823,308.000000,33.000000,9.000000,0.000000,0.000000,0.000000,0.000000,0.000000,0.426029,0.361219,0.281179,0.076685,0.340823,308.000000,33.000000,9.000000,0.000000,0.000000,0.000000,0.000000,0.000000;
#CREDIT:;
#NOTES:
// measure 0
1000
0000
0100
0000
1000
0000
0001
0100
0000
0000
0010
0000
0100
0000
0000
0000
,  // measure 1
0001
0000
0010
0000
0001
1000
0000
0010
0000
0000
0100
0000
0001
0000
0000
0000
,  // measure 2
0010
0000
0001
0000
1000
0000
0100
0010
0000
0000
0100
0000
1000
0000
0000
0000
,  // measure 3
0010
0000
0000
0000
0100
0001
0000
0100
0000
0000
0010
0000
1000
0000
0000
0000
,  // measure 4
0100
0000
0000
0000
0010
0000
0000
0110
0000
0000
0100
0000
1000
0000
0001
0000
,  // measure 5
0200
0000
0000
0000
0000
0000
0000
0000
0000
0010
0000
0000
0000
0000
0000
0000
0000
0000
0000
0000
0010
0000
0000
0000
0000
0000
0000
0000
0000
0000
0010
0000
0000
0000
0000
0000
0000
0000
0000
0000
0000
0000
0000
0000
0000
0000
0000
0000
,  // measure 6
0310
0000
0100
0000
0010
0000
0000
0100
0000
0000
0010
0000
1000
0000
0000
0000
,  // measure 7
0010
0000
1000
0000
0010
0000
0000
1000
0000
0000
0001
0000
1000
0000
0000
0000
,  // measure 8
0100
0000
0010
0000
0100
0000
0000
0010
0000
0000
0100
0000
0010
0000
0000
0000
,  // measure 9
0001
0000
1000
0000
0001
1000
0000
2002
0000
0000
0000
0000
3003
0000
0000
0000
,  // measure 10
1000
0000
0001
0000
0100
0000
0010
0100
0000
0000
0001
0000
0101
0000
0000
0000
,  // measure 11
0010
0000
1000
0000
0100
0010
0000
0100
0000
0000
1000
0000
1100
0000
0000
0000
,  // measure 12
0001
0000
0100
0000
0010
0000
0100
0001
0000
0000
0010
0000
0011
0000
0000
0000
,  // measure 13
1100
0000
0000
0000
0001
0100
0000
0010
0000
0000
1000
0000
1010
0000
0010
0000
,  // measure 14
0100
0000
0000
0000
0101
0000
0000
1001
0000
0000
1000
0000
0100
0000
0000
0000
,  // measure 15
0120
0000
0000
0000
0000
0001
0000
0000
0000
0000
1000
0000
0000
0000
0000
0100
0000
0000
0000
0000
0000
0000
0000
0000
,  // measure 16
0031
0000
0100
0000
0001
0100
0000
0001
0000
0000
1000
0000
0100
1000
0000
0100
,  // measure 17
0000
0000
1000
0000
0010
1000
0000
0010
0000
0000
0010
0000
0100
0000
0001
0000
,  // measure 18
0010
0000
0001
0000
0010
0001
0000
0010
0000
0000
0100
0000
1000
0100
0000
0000
,  // measure 19
1000
0000
0001
0000
0100
0010
0000
0220
0000
0000
0000
0000
0330
0000
0000
0000
,  // measure 20
0100
0000
0000
0000
0101
0000
0000
0001
0000
0000
1000
0000
0100
0000
0000
0000
,  // measure 21
0010
0000
0000
0000
0011
0000
0000
0100
0000
0000
1000
0000
0010
0000
0000
0000
,  // measure 22
0100
0000
0000
0000
1001
0000
0000
0001
0000
0000
0010
0000
0100
0000
0000
0000
,  // measure 23
1100
0000
0000
0000
0011
0000
0000
0001
0000
0000
0100
0000
0010
0000
0000
0000
,  // measure 24
0110
0000
0000
0000
1001
0000
0000
0001
0000
0000
0010
0000
0100
0000
0000
0000
,  // measure 25
1100
0000
0000
0000
1010
0000
0000
0010
0000
0000
0100
0000
0001
0000
0000
0000
,  // measure 26
0101
0000
0000
0000
1010
0000
0000
0010
0000
0000
0100
0000
0001
0000
0000
0000
,  // measure 27
0011
0000
0000
0000
1100
0000
0000
2002
0000
0000
0000
0000
3003
0000
0000
0000
,  // measure 28
1000
0000
0010
0000
0100
0000
0000
0010
0000
0000
1000
0000
0100
0000
0000
0000
,  // measure 29
0010
0000
0001
0000
0100
0000
0000
0010
0000
0000
0100
0000
0001
0000
0000
0000
,  // measure 30
1000
0000
0100
0000
1000
0000
0000
0001
0000
0000
0100
0000
0001
0000
0000
0000
,  // measure 31
1000
0000
0000
0000
0010
0000
0000
1000
0000
0000
0001
0000
0010
0000
0000
0000
,  // measure 32
0001
0000
0000
0000
0100
0000
0000
0010
0000
0000
1000
0000
0100
0000
0000
0000
,  // measure 33
0010
0000
0000
0000
0100
0000
0000
1000
0000
0000
0010
0000
0100
0000
0000
0000
,  // measure 34
0001
0000
0000
0000
0010
0000
0000
0001
0000
0000
1000
0000
0010
0000
0000
0000
,  // measure 35
0100
0010
0100
0010
1000
0001
1000
0000
,  // measure 36
0001
0000
0100
0000
0010
0000
0100
0001
0000
0000
0010
0000
0011
0000
0000
0000
,  // measure 37
0100
0000
1000
0000
0010
1000
0000
0100
0000
0000
0010
0000
0110
0000
0000
0000
,  // measure 38
0100
0000
1000
0000
0010
0000
0100
0001
0000
0000
1000
0000
1100
0000
0000
0000
,  // measure 39
0010
0000
0000
0000
0001
0100
0000
0010
0000
0000
0100
0000
1001
0000
0100
0000
,  // measure 40
0010
0000
0000
0000
0011
0000
0000
1100
0000
0000
1000
0000
0001
0000
0100
0000
,  // measure 41
0120
0000
0000
0000
0000
0001
0000
0000
0000
0000
0100
0000
0000
0000
0000
1000
0000
0000
0000
0000
0000
0000
0000
0000
,  // measure 42
1030
0000
0100
0000
1000
0100
0000
1000
0000
0000
0001
0000
0100
0001
0000
0100
,  // measure 43
0000
0000
0010
0000
1000
0010
0000
1000
0000
0000
0000
0000
0001
0000
0000
0000
,  // measure 44
0010
0000
0100
0000
0010
0100
0000
0010
0000
0000
0100
0000
1000
0100
0000
0000
,  // measure 45
1000
0000
0010
0000
0100
0001
0000
0100
0000
0000
0010
0000
1000
0000
0100
0000
,  // measure 46
0010
0000
0001
0000
0010
0001
0000
0010
0000
0000
0100
0000
0010
0100
0000
0010
,  // measure 47
0000
0000
0100
0000
1000
0100
0000
1000
0000
0000
0100
0000
1000
0000
0000
0000
,  // measure 48
0001
0000
0100
0000
0001
0100
0000
0010
0000
0000
0100
0000
0010
0100
0000
0000
,  // measure 49
0010
0000
1000
0000
0001
1000
0000
0100
0000
0000
0010
0000
0001
0000
1001
0000
;
