#TITLE:HIDI HIDI DO;
#SUBTITLE:(KCP Re-Edit);
#ARTIST:ZIPPERS;
#TITLETRANSLIT:;
#SUBTITLETRANSLIT:;
#ARTISTTRANSLIT:;
#GENRE:;
#CREDIT:;
#BANNER:HIDI HIDI DO-Banner.png;
#BACKGROUND:HIDI HIDI DO-bg.png;
#LYRICSPATH:;
#CDTITLE:;
#MUSIC:[ROUND 6] - HIDI HIDI DO (KCP Re-Edit).mp3;
#OFFSET:-0.035000;
#SAMPLESTART:44.715000;
#SAMPLELENGTH:12.380000;
#SELECTABLE:YES;
#BPMS:0.000000=150.000000
;
#STOPS:
;
#BGCHANGES:;
#KEYSOUNDS:;
#ATTACKS:;

//---------------dance-single - ----------------
#NOTES:
     dance-single:
     :
     Hard:
     9:
     0.667824,0.612312,0.105977,0.094202,0.341482,380.000000,9.000000,8.000000,0.000000,0.000000,0.000000,0.667824,0.612312,0.105977,0.094202,0.341482,380.000000,9.000000,8.000000,0.000000,0.000000,0.000000:
// measure 0
0000
0000
0000
0000
,  // measure 1
0000
0000
0000
0000
,  // measure 2
0001
0100
0010
0010
1000
0100
0010
0010
,  // measure 3
0001
0001
1000
1000
1001
0000
1001
0000
,  // measure 4
0001
0100
1000
0100
0000
0010
1000
0100
,  // measure 5
0001
0100
1000
1000
0000
0001
1000
0001
,  // measure 6
1000
0010
0100
0001
0000
1000
0001
1000
,  // measure 7
0002
2003
3001
1001
,  // measure 8
1000
0100
0001
0100
0000
0010
0001
0100
,  // measure 9
0010
0100
0001
0001
0000
1000
0001
1000
,  // measure 10
0001
0010
0100
1000
0000
0001
1000
0001
,  // measure 11
2000
3002
1003
1001
,  // measure 12
1000
0000
0000
1000
0100
0000
0000
0100
0001
0000
0000
0001
0100
0000
0000
0100
,  // measure 13
1000
0000
0010
0000
0100
0000
0010
0000
1000
0000
0000
1000
0100
0000
0010
0000
,  // measure 14
0001
0000
0000
0001
0100
0000
0010
0000
1000
0000
0000
1000
0010
0000
0100
0000
,  // measure 15
0001
0000
0000
0001
0010
0000
0100
0000
1000
0000
0000
1000
0010
0000
0100
0000
,  // measure 16
0001
0001
1000
1000
0001
0001
1000
0100
,  // measure 17
0001
0100
1000
0010
0100
0000
0001
0010
,  // measure 18
0100
0010
0001
0100
0010
0000
1000
0100
,  // measure 19
0010
0000
0000
0010
0100
0000
1000
0000
0001
1000
0000
1000
0001
1000
0001
1000
,  // measure 20
0001
0000
0000
0001
0100
0000
0000
0100
1000
0000
0000
1000
0100
0000
0000
0100
,  // measure 21
0001
0000
0010
0000
0100
0000
0010
0000
0001
0000
0000
0001
0100
0000
0010
0000
,  // measure 22
1000
0000
0100
0010
0100
0000
0010
0000
0001
0000
0100
0010
0100
0000
0010
0000
,  // measure 23
1000
0000
0100
0010
0100
0000
1000
0000
0001
0000
0100
0010
0100
0000
0001
0000
,  // measure 24
1000
1000
0001
0001
1000
1000
0001
0100
,  // measure 25
1000
0100
0001
0010
0100
0000
1000
0010
,  // measure 26
0100
0010
1000
0100
0010
0000
0001
0100
,  // measure 27
0010
0000
0000
0010
0100
0000
0001
0000
1000
0001
0000
0001
1000
0001
1000
0001
,  // measure 28
1000
0000
0000
1000
0010
0000
0100
0000
0010
0000
0000
0010
0100
0000
0001
0000
,  // measure 29
0100
0000
0000
0100
0001
0000
0010
0000
0100
0000
0010
0001
0010
0000
0001
0000
,  // measure 30
0100
0000
0010
0100
0010
0000
1000
0000
0100
0000
0010
0100
0010
0000
0001
0000
,  // measure 31
1000
0000
0000
1000
0010
0000
0000
0010
0100
0000
0000
0100
0001
0000
0000
0000
,  // measure 32
0001
0000
0000
0001
0010
0000
0100
0000
0010
0000
0000
0010
0100
0000
1000
0000
,  // measure 33
0100
0000
0000
0100
1000
0000
0010
0000
0100
0000
0010
1000
0010
0000
1000
0000
,  // measure 34
0100
0000
0010
0100
0010
0000
0001
0000
0100
0000
0010
0100
0010
0000
1000
0000
,  // measure 35
0001
0000
0000
0001
0010
0000
0000
0010
0100
0000
0000
0100
1000
0000
0010
0000
,  // measure 36
1000
0100
0001
0100
0000
0010
0001
0100
,  // measure 37
1000
0100
0001
0001
0000
1000
0001
1000
,  // measure 38
0001
0010
0100
1000
0000
0001
1000
0001
,  // measure 39
2000
3002
1003
1001
,  // measure 40
0001
0100
1000
0100
0000
0010
1000
0100
,  // measure 41
0001
0100
1000
1000
0000
0001
1000
0001
,  // measure 42
1000
0010
0100
0001
0000
1000
0001
1000
,  // measure 43
0002
2003
3001
1001
,  // measure 44
0001
0000
0000
0001
0010
0000
0100
0000
0010
0000
0000
0010
0100
0000
1000
0000
,  // measure 45
0010
0000
0100
0010
0100
0000
0001
0000
0010
0000
0100
0010
0100
0000
1000
0000
,  // measure 46
0001
0100
1000
0100
0000
0010
1000
0100
,  // measure 47
0001
0000
0000
0001
0100
0000
0000
0100
1000
0000
0000
0000
1001
0000
0000
0000
,  // measure 48
1000
0000
0000
1000
0010
0000
0100
0000
0010
0000
0000
0010
0100
0000
0001
0000
,  // measure 49
0010
0000
0100
0010
0100
0000
1000
0000
0010
0000
0100
0010
0100
0000
0001
0000
,  // measure 50
1000
0100
0001
0100
0000
0010
0001
0100
,  // measure 51
1000
0000
0000
1000
0100
0000
0000
0100
0001
0000
0000
0000
1001
0000
0000
0000
,  // measure 52
1001
0000
0000
0000
;

//---------------dance-single - ----------------
#NOTES:
     dance-single:
     :
     Medium:
     6:
     0.434001,0.428618,0.317931,0.070651,0.058876,225.000000,27.000000,6.000000,0.000000,0.000000,0.000000,0.434001,0.428618,0.317931,0.070651,0.058876,225.000000,27.000000,6.000000,0.000000,0.000000,0.000000:
0000
0000
0000
0000
,
0000
0000
0000
0000
,
1010
0001
0011
1000
,
1002
1003
2001
3001
,
1000
0100
0000
1000
,
0100
0001
0000
0001
,
0100
1000
0000
1001
,
1002
2003
3001
0000
,
0001
0100
0000
0001
,
0100
1000
0000
1000
,
0100
0001
0000
1001
,
2001
3002
1003
0000
,
0001
0100
1000
0100
,
0001
1000
0001
1000
0001
0000
0000
0000
,
1000
0100
0001
0100
,
1000
0001
1000
0001
1000
0000
0000
0000
,
0001
0100
1000
0010
,
0001
1000
0001
0000
,
1000
0100
0001
0010
,
1000
0000
0001
0000
1000
0001
1000
0001
,
1000
0100
0001
0100
,
1000
0001
1000
0001
1000
0000
0000
0000
,
0001
0100
1000
0100
,
0001
1000
0001
1000
0001
0000
0000
0000
,
0001
0100
1000
0010
,
0001
1000
0001
0000
,
1000
0100
0001
0010
,
1000
0000
0001
0000
1000
0001
1000
0001
,
1000
0000
0000
1000
0100
0000
0000
0000
1000
0000
0000
1000
0100
0000
0000
0000
,
1000
0000
0000
1000
0100
0000
1000
0000
0100
0000
0000
0000
0000
0000
0000
0000
,
1000
0100
0010
0000
0001
0100
0010
0000
,
0110
0110
1001
0000
,
0001
0000
0000
0001
0100
0000
0000
0000
0001
0000
0000
0001
0100
0000
0000
0000
,
0001
0000
0000
0001
0100
0000
0001
0000
0100
0000
0000
0000
0000
0000
0000
0000
,
0001
0100
0010
0000
1000
0100
0010
0000
,
0110
0110
1001
0000
,
0001
0100
0001
0100
0000
0100
0001
0000
,
1000
0100
1000
0100
0000
0100
1000
0000
,
0001
1000
0001
1000
0000
1000
0001
0000
,
0011
1100
1001
0000
,
1000
0100
1000
0100
0000
0100
1000
0000
,
0001
0100
0001
0100
0000
0100
0001
0000
,
1000
0001
1000
0001
0000
0001
1000
0000
,
1010
0101
1001
0000
,
1000
0000
0000
1000
0100
0000
0000
0000
1000
0000
0000
1000
0100
0000
0000
0000
,
1000
0100
0010
0100
1000
0000
0000
0000
,
1000
0001
1000
0001
0000
0001
1000
0000
,
1001
1001
1001
0000
,
0001
0000
0000
0001
0100
0000
0000
0000
0001
0000
0000
0001
0100
0000
0000
0000
,
0001
0100
0010
0100
0001
0000
0000
0000
,
0001
1000
0001
1000
0000
1000
0001
0000
,
1001
1001
1001
0000
,
1001
0000
0000
0000
;

//---------------dance-single - ----------------
#NOTES:
     dance-single:
     :
     Easy:
     3:
     0.329707,0.306156,0.223729,0.094202,0.000000,169.000000,19.000000,8.000000,0.000000,0.000000,0.000000,0.329707,0.306156,0.223729,0.094202,0.000000,169.000000,19.000000,8.000000,0.000000,0.000000,0.000000:
0000
0000
0000
0000
,
0000
0000
0000
0000
,
0001
0001
1000
1000
,
0001
1000
1001
1001
,
0001
0100
0000
0001
,
0100
1000
0000
1000
,
0100
0001
0000
1001
,
1002
2003
3001
0000
,
1000
0100
0000
1000
,
0100
0001
0000
0001
,
0100
1000
0000
1001
,
2001
3002
1003
0000
,
0001
0100
1000
0100
,
0001
1000
0001
0000
,
1000
0100
0001
0100
,
1000
0001
1000
0000
,
0001
0100
0001
0100
,
0001
0010
0100
0000
,
1000
0100
1000
0100
,
1000
1000
0001
0001
,
1000
0100
0001
0100
,
1000
0001
1000
0000
,
0001
0100
1000
0100
,
0001
1000
0001
0000
,
1000
0100
1000
0100
,
1000
0100
0010
0000
,
0001
0010
0001
0010
,
0001
0001
1000
1000
,
0001
0001
1000
1000
,
0001
1000
0001
0000
,
1000
1100
0001
0101
,
0001
1000
1001
0000
,
1000
1000
0001
0001
,
1000
0001
1000
0000
,
0001
0101
1000
1100
,
1000
0001
1001
0000
,
0001
0100
0000
0001
,
0100
1000
0000
1000
,
0100
0001
0000
1001
,
2001
3002
1003
0000
,
1000
0100
0000
1000
,
0100
0001
0000
0001
,
0100
1000
0000
1001
,
1002
2003
3001
0000
,
0001
0100
0001
0100
,
0001
1000
1001
0000
,
1000
0100
0000
1000
,
0100
0001
0100
0000
,
1000
0100
1000
0100
,
1000
0001
1001
0000
,
0001
0100
0000
0001
,
0100
1000
0100
0000
,
1001
0000
0000
0000
;
