#VERSION:0.81;
#TITLE:Finale;
#SUBTITLE:;
#ARTIST:Madeon;
#TITLETRANSLIT:;
#SUBTITLETRANSLIT:;
#ARTISTTRANSLIT:;
#GENRE:;
#ORIGIN:;
#CREDIT:;
#BANNER:Finale - Madeonbn.png;
#BACKGROUND:Finale - Madeonbg.png;
#PREVIEWVID:;
#JACKET:;
#CDIMAGE:;
#DISCIMAGE:;
#LYRICSPATH:Finale - Madeon.lrc;
#CDTITLE:encorerebirth.png;
#MUSIC:Finale - Madeon.ogg;
#OFFSET:0.006;
#SAMPLESTART:15.552;
#SAMPLELENGTH:20.830;
#SELECTABLE:YES;
#BPMS:0.000=92.000;
#STOPS:;
#DELAYS:;
#WARPS:;
#TIMESIGNATURES:0.000=4=4;
#TICKCOUNTS:0.000=4;
#COMBOS:0.000=1;
#SPEEDS:0.000=1.000=0.000=0;
#SCROLLS:0.000=1.000;
#FAKES:;
#LABELS:0.000=Song Start;
#BGCHANGES:;
#KEYSOUNDS:;
#ATTACKS:
;

//---------------dance-single - Spork!----------------
#NOTEDATA:;
#CHARTNAME:;
#STEPSTYPE:dance-single;
#DESCRIPTION:Spork!;
#CHARTSTYLE:;
#DIFFICULTY:Beginner;
#METER:1;
#RADARVALUES:0.088,0.112,0.018,0.089,0.000,57.000,2.000,10.000,0.000,0.000,0.000,0.000,0.000,0.088,0.112,0.018,0.089,0.000,57.000,2.000,10.000,0.000,0.000,0.000,0.000,0.000;
#CREDIT:Spork!;
#NOTES:
0000
0000
0000
0000
,
0000
0000
0000
0000
,
0002
0000
0000
0000
,
0000
0000
0003
0000
,
2000
0000
0000
0000
,
0000
0000
3000
0000
,
0001
0000
1000
0000
,
0100
0000
1000
0000
,
0001
0000
0100
0000
,
0100
0000
0010
0000
,
1000
0000
0000
0000
,
0001
0000
1000
0000
,
0001
0000
0000
0000
,
0010
0000
0000
0000
,
1001
0000
0000
0000
,
0100
0000
0000
0000
,
0100
0000
0000
0000
,
0010
0000
0000
0000
,
0010
0000
0000
0000
,
2000
0000
0001
0000
,
0000
0000
3001
0000
,
0002
0000
1000
0000
,
0000
0000
1003
0000
,
0020
0000
0100
0000
,
0000
0000
0130
0000
,
0200
0000
0010
0000
,
0000
0000
0310
0000
,
2000
0000
0100
0000
,
0000
0000
3001
0000
,
0002
0000
0100
0000
,
0000
0000
1003
0000
,
1000
0000
0000
0000
,
0001
0000
0000
0000
,
1000
0000
0001
0000
,
0010
0000
0001
0000
,
1000
0000
0010
0000
,
0010
0000
0100
0000
,
0001
0000
1000
0000
,
0010
0000
1000
0000
,
0001
0000
0010
0000
,
0010
0000
0100
0000
,
0220
0000
0000
0000
,
0330
0000
0000
0000
;

//---------------dance-single - Spork!----------------
#NOTEDATA:;
#CHARTNAME:;
#STEPSTYPE:dance-single;
#DESCRIPTION:Spork!;
#CHARTSTYLE:;
#DIFFICULTY:Easy;
#METER:4;
#RADARVALUES:0.267,0.262,0.356,0.356,0.000,130.000,40.000,40.000,0.000,0.000,0.000,0.000,0.000,0.267,0.262,0.356,0.356,0.000,130.000,40.000,40.000,0.000,0.000,0.000,0.000,0.000;
#CREDIT:Spork!;
#NOTES:
0000
0000
0000
0000
,
0000
0000
0000
0000
,
2000
0000
0000
0000
,
0000
0000
0000
3000
,
0002
0000
0000
0000
,
0000
0000
0000
1003
,
1001
0001
0020
0031
,
0110
0100
0020
0031
,
1001
1000
0020
1030
,
0110
0100
0020
2030
,
3002
0000
1000
0100
,
2003
0010
0001
3100
,
2000
0000
0001
0010
,
3002
0000
0100
0000
1000
0000
1003
0001
,
1001
0000
0000
0000
,
0200
0000
0310
0010
,
0020
0000
1030
0001
,
2000
0000
3001
0001
,
0002
0010
0013
0100
,
0011
2001
0010
3001
,
1010
1002
0100
1003
,
0101
0120
0100
1030
,
1100
0120
0100
0031
,
1001
0210
0001
0301
,
0110
1002
0010
0013
,
1001
0120
1000
1030
,
0110
2001
0100
3100
,
1100
0201
0010
0310
,
1010
0021
0100
0130
,
0011
1020
0100
0130
,
0101
1200
0010
0310
,
0220
0000
0000
0000
,
0300
0000
0030
0000
,
1001
1000
0020
1030
,
0110
0010
0200
0301
,
1001
1000
1200
1300
,
0120
0130
0021
0031
,
1001
0001
0200
0301
,
0110
0100
0020
1030
,
1001
0001
0020
0031
,
0110
0010
0200
2300
,
3002
0000
0000
0000
,
0003
0000
0000
0000
;

//---------------dance-single - Spork!----------------
#NOTEDATA:;
#CHARTNAME:;
#STEPSTYPE:dance-single;
#DESCRIPTION:Spork!;
#CHARTSTYLE:;
#DIFFICULTY:Medium;
#METER:6;
#RADARVALUES:0.296,0.299,0.312,0.232,0.000,172.000,35.000,26.000,0.000,0.000,0.000,0.000,0.000,0.296,0.299,0.312,0.232,0.000,172.000,35.000,26.000,0.000,0.000,0.000,0.000,0.000;
#CREDIT:Spork!;
#NOTES:
0000
0000
0000
0000
,
0000
0000
0000
0000
,
0002
0000
0000
0000
,
0000
0000
0000
0003
,
2000
0000
0000
0000
,
0000
0000
0000
3000
,
0001
0000
0011
0000
0010
0001
0010
0100
,
1000
0000
0010
0000
0100
0010
0100
0001
,
1000
0000
1100
0000
0100
1000
0100
0010
,
0010
0001
0010
0100
0200
0000
0310
0000
,
0001
0000
0110
0000
1000
0100
0010
0001
,
0000
0000
0001
0100
0000
0000
0100
0010
,
0000
0000
1000
0000
0001
0000
0010
0001
,
0200
0000
0010
0000
0301
0000
0001
1000
,
2002
0000
3003
0000
,
0002
0000
0000
0010
0013
0000
0100
0000
,
2000
0000
0000
0000
3001
0000
0100
0100
,
0020
0000
0000
1000
1030
0000
0001
0000
,
0020
0000
0130
0010
0200
0000
1300
0001
,
0011
0000
0201
0000
0310
1000
0001
0000
,
1100
0000
1020
0000
0130
0001
1000
0000
,
1010
0000
1200
0000
0310
0001
1000
0000
,
0101
0000
0021
0000
0130
1000
0001
0000
,
0011
1010
0110
1001
,
1100
0000
0101
0000
1001
0000
0100
0010
,
1010
0011
0110
1001
,
0101
0000
1100
0000
1001
0000
0100
0010
,
0021
0000
0130
0000
0010
0001
0100
0000
,
1020
0000
0130
0000
0010
1000
0001
0000
,
0201
0000
0310
0000
0100
0001
1000
0000
,
1200
0000
0310
0000
0100
1000
0010
0000
,
0220
0000
0000
0000
,
0030
0000
0300
0000
,
0001
0000
0101
0000
0100
0001
0100
0010
,
1000
0000
0100
0000
0010
0100
0010
0001
,
1000
0000
1010
0000
0010
1000
0010
0010
,
0100
0001
0100
0100
0020
0000
2030
0000
,
3001
0000
1100
0000
0100
1000
0100
0010
,
0001
0000
0100
0000
0100
0010
0100
0001
,
1000
0000
0011
0000
0010
0001
0010
0010
,
0100
1000
0100
0100
0020
0000
0032
0000
,
2003
0000
0000
0000
,
3000
0000
0000
0000
;

//---------------dance-single - Spork!----------------
#NOTEDATA:;
#CHARTNAME:;
#STEPSTYPE:dance-single;
#DESCRIPTION:Spork!;
#CHARTSTYLE:;
#DIFFICULTY:Challenge;
#METER:12;
#RADARVALUES:0.766,0.860,0.472,0.169,1.000,530.000,53.000,19.000,32.000,0.000,6.000,0.000,0.000,0.766,0.860,0.472,0.169,1.000,530.000,53.000,19.000,32.000,0.000,6.000,0.000,0.000;
#CREDIT:Spork!;
#NOTES:
0000
0000
0000
0000
,
0000
0000
0000
0000
,
4000
0000
0000
0000
0000
0000
0000
3000
0100
0000
1000
0010
0000
0100
0000
0001
,
0010
0100
0011
0000
0100
0010
1100
0000
,
0004
0000
0000
0000
0000
0000
0000
0003
0010
0000
0001
0100
0000
0010
0000
1000
,
0400
0000
0000
0000
0000
0000
0000
0300
0010
0000
0000
0000
MMMM
0000
0000
0000
,
1000
0100
1000
0010
1000
0001
0100
0001
0020
0000
0100
0100
0000
1000
0000
0031
,
0010
0001
1000
0010
0100
0010
1000
0100
0100
0010
0010
0200
0000
0001
0000
1300
,
0001
0010
0001
0100
0001
1000
0010
1000
0200
0000
0010
0010
0000
0001
0000
1300
,
0100
0010
0100
0010
0100
0010
0100
0010
0001
1000
0001
1000
0001
1000
0001
1000
0010
0100
0001
0010
0100
1000
0010
0100
0001
0100
0010
1000
0100
0010
0001
1000
,
0002
0000
0100
0000
0103
0000
0010
0000
0110
0000
0001
0010
2000
0000
3020
0000
,
0031
0000
0001
1000
0020
0000
0032
0000
0013
0000
0010
1000
0200
0000
0320
0000
,
0031
0000
0100
0000
1001
0000
0010
0000
1000
0000
0001
0000
0110
0000
0010
0200
,
0000
0000
0300
1000
0100
0000
0000
0000
1001
0000
0001
1000
0010
0000
0100
0000
,
0440
0000
0000
M000
000M
M000
000M
M000
0000
0000
0000
000M
M000
000M
M300
000M
0000
0000
0000
M000
000M
M000
000M
M000
0000
0000
0000
000M
M000
000M
M030
000M
,
1000
0100
0010
0001
0100
0010
1000
0010
0100
0001
1000
0010
0100
0001
0010
0010
,
0001
0100
0010
1000
0100
0010
0001
0010
0100
1000
0001
0100
0010
1000
0010
0010
,
1000
0001
0100
0001
0010
0100
1000
0010
0100
0001
0100
0010
1000
0001
0010
0010
,
0001
1000
0010
1000
0100
0010
0001
0100
0010
1000
0010
0100
0001
1000
0010
0010
,
1100
0100
0001
0010
0101
0100
1000
0001
1010
0010
0001
1000
0011
0010
1000
1000
,
0101
0100
0010
0001
1100
0100
0010
1000
0011
0010
0100
0001
1010
0010
0001
0001
,
1010
0010
0100
1000
0011
0010
0100
0001
1100
0100
0010
1000
0101
0100
1000
1000
,
0011
0010
1000
0001
1010
0010
0001
1000
0101
0100
1000
0001
1100
0100
0001
1000
,
0011
0000
0001
0000
0010
0000
0100
0000
1010
0000
1000
0000
0010
0000
0100
0000
0001
0000
0010
0M00
0010
0000
1000
0000
1001
0000
1000
0000
0001
0000
0001
0000
,
1100
0000
1000
0000
0100
0000
0010
0000
0101
0000
0001
0000
0100
0000
0010
0000
1000
0000
0100
00M0
0100
0000
0001
0000
1001
0000
0001
0000
1000
0000
1000
0000
,
0101
0000
0001
0000
0010
0000
0100
0000
1010
0000
1000
0000
0100
0000
0010
0000
0001
0000
0100
00M0
0100
0000
1000
0000
1001
0000
1000
0000
0001
0000
0001
0000
,
1100
0000
1000
0000
0010
0000
0100
0000
0011
0000
0001
0000
0100
0000
0010
0000
1000
0000
0010
0M00
0010
0000
0001
0000
1001
0000
0001
0000
1000
0000
1000
0000
,
0011
0000
0010
0000
1000
0000
0100
0000
1010
0000
0010
0000
0001
0000
0100
0000
0011
0000
0001
0000
0100
000M
0100
0000
1010
0000
1000
0000
0100
0000
0010
0000
,
1100
0000
1000
0000
0001
0000
0010
0000
0101
0000
0001
0000
1000
0000
0010
0000
1100
0000
1000
0000
0010
M000
0010
0000
0101
0000
0100
0000
1000
0000
0001
0000
,
1010
0000
0010
0000
0001
0000
0100
0000
0011
0000
0010
0000
1000
0000
0100
0000
1010
0000
1000
0000
0100
M000
0100
0000
0011
0000
0010
0000
1000
0000
1000
0000
,
0101
0000
0001
0000
1000
0000
0010
0000
1100
0000
1000
0000
0001
0000
0010
0000
0101
0000
0001
0000
0010
000M
0010
0000
1100
0000
0100
0000
0001
0000
0010
0000
,
0100
0000
0010
0000
0101
0000
0001
1000
0010
0000
0100
0000
1010
0000
1000
0000
,
0001
0010
0001
0010
0100
1000
0100
1000
0040
0000
0000
0000
0000
0000
0030
0000
,
1000
0100
1000
0010
0100
0001
0010
0100
2000
0000
0001
0001
0000
0100
0000
3010
,
1000
0100
0010
0001
0100
0010
1000
0010
0010
0100
0100
0002
0000
0010
0000
1003
,
0001
0010
0001
0100
0010
1000
0100
0010
0002
0000
1000
1000
0000
0100
0000
0013
,
0001
0000
2000
0000
0000
0000
0100
0000
0000
0000
3001
0000
0000
0000
1000
0000
0010
0000
0100
0010
0100
0000
0001
0000
1000
0000
0001
1000
0001
0000
0010
0000
,
0001
0100
0001
0010
0001
1000
0100
1000
0020
0000
0100
0100
0000
0001
0000
1030
,
0010
1000
0001
0010
0100
0010
0001
0100
0100
0010
0010
0200
0000
1000
0000
0301
,
1000
0100
1000
0010
1000
0001
0100
0001
0020
0000
0100
0100
0000
1000
0000
0031
,
0010
0100
0010
0100
0010
0100
0010
0100
1000
0001
1000
0001
1000
0001
1000
0001
0100
0010
1000
0100
0010
0001
0100
0010
1000
0010
0100
0001
0010
0100
1000
0001
,
2000
0000
0000
0000
,
3000
0000
0000
0000
;

//---------------dance-single - Spork!----------------
#NOTEDATA:;
#CHARTNAME:;
#STEPSTYPE:dance-single;
#DESCRIPTION:Spork!;
#CHARTSTYLE:;
#DIFFICULTY:Hard;
#METER:8;
#RADARVALUES:0.425,0.411,0.338,0.276,0.245,265.000,38.000,31.000,0.000,0.000,0.000,0.000,0.000,0.425,0.411,0.338,0.276,0.245,265.000,38.000,31.000,0.000,0.000,0.000,0.000,0.000;
#CREDIT:Spork!;
#NOTES:
// measure 0
0000
0000
0000
0000
,  // measure 1
0000
0000
0000
0000
,  // measure 2
0100
0100
0100
0100
0010
1000
0100
0010
,  // measure 3
0001
0100
1001
0000
1000
0100
1001
0000
,  // measure 4
0010
0010
0010
0010
0100
0001
0010
0100
,  // measure 5
1000
0010
1000
0001
0200
0000
0310
0000
,  // measure 6
1001
0000
0000
1000
0100
0000
0000
0000
0100
0000
0100
0010
0000
0001
0000
1000
,  // measure 7
0000
0000
0000
1000
0001
0000
0000
0001
0100
0010
0100
0010
0000
1000
0000
0001
,  // measure 8
0000
0000
0000
0001
1000
0000
0000
0000
0010
0000
0010
0100
0000
0001
0000
0010
,  // measure 9
0000
0100
0000
1000
0000
0001
0000
0000
0200
0000
0000
0000
0310
0000
0000
0000
,  // measure 10
1001
0000
0000
0000
1000
0000
0010
0000
1000
0000
0100
0010
0100
0000
1000
0000
,  // measure 11
0001
0100
0110
0110
1000
0001
0110
0110
,  // measure 12
0001
0000
1000
0000
0100
0000
1000
0000
0001
0000
0100
0000
0010
0000
1000
0200
,  // measure 13
0000
0000
0300
0010
0100
0000
0000
0000
1000
0000
0000
0000
0001
0000
1000
0000
,  // measure 14
2002
0000
3003
0000
,  // measure 15
2000
0000
0100
0001
3020
0000
0230
0000
,  // measure 16
0302
0000
0010
1000
0203
0000
0010
0001
,  // measure 17
0302
0000
0100
1000
0023
0000
0230
0000
,  // measure 18
2300
0000
0010
0001
3200
0000
0010
1000
,  // measure 19
2300
0000
3001
0000
0101
0001
0011
0001
,  // measure 20
0020
0000
0130
0000
1100
1000
1001
1000
,  // measure 21
0002
0000
1003
0000
1010
1000
1100
1000
,  // measure 22
0200
0000
0310
0000
0011
0001
0101
0001
,  // measure 23
2000
0000
3100
1000
0101
0001
1001
1000
,  // measure 24
0200
0000
0310
0100
1100
1000
1010
1000
,  // measure 25
0002
0000
0013
0001
1010
1000
1001
0001
,  // measure 26
0020
0000
0130
0010
0011
0001
0101
0001
,  // measure 27
2000
0100
0010
3001
0101
0100
0110
0100
,  // measure 28
0002
0010
0100
1003
1010
0010
0110
0100
,  // measure 29
0002
0100
0010
1003
1100
0100
0110
0100
,  // measure 30
2000
0010
0100
3001
0011
0010
0110
0000
,  // measure 31
1000
0010
1001
0000
0001
0100
1001
0000
,  // measure 32
0010
0010
0010
0010
0200
0000
0000
0300
,  // measure 33
1001
0000
0000
1000
0100
0000
0000
0000
1000
0000
1000
0001
0000
0100
0000
0010
,  // measure 34
0000
0000
0000
0010
1000
0000
0000
1000
0100
0010
0100
0010
0000
0001
0000
1000
,  // measure 35
0000
0000
0000
1000
0001
0000
0000
0000
0100
0000
0100
0010
0000
0100
0000
0001
,  // measure 36
0000
0010
0000
0100
0000
1000
0000
0000
0001
0000
0000
0001
1000
0000
0100
0000
,  // measure 37
1001
0000
0000
0001
0100
0000
0000
0000
0100
0000
0100
0010
0000
1000
0000
0001
,  // measure 38
0000
0000
0000
0001
1000
0000
0000
1000
0100
0010
0100
0010
0000
0001
0000
1000
,  // measure 39
0000
0000
0000
1000
0001
0000
0000
0000
0010
0000
0010
0100
0000
1000
0000
0010
,  // measure 40
0000
0100
0000
0001
0000
1000
0000
0000
0020
0000
0000
0000
0130
0000
0000
0000
,  // measure 41
2002
0000
0000
0000
,  // measure 42
3003
0000
0000
0000
;
