#TITLE:Candy & Baguette;
#SUBTITLE:;
#ARTIST:sound piercer (Ruby.G);
#TITLETRANSLIT:;
#SUBTITLETRANSLIT:;
#ARTISTTRANSLIT:;
#GENRE:;
#CREDIT:;
#BANNER:[ROUND 6] - Candy & Baguette.png;
#BACKGROUND:[ROUND 6] - Candy & Baguette-bg.png;
#LYRICSPATH:;
#CDTITLE:;
#MUSIC:[ROUND 6] - Candy & Baguette.ogg;
#OFFSET:-0.199710;
#SAMPLESTART:88.205009;
#SAMPLELENGTH:12.000000;
#SELECTABLE:YES;
#BPMS:0.000000=179.000000
;
#STOPS:
;
#BGCHANGES:;
#KEYSOUNDS:;
#ATTACKS:;

//---------------dance-single - ----------------
#NOTES:
     dance-single:
     :
     Beginner:
     2:
     0.119481,0.137240,0.015207,0.000000,0.000000,108.000000,2.000000,0.000000,0.000000,0.000000,0.000000,0.119481,0.137240,0.015207,0.000000,0.000000,108.000000,2.000000,0.000000,0.000000,0.000000,0.000000:
0000
0000
0000
0000
,
0000
0000
0000
0000
,
0000
0000
0000
0000
,
0000
0000
0000
0000
,
1000
0000
0000
0000
,
0001
0000
0000
0000
,
0100
0000
0000
0000
,
0010
0000
0000
0000
,
1000
0000
1000
0000
,
1000
0000
0000
0000
,
0001
0000
0001
0000
,
0001
0000
0000
0000
,
0100
0000
0100
0000
,
0100
0000
0000
0000
,
0010
0000
0010
0000
,
0010
0000
0000
0000
,
1000
0000
1000
0000
,
1000
0000
1000
0000
,
0100
0000
0100
0000
,
0100
0000
0100
0000
,
0010
0000
0010
0000
,
0010
0000
0010
0000
,
0001
0000
0001
0000
,
0001
0000
0000
0000
,
0100
0000
0100
0000
,
0100
0000
0100
0000
,
0010
0000
0010
0000
,
0010
0000
0010
0000
,
1000
0000
0000
0000
,
0001
0000
0000
0000
,
1000
0000
1000
0000
,
0001
0000
0001
0000
,
1000
0000
0000
0000
,
0100
0000
0000
0000
,
0010
0000
0000
0000
,
0001
0000
0000
0000
,
0100
0000
0000
0000
,
0010
0000
0000
0000
,
1000
0000
0000
0000
,
0001
0000
0000
0000
,
1000
0000
0000
0000
,
0100
0000
0000
0000
,
0010
0000
0000
0000
,
0001
0000
0000
0000
,
0100
0000
0000
0000
,
0010
0000
0000
0000
,
1000
0000
0000
0000
,
0001
0000
0000
0000
,
1000
0000
0000
0000
,
0000
0000
0000
0000
,
0100
0000
0000
0000
,
0000
0000
0000
0000
,
0010
0000
0000
0000
,
0000
0000
0000
0000
,
0001
0000
0000
0000
,
0000
0000
0000
0000
,
1000
0000
0000
0000
,
1000
0000
0000
0000
,
0001
0000
0000
0000
,
0001
0000
0000
0000
,
0100
0000
0100
0000
,
0010
0000
0010
0000
,
1000
0000
1000
0000
,
0001
0000
0001
0000
,
1001
0000
0000
0000
,
0000
0000
0000
0000
,
1000
0000
0000
0000
,
0001
0000
0001
0000
,
0100
0000
0000
0000
,
0000
0000
0000
0000
,
0010
0000
0000
0000
,
1000
0000
1000
0000
,
0001
0000
0000
0000
,
0100
0000
0000
0000
,
0001
0000
0000
0000
,
1000
0000
1000
0000
,
0100
0000
0000
0000
,
0010
0000
0000
0000
,
0010
0000
0000
0000
,
0100
0000
0100
0000
,
1000
0000
1000
0000
,
0001
0000
0000
0000
,
1000
0000
0000
0000
,
0000
0000
0000
0000
,
0001
0000
0000
0000
,
0000
0000
0000
0000
,
0100
0000
0100
0000
,
0010
0000
0010
0000
,
1000
0000
1000
0000
,
0001
0000
0000
0000
,
0000
1001
0000
0000
;

//---------------dance-single - ----------------
#NOTES:
     dance-single:
     :
     Easy:
     5:
     0.318254,0.455916,0.083637,0.060827,0.000000,274.000000,11.000000,8.000000,0.000000,0.000000,0.000000,0.318254,0.455916,0.083637,0.060827,0.000000,274.000000,11.000000,8.000000,0.000000,0.000000,0.000000:
0000
0000
0000
0000
,
0000
0000
0000
0000
,
0000
0000
0000
0000
,
0000
0000
0000
0000
,
1000
0000
1000
0000
,
0001
0000
0100
0100
,
0010
0000
0100
0000
,
0100
0000
0001
0001
,
1000
0000
1000
0100
,
1000
0000
0001
0000
,
0001
0000
0100
0001
,
0100
0000
0010
0010
,
0100
0000
0001
0000
,
0010
0000
0100
0000
,
1000
0000
1000
0000
,
0001
0000
0001
0000
,
1000
1000
0100
0000
,
1000
1000
0001
0000
,
0100
0100
0010
0000
,
0100
0100
0001
0000
,
0010
0010
0001
0000
,
0100
0100
0001
0000
,
1000
0100
1000
0000
,
0001
0100
0001
0000
,
1000
1000
0010
0010
,
0100
0100
0001
0000
,
0001
0001
0010
0010
,
0100
0100
1000
0000
,
1000
0000
0000
2000
0000
0000
3000
0000
,
0001
0000
0000
0002
0000
0000
0003
0000
,
0100
0100
0010
0010
,
0100
0100
0010
0000
,
1000
1000
0100
0100
,
1000
0001
1000
0001
,
0100
0100
0001
0001
,
1000
0001
1000
0001
,
0010
0010
0001
0001
,
1000
0010
1000
0010
,
0100
0100
0001
0001
,
0010
0001
0100
0010
,
1000
0100
1000
0001
,
0100
0001
1000
0000
,
1000
0010
0100
0001
,
0010
0100
1000
0000
,
0001
0100
0010
1000
,
0100
1000
0010
0100
,
0001
0010
0100
1000
,
0100
1000
0001
0100
,
0020
0000
1000
0000
,
1000
0000
1030
0000
,
2000
0000
0100
0000
,
0100
0000
3100
0000
,
0200
0000
0010
0000
,
0010
0000
0310
0000
,
0020
0000
0001
0000
,
0001
0000
0031
0000
,
1001
0000
0001
0000
,
1000
1000
0001
0000
,
0110
0000
0010
0000
,
0100
0100
0010
0000
,
1001
1000
0100
0000
,
1001
0001
0100
0000
,
1010
0100
0011
0100
,
1001
0100
0110
0110
,
1001
0000
0000
0000
,
0100
0100
0000
0010
,
0010
1000
0100
1000
,
0001
0100
0001
1000
,
0010
1000
0001
0010
,
0001
0100
0010
0000
,
0010
0100
0010
0100
,
0001
1000
0001
1000
,
0100
1000
0001
0100
,
0001
0000
0000
0001
0000
0001
0000
0000
,
1000
0100
1000
0010
,
0100
0010
0100
0001
,
0010
0001
0100
0100
,
0010
0010
1000
0001
,
1000
0000
1000
0000
,
0100
1000
0010
0100
,
0001
0000
0001
0000
,
0010
0000
0001
0100
,
0010
0010
0100
0100
,
0001
0001
1000
1000
,
0100
1000
0010
1000
,
0100
1000
0010
0100
,
0001
0010
0001
0100
,
0010
0100
0001
1000
,
0100
1000
0010
0100
,
0001
0000
0010
0100
,
0010
2002
0000
0000
,
0000
0000
0000
0000
,
0000
3003
0000
0000
;

//---------------dance-single - ----------------
#NOTES:
     dance-single:
     :
     Medium:
     6:
     0.393202,0.420845,0.228100,0.076033,0.000000,322.000000,30.000000,10.000000,0.000000,0.000000,0.000000,0.393202,0.420845,0.228100,0.076033,0.000000,322.000000,30.000000,10.000000,0.000000,0.000000,0.000000:
0000
0000
0000
0000
,
0000
0000
0000
0000
,
0000
0000
0000
0000
,
0000
0000
0000
0000
,
1000
0000
1000
0100
0000
0100
0010
0000
,
0010
0001
0000
0001
0100
0000
0101
0000
,
0100
0000
0100
0010
0000
0010
1000
0000
,
1000
0100
0000
0100
0010
0000
0001
0000
,
1000
0010
0100
0001
,
0100
0000
0010
0000
1000
0000
0001
0001
,
1000
0100
1000
0010
,
0100
0000
0001
0000
0010
0000
0100
0100
,
1000
0001
0100
0001
,
1000
0010
1000
0001
,
0010
0000
0000
0001
0000
0100
0000
0010
,
0000
0010
0000
0100
0000
0000
1001
0000
,
1000
0000
0100
0000
1000
0000
0000
0001
,
0000
0100
0001
0010
,
0001
0000
0100
0000
0010
0000
0000
1000
,
0000
0100
0010
0001
,
0100
0000
0010
0000
0100
0000
0000
0001
,
0000
1000
0100
1000
,
0010
0000
0000
0100
0000
0000
0001
0000
,
0001
0010
0100
1000
,
0001
0000
0100
0000
0010
0000
0000
1000
,
0000
0010
1000
0100
,
0010
0000
0100
0000
1000
0000
0000
0001
,
0000
0100
0001
1000
,
0100
0000
0000
2002
0000
0000
3003
0000
,
0010
0000
0000
2002
0000
0000
3003
0000
,
0010
1000
0100
1000
,
0001
0001
0001
0100
,
0010
0010
1000
0100
,
1000
0001
0100
0010
,
0100
0001
0010
0100
,
1000
0000
0000
0001
0000
0000
1000
0000
,
0001
0100
0010
0100
,
0001
0010
0100
1000
,
0100
0010
0001
0100
,
0010
0010
0000
1001
0000
2002
0000
3003
,
1001
0001
0100
0010
,
0100
0001
0010
0100
,
1000
0000
0100
0000
0010
0000
0000
0001
,
1000
0000
1000
0001
0000
1000
0000
1000
,
0100
0010
0001
0100
,
0010
0100
0001
1000
,
0100
1000
0001
0010
,
0001
0100
0010
0100
,
0001
0000
0000
1000
0000
0000
0100
0000
,
1000
0000
0000
0001
0000
0000
0010
0000
,
0001
0000
0000
0100
0000
0000
0010
0000
,
0100
0000
0000
0001
0000
0000
0010
0000
,
0100
0000
0000
1000
0000
0000
0010
0000
,
0100
0000
0000
0001
0000
0000
1000
0000
,
0100
0000
0000
1000
0000
0000
0001
0000
,
0010
0000
0000
0001
0000
0000
0100
0000
,
0110
0000
0000
0010
0000
0000
1000
0000
,
0100
0000
0000
1000
0000
0000
0010
0000
,
0101
0000
0000
0001
0000
0000
0100
0000
,
0010
0000
0000
1000
0000
0000
0100
0000
,
0011
0000
0100
1000
,
1010
0000
0100
0001
,
0011
0000
1100
0000
,
0011
1100
1010
0101
,
2002
0000
0000
0000
,
0000
0000
0000
3003
0000
1000
0001
0100
,
0010
0010
0100
0001
,
0010
0000
0100
1000
0000
1000
0001
0000
,
0100
0010
0100
0001
,
0010
0100
1000
0100
,
0001
0000
0100
1000
0000
1000
0001
0000
,
0100
0010
0100
0001
,
0010
0100
1000
0100
,
0010
0100
0000
1000
0000
1000
0000
0000
,
0001
0100
0010
0100
,
0001
0010
0100
1000
,
0100
0000
0010
0000
0001
0000
0000
0100
,
0001
0001
0010
0001
,
1000
0001
1000
0001
,
0100
0010
0100
0010
,
1000
0010
1000
0010
,
0100
0000
0001
0000
,
1000
1100
0001
0101
,
1000
1010
0001
0011
,
1000
0110
0001
0110
,
0010
1001
0100
1001
,
1100
0000
0101
0000
1000
1000
0000
0001
,
0000
0100
0100
0000
0010
0000
1001
0000
,
0001
0000
0010
0000
0100
0100
0000
1000
,
0000
0000
0000
0010
0100
0001
0000
0100
,
0000
2002
0000
0000
,
0000
0000
0000
0000
,
0000
3003
0000
0000
;

//---------------dance-single - ----------------
#NOTES:
     dance-single:
     :
     Hard:
     8:
     0.528976,0.561127,0.349754,0.121654,0.007603,425.000000,46.000000,16.000000,0.000000,0.000000,0.000000,0.528976,0.561127,0.349754,0.121654,0.007603,425.000000,46.000000,16.000000,0.000000,0.000000,0.000000:
0000
0000
0000
0000
,
0000
0000
0000
0000
,
0000
0000
0000
0000
,
0000
0000
0000
0000
,
1000
0100
0010
0001
0100
0010
1000
0100
,
0010
0001
0100
0010
1001
0000
1001
0000
,
0001
0100
0010
1000
0100
0010
0001
0100
,
0010
1000
0100
0010
0001
1000
0000
1000
,
0001
0100
0001
0010
,
0100
0000
1000
0000
0100
0000
0010
0001
,
0100
0010
0100
0001
,
1000
0000
0100
0000
1000
0000
0001
0100
,
0010
1100
0010
0101
,
0001
0000
1100
0000
1000
0000
0001
0001
,
0100
0100
0000
0110
0000
1010
0000
1100
,
0000
1001
0000
0202
0000
0000
0303
0000
,
0001
0000
0100
0000
0010
1000
0100
0010
,
0100
1000
0001
0001
,
1000
0000
0010
0000
0100
0001
0010
0100
,
1000
0001
1000
1000
,
0010
0000
0100
0000
0001
0010
0100
1000
,
0100
0010
0001
0001
,
1000
0010
0100
0001
0000
0010
0100
0001
,
0100
1000
0001
0001
,
0100
0000
0100
0000
0010
1000
0100
0010
,
0000
0001
0100
0010
1000
0000
1000
0000
,
0001
0010
0100
1000
0000
0100
0010
0001
,
0000
0100
0010
0100
0001
0000
0001
0000
,
1000
0100
0010
2002
0000
0000
3003
0000
,
0001
0100
0010
2002
0000
0003
3010
0000
,
1000
0010
0010
0001
0010
0010
1000
0100
,
0100
0001
0000
0100
0000
1000
0001
0000
,
1010
0000
0010
1000
0000
1000
0100
0010
,
0001
0000
0100
0010
0000
0010
0100
0001
,
0010
0000
0100
0100
1000
0000
0010
0000
,
0101
0000
0000
1100
0000
0000
1001
0000
,
0001
0000
0100
0010
0000
1000
0100
1000
,
0010
0100
0000
0001
0000
1000
0100
0000
,
0010
0000
0000
0010
0001
0000
0100
0000
,
0010
0010
0000
1001
0000
2002
0000
3003
,
0110
0001
0000
0001
0000
1000
0100
1000
,
0001
0000
1000
0100
0000
0100
1000
0010
,
0100
0000
0000
0000
0001
0000
0000
0000
0010
0000
0000
0100
0000
0000
0001
0000
,
0100
0000
1000
0001
0000
0100
0000
0100
,
0010
0000
1000
0100
1000
0000
0001
0000
,
0100
0000
0010
0100
0001
0000
0100
0000
,
1001
0100
1001
0010
,
0110
0000
0000
0101
0000
0000
1100
0000
,
1001
0000
0001
0100
0000
0100
0010
0000
,
1000
0100
0000
1000
0000
0001
0100
0000
,
0010
0000
1000
0100
0000
0010
0001
0000
,
0100
0010
0000
0100
0000
0001
1000
0000
,
0100
0000
1000
0010
0000
0100
0001
0000
,
0010
0001
0000
0100
0000
0010
1000
0000
,
0100
0000
1000
0001
0000
0100
0001
0000
,
1000
0100
0000
1000
0000
0001
1000
0000
,
1000
0100
0010
0001
0020
0000
0000
0130
,
1000
0100
0020
0000
0001
0000
0031
0000
,
0001
0100
0010
1000
0020
0000
0000
0130
,
0001
0100
0020
0000
1000
0000
1030
0000
,
1001
0100
0010
0100
0010
0000
0100
0000
,
0101
0001
0100
0010
0100
0000
0001
0000
,
1100
1000
0100
0000
1001
0001
0100
0000
,
0101
0000
0000
1100
0000
0000
0101
0000
,
2002
0000
0000
3003
,
1001
0000
1001
0000
0000
0001
0100
0010
,
0100
0001
1000
0100
,
1000
0000
0010
0100
0000
0100
0001
0000
,
0010
0100
0001
0100
,
1000
0101
1100
1001
,
0001
0000
0100
0010
0000
0010
1000
0000
,
0100
0000
1000
0010
0000
0010
0100
0000
,
0001
0010
0100
1000
,
0001
0001
0000
1100
0000
1010
0000
0100
,
0001
1000
0100
1000
,
0010
0100
0001
0010
,
0100
0000
0000
0000
1000
0000
0000
0000
0010
0000
0000
0100
0000
0000
0001
0000
,
0001
0000
0010
0000
0100
1000
0000
1000
,
0001
0100
0010
0100
,
0001
0000
0010
0000
0100
0001
0100
1000
,
0001
0100
0010
0100
,
0001
0000
0000
1000
0100
0010
0000
0100
,
0000
0100
1000
0000
0001
0000
0001
0000
,
0100
0100
0010
0010
,
1000
1000
0100
0100
,
0010
0010
0001
0001
,
1100
0000
1001
0000
0001
0001
0000
0100
,
0000
0010
0010
0000
1010
0000
0101
0000
,
0001
0000
0001
0000
0010
0100
0000
1001
,
0000
0000
0000
0001
0100
0010
0000
0100
,
0010
2002
0000
0000
,
0000
0000
0000
0000
,
0000
3003
0000
0000
;

//---------------dance-single - ----------------
#NOTES:
     dance-single:
     :
     Challenge:
     9:
     0.619130,0.736479,0.547441,0.121654,0.053223,482.000000,72.000000,16.000000,0.000000,0.000000,0.000000,0.619130,0.736479,0.547441,0.121654,0.053223,482.000000,72.000000,16.000000,0.000000,0.000000,0.000000:
// measure 0
0000
0000
0000
0000
,  // measure 1
0000
0000
0000
0000
,  // measure 2
0000
0000
0000
0000
,  // measure 3
0000
0000
0000
0000
,  // measure 4
1000
0100
0001
1000
0010
0001
1000
0100
,  // measure 5
0001
1000
0010
0001
0011
0000
1100
0000
,  // measure 6
0001
0100
1000
0001
0010
1000
0001
0100
,  // measure 7
1000
0001
0010
1000
0001
0100
0000
0100
,  // measure 8
0010
0000
1001
0000
0001
0100
0010
1000
,  // measure 9
0100
0000
1000
0000
0010
0000
0100
0001
,  // measure 10
0100
0000
0010
0000
1000
0100
0001
0100
,  // measure 11
1000
0001
0000
0100
0000
0100
0001
0100
,  // measure 12
0010
1001
0100
1001
,  // measure 13
0010
1100
0010
0101
,  // measure 14
1000
0100
0000
0010
0000
0001
0000
0100
,  // measure 15
0000
0010
0000
1001
0000
0000
0000
0000
,  // measure 16
1000
0000
0100
0000
1000
0010
0100
0001
,  // measure 17
0010
0100
0001
0100
,  // measure 18
1000
0000
0001
0000
0100
1000
0100
0001
,  // measure 19
1000
0010
0100
0001
,  // measure 20
0010
0000
0100
0000
0001
0100
1000
0010
,  // measure 21
1000
0001
0010
1000
,  // measure 22
0010
0001
1000
0010
0000
0001
0010
1000
,  // measure 23
0001
0010
0100
0100
,  // measure 24
1100
0000
0011
0000
0001
0100
0010
1000
,  // measure 25
0000
1000
0010
0100
0001
0000
0010
0000
,  // measure 26
1100
0100
0010
0001
0000
0100
0010
1000
,  // measure 27
0000
1000
0100
0010
0001
0000
0100
0000
,  // measure 28
0001
0000
0100
0001
0100
0000
0202
0000
0000
0000
0000
0000
0000
0000
0303
0000
,  // measure 29
0010
0000
1000
0010
1000
0000
2020
0000
0000
0000
0000
0000
0000
0000
3030
0000
,  // measure 30
1000
0100
1000
0100
1000
0000
0001
0100
0001
0100
0001
0000
1000
0001
1000
0001
,  // measure 31
1000
1000
0000
0001
0000
1100
1001
0000
,  // measure 32
0101
0000
0001
0010
0100
0001
0100
1000
,  // measure 33
0001
0000
1000
0010
0100
0001
0010
0100
,  // measure 34
1000
0000
0001
1000
0010
0100
0001
0100
,  // measure 35
1010
0000
0000
0101
0000
0000
1001
0000
,  // measure 36
0001
0000
0010
0100
0001
0100
1000
0001
,  // measure 37
1000
0010
0000
0100
1000
0100
0001
1000
,  // measure 38
0100
0000
1000
0010
0001
0010
1000
0001
,  // measure 39
0011
1100
0000
1001
0000
0110
0000
0000
,  // measure 40
1010
0000
0010
0100
0001
0010
0100
0001
,  // measure 41
0100
0000
1000
0010
0100
0001
0010
0100
,  // measure 42
1000
0000
0000
0000
0001
0000
0000
0000
1010
0000
0000
1100
0000
0000
1001
0000
,  // measure 43
1001
0000
0000
0110
0000
0001
0100
0010
,  // measure 44
0100
0000
0001
1000
0100
1000
0001
0100
,  // measure 45
0110
0000
0010
0100
0001
0010
0100
1000
,  // measure 46
1100
0000
0100
1000
1010
0000
0010
0100
,  // measure 47
0100
0010
0100
0000
0001
0000
0100
0010
0100
0000
0001
0000
1000
0100
0010
0001
,  // measure 48
1000
1000
0100
0010
0001
0010
0000
0100
,  // measure 49
1000
0100
0010
0001
0000
0001
0100
0010
,  // measure 50
1000
0000
1000
0001
0000
0001
0100
0000
,  // measure 51
0010
0100
0000
0001
0000
0001
0010
0000
,  // measure 52
0100
1000
0100
0010
0001
0100
0000
0100
,  // measure 53
0010
0100
0001
0010
0000
0010
0100
0001
,  // measure 54
0100
0000
0100
1000
0000
1000
0001
0100
,  // measure 55
0010
0010
0000
0100
0000
0100
0001
0010
,  // measure 56
1100
0100
0010
0001
0010
0000
0000
0100
,  // measure 57
0010
0001
0020
0000
1000
0000
1030
0000
,  // measure 58
0011
0001
0100
0010
1000
0000
0000
0001
,  // measure 59
0100
0010
2000
0000
0001
0000
3001
0000
,  // measure 60
1100
0100
0010
0100
1100
0000
0100
0000
,  // measure 61
0110
0010
0001
0010
0110
0000
0010
0000
,  // measure 62
0011
0001
0100
0000
0110
0010
1000
0000
,  // measure 63
1100
1001
0101
1001
,  // measure 64
0220
0000
0000
0330
,  // measure 65
1001
0000
1001
0000
0000
0001
0100
0010
,  // measure 66
1000
0100
1000
0010
,  // measure 67
0100
0001
0100
0010
0000
0010
1000
0000
,  // measure 68
0100
1000
0010
0100
,  // measure 69
0001
0000
0010
0000
0100
0001
0100
1000
,  // measure 70
0001
0000
1000
0100
0000
0100
1000
0000
,  // measure 71
0001
0000
0100
0010
0000
0010
0100
0000
,  // measure 72
0001
0010
0100
1000
,  // measure 73
0011
1100
0000
1010
0000
0101
0000
1001
,  // measure 74
1001
0000
0001
0010
0000
0100
0001
0100
,  // measure 75
1000
0000
1000
0001
0100
0000
0010
0000
,  // measure 76
1000
0000
0000
0000
0001
0000
0000
0000
1001
0000
0000
1100
0000
0000
0110
0000
,  // measure 77
1001
0000
0011
0000
1100
0001
0100
0010
,  // measure 78
1001
1100
0002
0203
,  // measure 79
0320
0000
1030
0000
0100
0000
1000
0010
,  // measure 80
0110
0001
1001
1000
,  // measure 81
1001
0000
0001
0100
0010
1000
0000
0100
,  // measure 82
0000
1000
0010
0000
0100
0000
0001
0000
,  // measure 83
1000
0000
0100
0000
1000
0000
0001
0001
,  // measure 84
1000
0020
0230
0302
,  // measure 85
0013
0100
0000
1000
0000
0001
0000
0000
,  // measure 86
1100
0000
0001
0000
1010
0001
0000
1000
,  // measure 87
0000
1000
0001
0000
0101
0000
1001
0000
,  // measure 88
0011
0000
0100
0000
0110
0010
0000
1001
,  // measure 89
0000
0000
0000
0010
1000
0100
0000
0010
,  // measure 90
0100
2002
0000
0000
,  // measure 91
0000
0000
0000
0000
,  // measure 92
0000
3003
0000
0000
;
