#TITLE:Zauberkugel;
#SUBTITLE:;
#ARTIST:xi;
#TITLETRANSLIT:;
#SUBTITLETRANSLIT:;
#ARTISTTRANSLIT:;
#GENRE:;
#CREDIT:;
#BANNER:bn.png;
#BACKGROUND:bg.png;
#LYRICSPATH:;
#CDTITLE:;
#MUSIC:Zauberkugel.ogg;
#OFFSET:-10.280001;
#SAMPLESTART:86.090622;
#SAMPLELENGTH:21.107491;
#SELECTABLE:YES;
#BPMS:0.000000=153.500000
;
#STOPS:
;
#BGCHANGES:;
#KEYSOUNDS:;
#ATTACKS:;

//---------------dance-single - ----------------
#NOTES:
     dance-single:
     :
     Challenge:
     10:
     0.791383,0.942039,0.682540,0.111111,0.789683,598.000000,86.000000,14.000000,0.000000,0.000000,0.000000,0.791383,0.942039,0.682540,0.111111,0.789683,598.000000,86.000000,14.000000,0.000000,0.000000,0.000000:
0001
0000
0000
0001
0100
0000
0010
0000
0100
0000
0001
0000
1000
0000
0000
1000
,
0100
0000
0010
0000
0100
0000
0001
0000
0100
0000
0000
0100
0010
0000
0001
0000
,
0100
0000
1000
0000
0100
0000
0000
0100
0001
0000
1000
0000
0100
0000
0010
0000
,
0001
0000
0000
0001
0100
0000
0010
0000
1000
0000
0000
0001
0000
0000
0010
0001
,
0010
0000
0000
0000
0100
0000
0000
0000
0010
0000
0000
0000
0100
0000
0000
0000
0000
0000
1000
0000
0000
0000
0000
0000
0001
0000
0000
0000
0000
0000
0000
0000
0000
0100
0000
0000
0001
0000
0000
0000
0000
0000
0010
0000
0000
0000
0000
0000
,
0100
0000
1000
0000
0001
0100
0010
1000
0100
0010
0001
0100
0020
0000
0230
0000
,
0301
0001
0000
0000
0000
0000
1000
1000
0000
0000
0000
0000
0200
0000
0320
0000
,
0130
1000
0100
1000
0001
0100
0001
0100
0010
0000
1000
0000
1001
0000
0000
0010
,
0001
0000
0100
0000
0010
0000
1000
0000
1100
0000
0000
1000
0001
0000
0100
0000
,
0010
0000
0100
0000
0001
0000
0010
0000
0100
1000
0000
1100
0000
0000
0011
0000
,
0000
0000
0001
0000
0100
0000
0010
0000
1010
0000
0000
0110
0000
0000
0101
0000
,
0000
1000
0100
1000
0100
0000
0010
0000
0011
0000
0000
1100
0000
0000
1001
0000
,
0000
0000
0001
0000
0100
0000
0010
0000
1010
0000
1000
0001
0000
0011
0000
0011
,
0000
0010
0100
1000
0000
0000
1100
0000
0000
0000
1000
0000
0001
0000
0100
0000
,
0010
1000
0000
1000
0010
0100
0010
0100
0001
0000
0010
0000
0100
1000
0100
1000
,
0010
0100
0000
0110
0000
0101
0000
1001
0000
0000
1000
0000
0001
0000
0010
0000
,
0100
0000
1000
0000
0010
0000
0100
0000
0001
0000
0000
0001
0010
0000
0001
0000
,
0100
0000
0010
0000
1000
0000
0100
0000
0010
0001
0000
0011
0000
0000
1100
0000
,
0000
0000
1000
0000
0100
0000
0001
0000
0101
0000
0000
0110
0000
0000
1010
0000
,
0000
0000
0010
0000
0001
0000
0100
0000
1010
0000
0000
0101
0000
0000
0100
0000
,
0110
0000
0000
0110
0000
0000
1000
0000
0001
0010
0100
0000
1100
0000
0000
1100
,
0000
0000
0010
0000
0100
0001
1000
0000
1010
0000
0000
1010
0000
0000
0100
0000
,
0010
0000
0000
1000
0000
0000
0001
0000
0000
0000
0000
0000
0100
0000
0000
0000
0000
0000
0010
0000
0000
0000
0000
0000
1000
0000
0000
0000
0000
0000
0001
0000
0010
0000
0001
0000
0010
0000
0000
0100
0000
0000
1000
0000
0000
0000
0000
0000
,
1100
0000
0000
0011
0000
0000
0001
0000
0100
0010
1000
0000
1010
0000
0000
0101
,
0000
0000
0100
0000
0001
0010
0100
0000
1001
0000
0000
1001
0000
0000
0100
0000
,
0010
0000
0000
0000
0000
0000
0001
0000
0000
0000
0000
0000
0100
0000
0000
0000
0000
0000
0010
0000
0000
0000
0000
0000
1000
0000
0000
0000
0000
0000
0100
0000
0010
0000
0100
0000
0010
0000
0000
0001
0000
0000
0010
0000
0000
0001
0000
0000
,
1000
0000
0000
1000
0001
0000
0100
0000
0010
1000
0010
0000
0100
0000
0000
0100
,
0001
0000
0010
0000
0100
1000
0100
0000
1000
0000
0000
1000
0001
0000
0100
0000
,
0010
0000
0000
1000
0000
0000
0010
0000
0000
0000
0000
0000
0100
0000
0000
0000
0000
0000
0001
0000
0000
0000
0000
0000
0010
0000
0000
0000
0100
0000
0000
0000
1000
0000
0000
0000
0001
0000
0000
0000
0000
0000
0000
0000
0000
1000
0000
0000
,
0100
0000
0010
0000
0001
0100
0010
0000
0100
0000
0000
0001
0010
0000
0100
0000
,
0010
0001
1000
0000
1010
0000
0100
0001
0000
0010
0100
0000
1000
0100
0000
0001
,
0100
0000
0010
0001
0000
1000
0010
0000
0100
0001
0000
1000
0010
0000
0100
0000
,
0002
0000
0000
0010
0000
0000
1000
0000
0000
0000
1000
0000
0010
0000
0100
0000
,
0003
0001
0000
0010
0000
0110
0000
0100
,
1100
0000
0000
1000
0001
1000
0001
0000
0000
0000
1000
0100
1000
0001
0010
0001
,
0100
1020
0000
0032
0000
0203
0000
1300
,
0001
0000
0000
0001
0100
0000
0010
0000
0000
0000
1000
0000
0001
0010
0100
0000
,
1000
0000
0000
0000
0000
0000
0000
0010
1000
0000
0000
0000
0000
0000
0000
0000
0000
0000
0000
0000
0100
0000
0000
0000
0001
0000
0000
0000
0000
0000
0000
0000
0010
0000
0000
0000
0000
0000
0000
0000
0100
0000
0000
0000
0000
0000
0000
0000
1000
0000
0000
0000
0000
0000
0000
0000
0001
0000
0000
0000
0000
0000
0000
0000
,
0010
0000
0000
0100
0000
0000
1000
0000
0000
0010
0000
0000
0100
0000
0000
0001
0000
0000
0010
0000
0000
0100
0000
0000
1000
0000
0000
0100
0000
0000
0010
0000
0001
0000
0010
0000
0001
0000
0000
0100
0000
0000
0010
0000
0000
1000
0000
0000
,
0001
0010
0002
0000
1003
0010
0100
0001
0010
0100
0010
0100
1000
0001
2000
0000
,
3001
0000
0000
0000
0000
0000
0000
0000
0000
0001
0000
0000
0100
0000
0000
0000
0000
0000
0010
0000
0000
0000
0000
0000
0000
0000
0000
0000
0000
0000
1000
0000
0000
0000
0000
0000
0001
0000
0010
0000
0001
0000
0010
0000
0000
0000
0000
0000
,
0100
0000
0000
1100
0000
0000
0011
0000
0000
0000
0101
0000
0000
0000
1001
0000
,
0000
0000
0000
0000
0000
0000
0000
0000
0000
0000
0000
0000
0000
0000
0000
0000
0000
0000
0000
0000
0000
0000
0000
0000
1000
0000
0000
0000
0000
0000
0000
0000
0000
0000
0000
0000
0001
0000
0000
0000
0000
0000
0000
0000
0000
0000
0000
0000
0000
0000
0000
0000
0000
0000
0100
0000
0000
0000
0000
0000
0000
0000
0000
0000
0000
0000
0000
0000
0000
0000
0000
0000
0000
0000
0000
0000
0000
0000
0000
0000
0010
0000
0000
0000
0000
0000
0000
0000
0000
0000
0000
0000
0000
0000
0000
0000
0000
0000
0000
0000
0000
0000
0000
0000
0000
0000
0000
0000
0000
0000
0000
0000
0000
0000
0000
0000
0000
0000
0000
0000
1000
0000
0000
0000
0000
0000
0000
0000
0000
0000
0000
0000
0000
0000
0000
0000
0000
0000
0000
0000
0000
0000
0000
0000
0010
0000
0000
0000
0000
0000
0000
0000
0000
0000
0000
0000
0000
0000
0000
0000
0000
0000
0000
0000
0000
0000
0000
0000
0100
0000
0000
0000
0000
0000
0000
0000
0000
0000
0000
0000
0001
0000
0000
0000
0000
0000
0000
0000
0000
0000
0000
0000
,
0100
0000
0000
0000
0000
0000
0010
0000
0000
0000
0000
0000
1000
0000
0000
0000
0100
0000
0000
0000
1000
0000
0000
0000
0000
0000
0000
0000
0001
0000
0000
0000
0000
0010
0000
0000
0001
0000
0000
1000
0000
0000
0000
0000
0000
1000
0000
0000
,
0010
0000
0000
0210
0000
0000
0301
0000
0010
0000
0100
1000
0000
0000
1001
0000
,
0000
0000
0010
0000
0100
0000
0001
0000
0011
0000
0000
1100
0000
0000
1001
0000
,
0001
0000
0010
0000
0100
0000
1000
0000
0001
0000
0200
0000
0310
1000
0010
1000
,
0001
0001
0000
0000
0000
0000
0010
0010
0000
0000
0100
1000
0100
1000
0000
1000
,
0001
0000
0010
0001
1000
0100
0000
0000
0100
1000
0010
0100
0000
0100
0001
0010
,
0100
1000
0000
0010
0000
0100
0000
0001
0000
0010
0000
0100
1000
0000
0001
0000
,
1001
0000
1000
0000
0001
0000
0100
0000
0010
0000
0000
0100
0001
0000
1000
0000
,
0100
0000
0010
0000
0001
0000
0010
0000
0100
1000
0000
1001
0000
0000
0110
0000
,
0000
0000
0010
0000
0100
0000
0001
0000
0011
0000
0000
0110
0000
0000
1100
0000
,
0000
0000
1000
0000
0001
0000
0100
0000
1010
0000
0000
0101
0000
0000
1001
0000
,
0000
0000
1000
0000
0100
0000
0010
0000
0001
0000
1000
0100
0000
1100
0000
1100
,
0000
1000
0100
0010
0000
0000
0011
0000
0000
0000
0001
0000
1000
0000
0100
0000
,
0010
0001
0000
0001
0100
0010
0100
0010
1000
0000
0001
0000
0010
0001
0010
0001
,
0100
0010
0000
0110
0000
1010
0000
0101
0000
0000
1000
0000
0001
0000
0000
0001
,
1000
0000
0010
0000
0100
0000
0001
0000
0010
0000
0000
0010
0001
0000
0100
0000
,
0010
0000
1000
0000
0001
0000
0010
0000
0100
0010
0000
0110
0000
0000
1001
0000
,
0000
0000
0001
0000
0010
0000
0100
0000
1100
0000
0000
1010
0000
0000
0101
0000
,
0000
0000
1000
0100
1000
0000
0001
0000
0101
0000
0000
0110
0000
0000
1010
0000
,
0000
0000
1000
0001
1000
0000
0100
0000
0011
0000
0001
1000
0000
1100
0000
1001
,
0000
0001
0100
0010
0000
0000
1010
0000
0000
0000
0010
0000
0100
0000
0001
0000
,
0010
0100
0000
0010
0100
1000
0100
1000
0001
0000
0100
0000
0010
1000
0010
1000
,
0001
0010
0000
0011
0000
1100
0000
1001
0000
0000
0001
0000
0100
0000
0010
0000
,
1000
0000
0010
0000
0100
0000
0001
0000
0010
0000
0000
0001
1000
0000
0010
0000
,
0100
0000
0001
0000
0010
0000
0001
0000
0100
0010
0000
1010
0000
0000
0101
0000
,
0000
0000
0010
0000
0100
0000
0001
0000
0011
0000
0000
1100
0000
0000
1001
0000
,
0000
1000
0010
0100
0001
0010
0100
1000
0001
0000
0000
1001
0000
0000
0220
0000
,
0000
0000
0000
0000
,
0000
0000
0000
0000
0000
0000
0000
0000
0000
0000
0000
0000
0000
0000
0000
0330
;

//---------------dance-single - ----------------
#NOTES:
     dance-single:
     :
     Hard:
     9:
     0.568027,0.570933,0.309524,0.063492,0.357143,454.000000,39.000000,8.000000,0.000000,0.000000,0.000000,0.568027,0.570933,0.309524,0.063492,0.357143,454.000000,39.000000,8.000000,0.000000,0.000000,0.000000:
1000
0000
0000
1010
0000
0000
0010
0000
0100
0000
0001
0000
0010
0000
0000
0011
,
0000
0000
0100
0000
1000
0000
0001
0000
0100
0000
0000
0110
0000
0000
0100
0000
,
0010
0000
1000
0000
0001
0000
0000
1001
0000
0000
0001
0000
0010
0000
0100
0000
,
1000
0000
0000
1100
0000
0000
1000
0000
0010
0000
0100
0000
0000
0000
0100
0000
,
0001
0000
0000
0000
0010
0000
0000
0000
0001
0000
0000
0000
0010
0000
0000
0000
0000
0000
0100
0000
0000
0000
0000
0000
1000
0000
0000
0000
0000
0000
0000
0000
0000
1001
0000
0000
0000
0000
0000
0000
0000
0000
0010
0000
0000
0000
0000
0000
,
0100
0001
0010
0100
1000
0001
0100
0010
,
0110
0000
0000
0101
0000
0000
1001
0000
,
1000
0010
0100
0001
1000
0001
1001
0000
,
1000
0000
0010
0000
0100
0000
0001
0000
0100
0000
0000
0010
0000
0000
1000
0000
,
0000
0000
0001
0000
0010
0000
0000
0000
0010
0001
0000
0100
0000
0000
0010
0000
,
0000
0000
1000
0000
0100
0000
0010
0000
0100
0000
0000
1000
0000
0000
1001
0000
,
0000
0000
0001
0000
0100
0000
0010
0000
1000
0000
0000
0100
0000
0000
0110
0000
,
0000
0000
0010
0000
0001
0000
0100
0000
0010
0000
1000
0010
0000
0100
0000
0001
,
0000
0000
0000
1000
0000
0000
0100
0000
0000
0000
0010
0000
0001
0000
0100
0000
,
0010
0000
0100
0001
1000
0100
0010
0100
,
1000
0001
0000
1000
0000
0001
0000
0100
0000
0000
0010
0000
0100
0000
0000
0000
,
0001
0000
0100
0000
0010
0000
0100
0000
0001
0000
0000
1000
0000
0000
0100
0000
,
0000
0000
0010
0000
0100
0000
0000
0000
0010
0100
0000
1000
0000
0000
0001
0000
,
0000
0000
0100
0000
0010
0000
1000
0000
0001
0000
0000
0010
0000
0000
0011
0000
,
0000
0000
0100
0000
1000
0000
0100
0000
0010
0000
0000
0010
1000
0000
0001
0000
,
1000
0000
0000
1000
0000
0000
0010
0000
0100
0000
1000
0000
0100
0000
0000
0100
,
0000
0000
0001
0000
1000
0000
0100
0000
0010
0000
0000
0010
0000
0000
0100
0000
,
1000
0001
0100
1000
0100
0010
1000
0001
,
0010
0000
0000
0010
0000
0000
0001
0000
1000
0000
0100
0000
0001
0000
0000
0001
,
0000
0000
0100
0000
1000
0000
0010
0000
0100
0000
0000
0100
0000
0000
0001
0000
,
1000
0100
1000
0010
0100
0001
0100
0010
,
1000
0000
0000
1000
0010
0000
0100
0000
0001
0000
0010
0000
0100
0000
0000
0100
,
0010
0000
0001
0000
0100
0000
1000
0000
0100
0000
0000
0100
0001
0000
1000
0000
,
0100
0000
0010
0000
0001
0000
0010
0000
1000
0000
0010
0000
0100
0000
0000
0100
,
1000
0000
0001
0000
0100
0000
0010
0000
1000
0000
0000
1000
0001
0000
0010
0000
,
1000
0000
0010
0000
0001
0000
0000
0101
0000
0000
0100
0000
0000
0110
0000
0000
,
0010
0000
0000
1010
0000
0000
1000
0000
0000
1001
0000
0000
0001
0000
1000
0000
,
0020
0000
0000
0100
0000
0100
0000
0230
,
0000
0010
0000
1000
0000
0010
0000
0301
,
0020
0000
0000
1000
0000
0000
0100
0000
0000
0000
0031
0000
0100
0000
1000
0000
,
0000
1100
0000
0110
0000
0101
0000
1001
,
1000
0000
0000
0010
0000
0000
0100
0000
0000
0000
0001
0000
0010
0000
0001
0000
,
1000
0000
0010
0000
0000
0010
0100
0000
0001
0000
0000
0000
1000
0000
0001
0000
,
1000
0100
0010
0001
1000
0010
0100
0000
,
0001
0010
0100
1000
0100
0010
0001
1000
,
0010
0000
0000
0010
0100
0000
0001
0000
0000
0000
1000
0000
0100
0000
0020
0000
,
0000
0000
0000
0001
0000
0000
0230
0000
0000
0000
1300
0000
0000
0000
0010
0000
,
0000
0100
0001
0100
0000
0010
1000
0100
,
1000
0000
0000
0000
0000
0000
0010
0000
0000
0000
0000
0000
0100
0000
0000
0000
0000
0000
0000
0000
0001
0000
0000
0000
0000
0000
0000
0000
0000
0000
0010
0000
0000
0000
0000
0000
0100
0000
0000
1000
0000
0000
0000
0000
0000
0100
0000
0000
,
1000
0000
0000
0010
0000
0000
0100
0000
0001
0000
0000
0010
0000
0000
0100
0000
,
1000
0000
0010
0000
0100
0000
0001
0000
0010
0000
0000
0100
0000
0000
1000
0000
,
0010
0100
0010
1000
0100
0010
0001
0100
,
0101
0000
0000
0110
0000
0000
1010
0000
,
0000
0000
0001
0000
0000
0001
0000
0000
1000
0000
0000
1000
0000
0000
0010
0000
,
0000
0100
0000
0001
0000
1000
0000
0100
0020
0000
0000
0000
0130
0000
0000
0000
,
1000
0000
0010
0000
0100
0000
0001
0000
0010
0000
0000
0001
0000
0000
0100
0000
,
0000
0000
0010
0000
0100
0000
0000
0000
0010
1000
0000
0100
0000
0000
1100
0000
,
0000
0000
1000
0000
0100
0000
0001
0000
0100
0000
0000
0010
0000
0000
0011
0000
,
0000
0000
0001
0000
0100
0000
0010
0000
1000
0000
0000
0001
0000
0000
1001
0000
,
0000
0000
0001
0000
0010
0000
0100
0000
1000
0000
0010
0100
0000
0001
0000
1000
,
0000
0000
0000
1100
0000
0000
1100
0000
0000
0000
0100
0000
0010
0000
0000
0010
,
0001
0100
0010
0100
0001
1000
0100
1000
,
0100
1000
0000
0001
0000
0100
0000
0010
0000
0000
0100
0000
0001
0000
0000
0000
,
1000
0000
0100
0000
0010
0000
0100
0000
1000
0000
0000
0001
0000
0000
0100
0000
,
0000
0000
0010
0000
1000
0000
0000
0000
0010
0100
0000
0001
0000
0000
1000
0000
,
0000
0000
0100
0000
0001
0000
0100
0000
1000
0000
0000
0010
0000
0000
0101
0000
,
0000
0000
0100
0000
0010
0000
0100
0000
0001
0000
0000
1000
0000
0000
1100
0000
,
0000
0000
0100
0000
0010
0000
0001
0000
1000
0000
0010
0100
0000
0001
0000
0100
,
0000
0000
0000
0010
0000
0000
1010
0000
0000
0000
1000
0000
0100
0000
0010
0000
,
0001
0100
0010
0100
1000
0100
0001
1000
,
0100
0010
0000
0100
0000
1000
0000
0001
0000
0000
0100
0000
0010
0000
0100
0000
,
0001
0000
0010
0000
0100
0000
1000
0000
0010
0000
0000
0100
0000
0000
0001
0000
,
0000
0000
1000
0000
0100
0000
0000
0000
0010
0001
0000
0010
0000
0000
0110
0000
,
0000
0000
0100
0000
1000
0000
0010
0000
0101
0000
0000
1010
0000
0000
0101
0000
,
0000
0000
0001
0000
0010
0000
0100
0000
1100
0000
0000
0011
0000
0000
2002
0000
,
0000
0000
0000
0000
,
0000
0000
0000
0000
0000
0000
0000
0000
0000
0000
0000
0000
0000
0000
0000
3003
;

//---------------dance-single - ----------------
#NOTES:
     dance-single:
     :
     Medium:
     7:
     0.383220,0.371106,0.230159,0.126984,0.182540,293.000000,29.000000,16.000000,0.000000,0.000000,0.000000,0.383220,0.371106,0.230159,0.126984,0.182540,293.000000,29.000000,16.000000,0.000000,0.000000,0.000000:
0001
0000
0010
0000
0001
0010
0001
0000
,
1000
0000
0001
1000
0100
0000
1000
0000
,
0100
1000
0010
0000
0100
0000
0010
0100
,
0010
0000
1000
0000
0010
1000
0000
1000
,
0010
0000
1000
0100
2000
0000
0000
0000
,
3001
0100
0001
0000
0010
0000
0100
0000
,
1100
0000
0000
0011
0000
0000
1001
0000
,
0010
0100
0010
0100
0010
0000
1001
0000
,
0001
0010
0100
1000
,
0010
0000
0000
0000
0100
0000
0000
0000
0001
0000
0000
1000
0000
0000
1001
0000
,
0000
0000
0000
0000
0010
0000
0000
0000
0100
0000
0000
0001
0000
0000
0101
0000
,
0000
0000
0000
0000
0100
0000
0000
0000
0010
0000
0000
1000
0000
0000
1010
0000
,
0000
0000
0000
0000
0010
0000
0000
0000
0100
0000
0000
0001
0000
0100
0000
0001
,
0000
0000
0000
1000
0000
0000
1000
0000
0000
0000
0001
0000
1000
0000
0000
0000
,
0010
0100
0001
1000
,
0100
0000
0000
0010
0000
0000
0000
0110
0000
0000
0100
0000
1000
0000
0000
0000
,
0001
0100
0010
1000
,
0010
0000
0000
0000
0100
0000
0000
0000
0001
0000
0000
0010
0000
0000
0022
0000
,
0033
0000
0000
0000
0100
0000
0000
0000
1000
0000
0000
0010
0000
0000
2020
0000
,
3030
0000
0000
0000
0100
0000
0000
0000
0001
0000
0000
1000
0000
0000
0001
0000
,
0010
0000
0000
0010
0000
0000
0000
0000
0000
0000
0000
0000
0100
0000
0000
0100
,
0000
0000
0000
0000
0000
0000
0000
0000
1000
0000
0000
1000
0000
0000
0000
0000
,
0000
0001
0010
0100
,
1000
0000
0000
1000
0000
0000
0000
0000
0000
0000
0000
0000
0010
0000
0000
0010
,
0000
0000
0000
0000
0000
0000
0000
0000
0100
0000
0000
0100
0000
0000
0000
0000
,
0000
0001
0010
0100
,
1000
0000
0001
0000
0100
0010
0100
0000
,
0001
0000
0010
0001
0010
0000
0100
0000
,
1000
0001
1000
0000
0010
0000
0100
0000
,
0001
0000
0100
0010
0100
0000
0001
0000
,
1000
0000
0100
0000
1000
0000
0000
0010
0000
0000
1000
0000
0000
0010
0000
0000
,
0100
0000
0000
0001
0000
0000
0100
0000
0000
0001
0000
0000
1000
0000
0001
0000
,
2000
0000
0100
0000
,
3002
0000
0010
0000
,
0203
0000
1000
0000
,
0320
0000
0001
0000
,
1030
0010
1000
0000
,
0001
0010
0001
0000
,
0100
0100
0010
0010
,
1000
0000
0001
0000
1000
0001
1000
0001
,
1000
0000
1100
0000
0010
0001
0100
0000
,
0010
0101
0010
1000
,
0100
0000
0110
0000
0100
1000
0010
0000
,
0100
0000
1001
0000
0001
0000
0010
0100
,
1000
0000
1100
0000
0001
0000
0100
0010
,
0100
0000
0101
0000
0001
0000
0010
0001
,
1000
1010
0010
0100
,
0101
0000
0000
0110
0000
0000
1010
0000
,
0000
0000
2000
0000
0000
3000
0000
0000
0002
0000
0000
0003
0000
0020
0000
0000
,
0230
0000
2300
0000
,
3001
0100
0010
1000
,
0010
0000
0000
0000
0100
0000
0000
0000
0001
0000
0000
0100
0000
0000
0101
0000
,
0000
0000
0000
0000
0010
0000
0000
0000
1000
0000
0000
0100
0000
0000
1100
0000
,
0000
0000
0000
0000
1000
0000
0000
0000
0001
0000
0000
1000
0000
0000
1001
0000
,
0000
0000
0000
0000
0010
0000
0000
0000
0100
0000
0000
0001
0000
0100
0000
0001
,
0000
0000
0000
0010
0000
0000
0100
0000
0000
0000
0100
0000
1000
0000
0000
0000
,
0010
0100
1000
0100
,
0010
0000
0000
1000
0000
0010
0000
1000
0000
0000
0000
0000
0010
0000
0000
0000
,
1000
0100
0010
0100
,
1000
0000
0000
0000
0001
0000
0000
0000
0100
0000
0000
0010
0000
0000
0110
0000
,
0000
0000
0000
0000
0100
0000
0000
0000
0001
0000
0000
0010
0000
0000
0011
0000
,
0000
0000
0000
0000
0100
0000
0000
0000
1000
0000
0000
0100
0000
0000
1100
0000
,
0000
0000
0000
0000
1000
0000
0000
0000
0010
0000
0000
0100
0000
0010
0000
0100
,
0000
0000
0000
0001
0000
0000
0010
0000
0000
0000
0010
0000
0100
0000
0000
0000
,
1000
0010
0100
0001
,
0010
0000
0000
0001
0000
1000
0000
0001
0000
0000
0000
0000
0100
0000
0000
0000
,
0010
1000
0100
0001
,
1000
0000
0000
0000
0010
0000
0000
0000
0001
0000
0000
0100
0000
0000
0101
0000
,
0000
0000
0000
0000
0010
0000
0000
0000
1000
0000
0000
0001
0000
0000
1001
0000
,
0000
0000
0000
0000
0100
0000
0000
0000
0010
0000
0000
0100
0000
0000
2002
0000
,
0000
0000
0000
0000
,
0000
0000
0000
0000
0000
0000
0000
0000
0000
0000
0000
0000
0000
0000
0000
3003
;

//---------------dance-single - ----------------
#NOTES:
     dance-single:
     :
     Easy:
     4:
     0.300454,0.314013,0.206349,0.174603,0.011905,217.000000,26.000000,22.000000,0.000000,0.000000,0.000000,0.300454,0.314013,0.206349,0.174603,0.011905,217.000000,26.000000,22.000000,0.000000,0.000000,0.000000:
0010
1000
0100
0010
,
0001
0100
0010
1000
,
0001
0100
0001
1000
,
0001
0010
0100
1000
,
0010
0100
0002
0000
,
0000
1003
0010
0001
,
0100
0000
0000
0110
0000
0000
1001
0000
,
0020
0000
0030
0100
,
0001
0010
0100
1000
,
0010
0000
0100
0000
0001
0000
0000
0001
,
0000
0000
0010
0000
0100
0000
0000
0100
,
0000
0000
1000
0000
0010
0000
0000
0010
,
0000
0000
0000
0000
0100
0000
0000
0000
0001
0000
0000
0000
0000
0000
0000
0001
,
0000
0000
0000
0010
0000
0000
0100
0000
,
1000
0010
0100
0001
,
2000
0000
3000
1001
,
0001
0100
0010
0100
,
0001
0000
1000
0000
0100
0000
0000
1100
,
0000
0000
0010
0000
0001
0000
0000
0011
,
0000
0001
1000
0001
,
1001
0000
0000
0011
,
0000
0000
1100
0000
,
0000
0010
0100
0001
,
0101
0000
0000
1010
,
0000
0000
1001
0000
,
0000
0010
0100
0001
,
0020
0031
0100
2000
,
3100
0010
0200
0310
,
0001
0010
1000
0200
,
1300
0010
0200
0301
,
0010
0000
0011
0000
0000
0110
0000
0000
,
1100
0000
0000
1001
0000
0000
0110
0000
,
2001
0000
0010
0000
,
3002
0000
0100
0000
,
0023
0000
1000
0000
,
0230
0000
0001
0000
,
1300
0001
1000
0000
,
0010
0100
0010
0000
,
0200
0000
0302
0000
,
2003
0001
0001
3001
,
0001
0100
0010
0100
,
0001
1000
0100
1000
,
0010
0100
0001
0010
,
0100
1000
0001
0000
,
0100
1000
0100
0001
,
0010
0100
1000
0010
,
0100
0100
0010
0010
,
0110
0000
0000
1001
0000
0000
0110
0000
,
2001
0000
0000
0000
,
3002
0000
0203
0000
,
0301
0010
0100
1000
,
0001
0000
0100
0000
0010
0000
0000
0010
,
0000
0000
1000
0000
0100
0000
0000
0100
,
0000
0000
1000
0000
0001
0000
0000
0001
,
0000
0000
0000
0000
0100
0000
0000
0000
0010
0000
0000
0000
0000
0000
0000
1000
,
0000
0000
0000
0100
0000
0000
1000
0000
,
0010
0100
0001
0010
,
0200
0000
0300
0110
,
0100
1000
0001
0100
,
0010
0000
0100
0000
0001
0000
0000
0001
,
0000
0000
0010
0000
1000
0000
0000
1000
,
0000
0000
0001
0000
0100
0000
0000
0100
,
0000
0000
0000
0000
0010
0000
0000
0000
0001
0000
0000
0000
0000
0000
0000
0001
,
0000
0000
0000
0100
0000
0000
0010
0000
,
1000
0010
0001
0100
,
0020
0000
0030
0110
,
0100
1000
0010
0100
,
0001
0000
0010
0000
0100
0000
0000
1100
,
0000
0000
0010
0000
0100
0000
0000
0101
,
0000
0000
0001
0000
1000
0000
0000
0220
,
0000
0000
0000
0000
,
0000
0000
0000
0000
0000
0000
0000
0000
0000
0000
0000
0000
0000
0000
0000
0330
;

//---------------dance-single - ----------------
#NOTES:
     dance-single:
     :
     Beginner:
     2:
     0.131519,0.166369,0.031746,0.063492,0.000000,104.000000,4.000000,8.000000,0.000000,0.000000,0.000000,0.131519,0.166369,0.031746,0.063492,0.000000,104.000000,4.000000,8.000000,0.000000,0.000000,0.000000:
// measure 0
1000
0000
0000
1000
,  // measure 1
0000
0000
0001
0000
,  // measure 2
0000
0001
0000
0000
,  // measure 3
0100
0000
0000
0100
,  // measure 4
0000
0000
0010
0000
,  // measure 5
0000
0010
0000
0000
,  // measure 6
0110
0000
0000
0110
,  // measure 7
0000
0000
0000
0000
,  // measure 8
1000
0000
1000
0000
,  // measure 9
0001
0000
0000
0000
,  // measure 10
0010
0000
0010
0000
,  // measure 11
0100
0000
0000
0000
,  // measure 12
1000
0000
0010
0000
,  // measure 13
0100
0000
0000
0000
,  // measure 14
0001
0000
1000
0000
,  // measure 15
0200
0000
0300
0000
,  // measure 16
0010
0000
0001
0000
,  // measure 17
0001
0000
0000
0000
,  // measure 18
1000
0000
0100
0000
,  // measure 19
0100
0000
0000
0000
,  // measure 20
0010
0000
0000
0001
,  // measure 21
0000
0000
0010
0000
,  // measure 22
0000
0002
0003
0000
,  // measure 23
1000
0000
0000
0100
,  // measure 24
0000
0000
1000
0000
,  // measure 25
0000
0200
0300
0000
,  // measure 26
1000
1000
0000
0001
,  // measure 27
0001
0000
0100
0100
,  // measure 28
0000
0010
0000
0010
,  // measure 29
0010
0000
0100
0100
,  // measure 30
0000
0001
0000
0000
,  // measure 31
1000
0000
0000
0001
,  // measure 32
0002
0000
0000
0000
,  // measure 33
0003
0000
0000
0000
,  // measure 34
0200
0000
0000
0000
,  // measure 35
0300
0000
0000
0000
,  // measure 36
0010
0000
0000
0000
,  // measure 37
1000
0000
0000
0000
,  // measure 38
0100
0000
0100
0000
,  // measure 39
0020
0000
0030
0000
,  // measure 40
0001
0000
0010
0000
,  // measure 41
0001
0000
0000
0000
,  // measure 42
1000
0000
0010
0000
,  // measure 43
1000
0000
0000
0000
,  // measure 44
0010
0000
0100
0000
,  // measure 45
0010
0000
0000
0000
,  // measure 46
1000
0000
0001
0000
,  // measure 47
1001
0000
0000
0000
,  // measure 48
0001
0000
0000
0000
,  // measure 49
1000
0000
0001
0000
,  // measure 50
0100
0000
0100
0000
,  // measure 51
0010
0000
0000
0000
,  // measure 52
1000
0000
1000
0000
,  // measure 53
0001
0000
0000
0000
,  // measure 54
0010
0000
0010
0000
,  // measure 55
0001
0000
0000
0000
,  // measure 56
0100
0000
0100
0000
,  // measure 57
2000
0000
3000
0000
,  // measure 58
0100
0000
0100
0000
,  // measure 59
0010
0000
0000
0000
,  // measure 60
0010
0000
0010
0000
,  // measure 61
1000
0000
0000
0000
,  // measure 62
0001
0000
0001
0000
,  // measure 63
0010
0000
0000
0000
,  // measure 64
0100
0000
0100
0000
,  // measure 65
0002
0000
0003
0000
,  // measure 66
0100
0000
0100
0000
,  // measure 67
1000
0000
0000
0000
,  // measure 68
0001
0000
0001
0000
,  // measure 69
0100
0000
0000
0000
0100
0000
0000
0110
;
