#TITLE:Who Do You Think You Are;
#SUBTITLE:;
#ARTIST:Spice Girls;
#TITLETRANSLIT:;
#SUBTITLETRANSLIT:;
#ARTISTTRANSLIT:;
#GENRE:;
#CREDIT:;
#BANNER:Who Do You Think You Are-banner.png;
#BACKGROUND:Who Do You Think You Are-bg.png;
#LYRICSPATH:;
#CDTITLE:;
#MUSIC:Who Do You Think You Are.ogg;
#OFFSET:-0.639884;
#SAMPLESTART:57.540001;
#SAMPLELENGTH:12.000000;
#SELECTABLE:YES;
#BPMS:0.000000=118.000000
;
#STOPS:
;
#BGCHANGES:;
#KEYSOUNDS:;
#ATTACKS:;

//---------------dance-single - ----------------
#NOTES:
     dance-single:
     :
     Easy:
     3:
     0.197061,0.214156,0.018392,0.055177,0.000000,142.000000,2.000000,6.000000,0.000000,0.000000,0.000000,0.197061,0.214156,0.018392,0.055177,0.000000,142.000000,2.000000,6.000000,0.000000,0.000000,0.000000:
0000
0000
0000
0000
,
0000
0000
0000
0000
,
0000
0000
0000
0000
,
0000
0000
0000
0000
,
1000
1000
0001
0000
,
1000
1000
0001
0000
,
0100
0100
0010
0000
,
0100
0100
0010
0000
,
1000
1000
0100
0000
,
0010
0010
0001
0000
,
1000
1000
0010
0000
,
0100
0100
0001
0000
,
1000
0000
0000
0100
,
0010
0000
0000
0000
,
0001
0000
0000
0100
,
0010
0000
0000
0000
,
1000
0000
0000
0001
,
0100
0000
0000
0000
,
0001
0000
0000
1000
,
0100
0000
0100
1000
,
0020
0030
0020
0030
,
0020
0030
0000
0000
,
1000
1000
0000
0100
,
0100
0010
0001
0100
,
0002
0003
0002
0003
,
0002
0003
0000
1000
,
0100
1000
0001
0000
,
1000
1000
0001
0000
,
1000
1000
0100
0100
,
1000
1000
0001
0000
,
0001
0001
0100
0100
,
0001
0001
1000
0000
,
0010
0010
0100
0100
,
0010
0010
1000
0000
,
0100
0100
0010
0010
,
0001
0001
1000
0000
,
0001
0001
1000
1000
,
0100
1000
0010
0000
,
0010
0010
1000
1000
,
0010
0100
0001
0000
,
1000
1000
0100
0100
,
0010
0100
1000
0000
,
0001
0001
1000
1000
,
0010
0100
0001
0000
,
1000
0100
0010
0100
,
1000
0001
1000
0000
,
0001
0100
0010
0100
,
0001
1000
0100
0000
,
1000
0010
0100
0001
,
0010
0100
1000
0000
,
0001
1000
0100
1000
,
0001
0000
1001
1001
;

//---------------dance-single - ----------------
#NOTES:
     dance-single:
     :
     Beginner:
     1:
     0.097217,0.118975,0.009196,0.000000,0.000000,73.000000,1.000000,0.000000,0.000000,0.000000,0.000000,0.097217,0.118975,0.009196,0.000000,0.000000,73.000000,1.000000,0.000000,0.000000,0.000000,0.000000:
0000
0000
0000
0000
,
0000
0000
0000
0000
,
0000
0000
0000
0000
,
0000
0000
0000
0000
,
1000
0000
1000
0000
,
0001
0000
0001
0000
,
0100
0000
0100
0000
,
0010
0000
0010
0000
,
1000
0000
1000
0000
,
0100
0000
0100
0000
,
0010
0000
0010
0000
,
0001
0000
0001
0000
,
1000
0000
0000
0001
,
0001
0000
0000
0000
,
0100
0000
0000
0010
,
0010
0000
0000
0000
,
1000
0000
0000
0100
,
0100
0000
0000
0000
,
0010
0000
0000
0001
,
0001
0000
0000
0000
,
1000
0000
0000
0000
,
0000
0000
0000
0001
,
0001
0000
0000
0000
,
0001
0000
0000
0000
,
0100
0000
0000
0000
,
0000
0000
0000
0010
,
0010
0000
0000
0000
,
1000
0000
0000
0000
,
1000
0000
1000
0000
,
1000
0000
0000
0000
,
0001
0000
0001
0000
,
0001
0000
0000
0000
,
0100
0000
0100
0000
,
0100
0000
0000
0000
,
0010
0000
0010
0000
,
0010
0000
0000
0000
,
1000
0000
1000
0000
,
1000
0000
0000
0000
,
0100
0000
0100
0000
,
0100
0000
0000
0000
,
0010
0000
0010
0000
,
0010
0000
0000
0000
,
0001
0000
0001
0000
,
0001
0000
0000
0000
,
1000
0000
1000
0000
,
1000
0000
0000
0000
,
0010
0000
0010
0000
,
0010
0000
0000
0000
,
0100
0000
0100
0000
,
0100
0000
0000
0000
,
0001
0000
0001
0000
,
0001
0000
0000
1001
;

//---------------dance-single - ----------------
#NOTES:
     dance-single:
     :
     Medium:
     5:
     0.295591,0.285541,0.220708,0.018392,0.000000,199.000000,24.000000,2.000000,0.000000,0.000000,0.000000,0.295591,0.285541,0.220708,0.018392,0.000000,199.000000,24.000000,2.000000,0.000000,0.000000,0.000000:
0000
0000
0000
0000
,
0000
0000
0000
0000
,
0000
0000
0000
0000
,
0000
0000
0000
0000
,
1000
0000
0100
0000
0010
0010
0010
0000
,
0001
0000
0100
0000
0010
0010
0010
0000
,
1000
0000
0001
0000
0100
0100
0100
0000
,
0001
0000
1000
0000
0100
0100
0100
0000
,
1000
0000
0100
0000
0010
0001
0010
0000
,
0001
0000
0100
0000
0010
1000
0010
0000
,
1000
0000
0100
0000
1000
0001
0100
0000
,
0001
0000
1000
0000
0010
1000
0001
0000
,
0011
0000
0000
0000
0100
0010
0000
0010
,
0100
0001
0001
0000
,
1001
0000
0000
0000
0010
1000
0000
1000
,
0100
1000
1000
0000
,
1010
0000
0000
0000
0100
0001
0000
0010
,
0100
1000
1000
0000
,
0011
0000
0000
0000
0001
0100
0000
0010
,
1000
0000
0100
0000
1000
1000
0001
0000
,
2000
0100
0010
0100
,
0010
0000
3001
0000
0000
0100
0000
0001
,
1000
0100
1000
0000
0001
0000
0001
0000
,
1010
0000
1100
0000
0010
0000
0100
0010
,
0002
0100
1000
0010
,
1000
0000
0103
0000
0000
0010
1000
0100
,
1000
1000
0000
0000
,
0001
1000
0001
1000
0001
0000
0000
0000
,
1000
1000
0001
0001
,
1000
0001
1000
0000
0001
0000
0000
0000
,
0100
0100
0010
0010
,
0100
0010
0100
0000
0010
0000
0000
0000
,
1000
0100
1000
0100
,
0010
0001
0010
0000
0001
0000
0000
0000
,
1000
0010
1000
0010
,
0100
0001
0100
0000
0001
0000
0000
0000
,
1001
0100
1001
0010
,
1000
0010
0100
0000
0001
0000
0000
0000
,
1100
0010
0101
0010
,
1000
0100
0010
0000
0001
0000
0000
0000
,
0011
0100
1010
0100
,
0001
0010
0100
0000
1000
0000
0000
0000
,
1010
0100
0011
0100
,
0001
0100
0010
0000
1000
0000
0000
0000
,
1100
0100
0110
0010
,
0001
0100
0010
0000
0010
0000
0000
0000
,
0110
0010
1010
1000
,
0100
0010
0001
0000
0001
0000
0000
0000
,
1001
0001
0101
0100
,
0010
1000
0100
0000
0100
0000
0000
0000
,
1100
1000
1010
0010
,
0100
0000
0011
1100
;

//---------------dance-single - ----------------
#NOTES:
     dance-single:
     :
     Hard:
     8:
     0.499220,0.428311,0.137942,0.165531,0.331062,347.000000,15.000000,18.000000,0.000000,0.000000,0.000000,0.499220,0.428311,0.137942,0.165531,0.331062,347.000000,15.000000,18.000000,0.000000,0.000000,0.000000:
0000
0000
0000
0000
,
0000
0000
0000
0000
,
0000
0000
0000
0000
,
0000
0000
0000
0000
,
1000
0000
0100
0000
0010
0001
0000
0000
0001
0100
0000
0010
0000
0000
1000
0000
,
0100
0000
1000
0000
0010
0100
0000
0000
0100
0001
0000
1000
0000
0000
0100
0000
,
1000
0000
0010
0000
0100
0001
0000
0000
0001
0010
0000
0100
0000
0000
1000
0000
,
0001
0000
0100
0000
0010
1000
0000
0000
1000
0010
0000
0100
0000
0000
0001
0000
,
0010
0000
0100
0000
1000
0001
0000
0000
0100
0010
0000
1000
0000
0000
0100
0000
,
0010
0000
0100
0000
1000
0010
0000
0000
0100
0001
0000
0010
0000
0000
0100
1000
,
0100
0000
0010
0000
0001
0100
0000
0000
0010
1000
0000
0100
0000
0000
0001
0000
,
0100
0000
1000
0000
0001
0100
0000
0000
0010
1000
0000
0100
0000
0000
1000
0100
,
0010
0000
0001
0000
0100
0000
0010
0000
1000
0000
0200
0000
0000
2300
0000
0000
,
3001
0100
0010
0100
0001
0000
1001
0000
,
0010
0000
1000
0000
0100
0000
0001
0000
0100
0000
2000
0000
0000
3002
0000
0000
,
0103
0010
1000
0010
0100
0000
0101
0000
,
0001
0000
0010
0000
0100
0000
1000
0000
0100
0000
0002
0000
0000
0203
0000
0000
,
1300
0010
0001
0010
1000
0000
1010
0000
,
0010
0000
1000
0000
0100
0000
0010
0000
0001
0000
0200
0000
0000
0320
0000
0000
,
1030
0000
0100
0000
0001
0000
0100
0000
1000
0000
0001
0000
0100
0010
0100
0000
,
0020
1000
0100
0001
,
0100
0000
1030
0000
0000
0010
0000
1000
,
0100
0001
0100
0000
1000
0001
0100
0010
,
0110
0000
0110
0000
0001
1000
0001
1000
,
0200
0001
1000
0010
,
0001
0000
1300
0000
0000
0010
1000
0100
,
0010
0100
1000
0000
0000
0000
0001
0000
,
1000
1000
0001
0001
1000
0001
1000
0000
,
1000
0100
0010
0100
1000
0100
0010
0100
,
1000
0010
0100
0000
0010
0000
2000
0001
0000
0000
3001
0000
0000
0000
0000
0000
,
0001
0100
0010
0100
0001
0100
0010
0100
,
0001
0010
0100
0000
0010
0000
0002
1000
0000
0000
1003
0000
0000
0000
0000
0000
,
0001
0100
1000
0100
0001
0100
1000
0100
,
0001
0100
0010
0000
0100
0000
0020
1000
0000
0000
1030
0000
0000
0000
0000
0000
,
0001
1000
0100
0010
0001
0010
0100
1000
,
0010
0100
0010
0000
0100
0000
0002
0010
0000
0000
0013
0000
0000
0000
0000
0000
,
0011
0010
0100
1000
1100
0100
0001
0100
,
1000
0010
0100
0000
0001
0000
0200
0010
0000
0000
1300
0000
0000
0000
0000
0000
,
0110
0100
0010
1000
1100
0100
0010
1000
,
0001
0100
0010
0000
0001
0000
0200
0010
0000
0000
1300
0000
0000
0000
0000
0000
,
1010
0010
1000
0100
1100
0100
0010
0100
,
1000
0001
0100
0000
0001
0000
2000
0001
0000
0000
3010
0000
0000
0000
0000
0000
,
0101
0001
0100
0010
1010
1000
0100
0010
,
0001
0010
0001
0000
1000
0000
0200
0001
0000
0000
1300
0000
0000
0000
0000
0000
,
1000
0000
0001
0000
0100
0010
0000
0000
0100
0001
0000
0010
0000
0000
0100
0000
,
1000
0000
0100
0000
0001
0100
0000
0000
1000
0001
0000
0100
0000
0000
0010
0100
,
0001
0000
0010
0000
0100
1000
0000
0000
0001
0100
0000
0010
0000
0000
0100
0000
,
0001
0000
0010
0000
0100
1000
0000
0000
0001
0100
0000
0010
0000
0000
0100
0001
,
1000
0000
0100
0000
1000
0010
0000
0000
0100
0001
0000
0010
0000
0000
0100
0000
,
1000
0000
0100
0000
0001
0100
0000
0000
1000
0001
0000
0100
0000
0000
1000
0100
,
0001
0000
0010
0000
0100
1000
0000
0000
0001
0100
0000
0010
0000
0000
1000
0000
,
0010
0000
0100
0000
0001
0010
0000
0000
1100
0000
0000
0000
1001
0000
0000
0000
;
