#TITLE:The Carnivorous Carnival;
#SUBTITLE:;
#ARTIST:Akitaka Toyama;
#TITLETRANSLIT:;
#SUBTITLETRANSLIT:;
#ARTISTTRANSLIT:;
#GENRE:;
#CREDIT:;
#BANNER:The Carnivorous Carnival - Akitaka Toyamabn.png;
#BACKGROUND:The Carnivorous Carnival - Akitaka Toyamabg.png;
#LYRICSPATH:;
#CDTITLE:encorerebirth.png;
#MUSIC:The Carnivorous Carnival - Akitaka Toyama.ogg;
#OFFSET:-1.678;
#SAMPLESTART:61.706;
#SAMPLELENGTH:11.329;
#SELECTABLE:YES;
#BPMS:0.000=167.935
;
#STOPS:198.750=0.357
;
#BGCHANGES:;
#KEYSOUNDS:;
#ATTACKS:;

//---------------dance-single - Spork!----------------
#NOTES:
     dance-single:
     :
     Beginner:
     2:
     0.167,0.329,0.143,0.205,0.000,92.000,16.000,23.000,0.000,0.000,0.000,0.167,0.329,0.143,0.205,0.000,92.000,16.000,23.000,0.000,0.000,0.000:
0000
0000
0000
0000
,
0000
0000
0000
0000
,
0000
0000
0000
0000
,
0000
0000
0000
0000
,
0001
0000
0000
0000
,
0100
0000
0000
0000
,
0010
0000
0000
0000
,
1001
0000
0000
0000
,
1000
0000
0100
0000
,
1000
0000
0010
0000
,
1000
0000
0001
0000
,
1000
0000
1000
0000
,
0001
0000
0100
0000
,
0001
0000
0010
0000
,
0001
0000
1000
0000
,
1001
0000
0000
0000
,
1000
0000
0100
0000
,
1000
0000
0001
0000
,
1000
0000
0010
0000
,
0100
0000
0100
0000
,
0001
0000
0010
0000
,
0001
0000
1000
0000
,
2002
0000
0000
0000
,
0000
0000
0000
0000
,
3003
0000
0000
0000
,
0000
0000
0000
0000
,
1000
0000
0000
0000
,
0010
0000
0000
0000
,
0100
0000
0000
0000
,
0001
0000
0000
0000
,
1000
0000
0000
0000
,
0001
0000
0000
0000
,
0010
0000
0000
0000
,
0100
0000
0000
0000
,
1000
0000
0000
0000
,
0100
0000
0000
0000
,
0010
0000
0000
0000
,
0001
0000
1000
0000
,
0001
0000
0000
0000
,
0100
0000
0000
0000
,
0010
0000
0000
0000
,
1000
0000
0001
0000
,
1002
0000
0000
0000
,
0203
0000
0300
0000
,
2001
0000
0000
0000
,
3020
0000
0030
0000
,
0210
0000
0000
0000
,
0302
0000
0003
0000
,
0120
0000
0000
0000
,
1030
0000
0001
2001
,
0000
0000
0000
3200
,
0000
0300
0000
0120
,
0000
0000
0000
0032
,
0000
0003
0000
1002
,
0000
0000
0000
0203
,
0000
0300
0000
0120
,
0000
0000
0000
2030
,
0000
0000
0000
3001
,
0000
0001
0000
1000
,
0000
1000
0000
0001
,
0000
0001
0000
1000
,
0000
1000
0000
0220
,
0000
0000
0000
0330
,
0000
0000
0000
2002
,
0000
0000
0000
3003
,
0000
0000
0000
1000
,
0000
0100
0000
0010
,
0000
0100
0000
1000
,
0000
0010
0000
0100
,
0000
0100
0000
1001
,
0000
1001
0000
0100
,
0100
0010
0010
2002
,
0000
0000
0000
0000
,
0000
0000
0000
3003
;

//---------------dance-single - Spork!----------------
#NOTES:
     dance-single:
     :
     Easy:
     5:
     0.325,0.406,0.214,0.071,0.076,223.000,24.000,8.000,0.000,0.000,0.000,0.325,0.406,0.214,0.071,0.076,223.000,24.000,8.000,0.000,0.000,0.000:
0000
0000
0000
0000
,
0000
0000
0000
0000
,
0000
0000
0000
0000
,
0000
0000
0000
0000
,
0001
0000
0010
0000
,
0001
0000
0100
0000
,
0010
0000
1000
0000
,
1000
0000
0000
0001
0000
0000
1000
0000
0000
0000
0001
0000
1000
0000
0000
0000
,
1000
0000
0010
0000
,
1000
0000
0100
0000
,
0010
0000
0001
0000
,
1000
0000
0010
0000
,
1000
0000
0100
0000
,
1000
0000
0010
0000
,
0100
0000
0001
0000
,
0001
1000
0000
0001
0000
1000
0001
0000
,
0001
0000
0010
0000
,
1000
0000
0010
0000
,
0001
0000
0100
0000
,
1000
0000
0100
0001
,
1000
0000
0100
0000
,
0001
0000
0100
0000
,
1000
0000
1000
0000
1000
0000
0100
0000
0100
0000
0100
0000
,
0010
0000
0010
0000
0010
0000
0001
0000
0001
0000
0001
0000
,
2000
0000
0000
0000
,
0000
0000
0000
3000
,
0001
0010
0001
0100
,
0001
1000
0001
0001
,
1000
0010
1000
0100
,
1000
0001
1000
1000
,
0100
1000
0010
0010
,
0100
0001
0010
0010
,
0001
1000
0100
0100
,
1000
0000
0010
0000
0100
0010
0000
0000
,
1001
0001
0100
0010
,
0110
0100
0001
0010
,
0110
0100
0010
0001
,
1001
0001
0100
0010
,
0101
0001
1000
0100
,
1010
1000
0001
0100
,
0011
0001
1000
0010
,
1100
0000
1000
0000
0001
1000
0001
0000
,
1000
0000
0010
0000
,
0100
0000
0100
0000
,
0001
0000
0010
0000
,
0100
0000
0100
0000
,
1000
0000
0001
0000
,
0010
0000
0010
0000
,
0001
0000
1000
0000
,
0010
0000
0000
0000
0010
0100
1002
0000
,
0010
0000
0103
0120
,
1000
0000
0130
2001
,
0010
0000
3100
0110
,
0001
0100
0010
1020
,
0100
0000
1030
1002
,
0100
0000
0013
0011
,
0100
1000
0010
1010
,
0100
0001
1000
0001
,
0000
0010
0000
0100
,
0000
1000
0001
1000
,
0000
0010
0000
0100
,
0000
0001
1000
0100
,
0100
0000
0100
0000
0000
1001
0000
0000
,
0110
0000
0000
0001
,
0001
0000
0000
2000
0000
0000
3010
0100
,
0000
0010
0000
0100
0010
0000
1000
0000
,
0100
0001
0100
1000
,
0010
0100
0100
0001
,
0010
1000
0010
0001
,
0100
0010
0010
1001
,
0000
0110
0000
1001
,
0110
0000
0000
1001
0000
0000
1001
0000
0000
0001
0000
0001
,
0000
0001
0000
0010
0000
0010
0000
0010
0000
0100
0000
0100
,
0000
0100
0000
1000
0000
1000
0000
1000
0000
0002
0000
0000
,
0000
0000
0000
0000
,
0000
0000
0000
0003
;

//---------------dance-single - Spork!----------------
#NOTES:
     dance-single:
     :
     Challenge:
     13:
     1.000,1.000,0.652,0.268,1.000,782.000,73.000,30.000,44.000,12.000,4.000,1.000,1.000,0.652,0.268,1.000,782.000,73.000,30.000,44.000,12.000,4.000:
0000
0000
0000
0000
,
0000
0000
0000
0000
,
0000
0000
0000
0000
,
0000
0000
0000
0000
,
0000
0010
0001
0000
0100
0000
0010
0000
0000
1000
0010
1000
0001
0000
0010
0000
,
0000
0100
1000
0000
0010
0000
0100
0000
0000
0100
0010
1000
0001
0000
1001
0000
,
0000
0010
1000
0000
0100
0000
0010
0000
0000
0001
0010
0001
0100
0000
0010
0000
,
1010
0000
0000
0000
0000
0000
0011
0000
0000
0000
0000
0000
0010
0100
0000
0000
0000
0000
0000
0000
0200
0000
0000
0000
2300
0000
0000
0000
3002
0000
0000
0000
,
0103
0010
0100
0001
0010
0100
1000
0010
0100
0010
1000
0010
0100
0001
0010
0100
,
1000
0001
0100
0001
1000
0100
0010
0100
1000
0010
0100
0001
0100
0010
1000
0001
,
0010
0100
1000
0100
0010
0001
0100
0010
1000
0010
0100
0001
1000
0100
1000
0010
,
0100
0001
0010
0100
1000
0100
1000
0010
0100
0001
1000
0010
0100
0001
0100
0001
,
0010
0000
0100
0000
1000
0000
0010
0000
0100
0000
0001
1000
0001
0010
0100
0010
,
0001
0100
0010
1000
0010
0100
0001
1000
0100
0010
0001
0100
0010
1000
0001
0100
,
0001
0010
0100
1000
0010
0100
0010
1000
0100
1000
0001
0100
0010
1000
0001
0010
,
0011
0110
0000
1001
0000
0020
0032
2003
,
3010
0200
0011
0310
2000
0011
3001
2000
,
0101
3001
0020
0101
0031
0002
1100
0103
,
0020
1100
1030
0002
1010
1003
0200
1010
,
0310
0010
1001
1000
0100
1001
0010
0001
,
1002
0000
0000
0000
0103
0000
0010
0100
0001
0100
0010
1000
0100
0010
0001
1000
,
0001
0010
0100
1000
0010
0100
0010
1000
0001
0100
0010
1000
0100
0010
0001
1000
,
1010
0000
1100
0000
0101
0000
0110
0000
1010
0000
0011
0000
,
1001
0000
0101
0000
1100
0000
0110
0000
0011
0000
1010
0000
,
2002
0000
0000
0000
,
0000
0000
0000
0000
0000
0000
0000
0M00
0M00
0M00
0M00
0M00
3M03
0M00
0M00
0M00
,
1000
0010
1000
0010
1000
0010
1000
0010
0100
0001
0100
0001
0100
0001
0100
0001
,
0010
0100
0010
0100
0010
0100
0010
0100
1000
0001
1000
0001
1000
0001
1000
0001
,
0010
0001
0010
0001
1000
0100
1000
0100
0010
0100
0010
0100
1000
0010
1000
0010
,
0100
0001
0100
0001
0010
0100
0010
0100
1000
0001
1000
0001
0100
0010
0100
0000
,
0101
0000
0001
1000
0100
0000
0100
0010
0001
0000
1000
0001
1000
0010
0100
0000
,
0010
1000
0100
0000
0010
0000
0001
1000
0100
0000
1000
0010
1000
0100
0010
0000
,
0010
0001
0100
0000
0100
0000
0010
1000
0001
0000
0001
0100
0010
0100
0001
1000
,
0010
0100
0010
0000
0100
0000
0100
0001
1000
0000
1001
0000
1000
0000
0010
0100
,
0001
0010
0001
0010
0100
1000
0010
0100
0001
0100
0010
1000
0100
1000
0001
0010
,
0100
1000
0010
0100
0001
0100
0010
1000
0100
0010
0001
0010
0100
1000
0001
0010
,
0001
0100
0010
1000
0001
0100
0001
0010
0100
1000
0001
1000
0010
0100
0001
1000
,
0001
0100
0010
1000
0100
1000
0001
0100
0001
0010
0100
1000
0010
0100
0001
1000
,
0001
0010
0001
0010
0100
0010
0100
0010
0001
0100
0010
1000
0100
0010
0001
0001
,
1000
0010
1000
0010
0100
0010
0100
0010
1000
0100
0010
0001
0100
0010
1000
1000
,
0001
0010
0100
1000
0010
0100
0001
0100
0010
1000
0100
0010
0001
1000
0010
0010
,
1000
0100
0010
0001
0100
0010
1000
0100
4000
0004
0000
0000
0000
0000
3000
0003
,
0100
0000
0010
1000
0100
00M0
0100
0001
0010
0M00
0010
1000
0001
1000
0001
0000
,
0010
0001
0100
00M0
0100
0000
0010
0001
0100
00M0
0100
1000
0010
0100
0001
0000
,
0001
1000
0010
0M00
0010
0000
0001
1000
0100
00M0
0100
0001
1000
0001
1000
0000
,
0100
1000
0010
0M00
0010
0000
0100
1000
0010
0M00
0010
0001
0100
0010
1000
0000
,
1000
0001
0100
0001
0010
0M00
0010
1000
0100
1000
0010
0M00
0010
0001
0100
0010
,
1000
0001
0010
0001
0100
00M0
0100
1000
0010
1000
0100
00M0
0100
0001
1000
0010
,
1000
0001
0100
0001
0010
0M00
0010
1000
0001
1000
0100
00M0
0100
0001
0010
0100
,
1000
0000
0000
0000
0000
0000
0000
0000
0000
0000
0000
0000
0001
0000
0000
0000
0000
0000
0000
0000
0000
0000
0000
0000
0010
0000
0000
0000
0000
0000
0000
0000
0000
0000
0000
0000
0001
0000
0000
0000
0000
0000
0000
0000
0000
0000
0000
0000
0100
0000
0000
0000
0000
0000
0000
0000
0000
0000
0000
0000
00M0
0000
0000
0000
0000
0000
0000
0000
0000
0000
0000
0000
0100
0000
0000
0000
0000
0000
0000
0000
0000
0000
0000
0000
0010
0000
0000
0000
0000
0000
0000
0000
0000
0000
0000
0000
0001
0000
0000
0000
0000
0000
0000
0000
0000
0000
0000
0000
2000
0000
0000
0000
0000
0000
0000
0000
0000
0000
0000
0000
0002
0000
0000
0000
0000
0000
0000
0000
0000
0000
0000
0000
0000
3003
0000
0000
0000
0000
0000
0000
0000
0000
0000
0000
0110
0000
0000
0000
0000
0000
0000
0000
0000
0000
0000
0000
0000
0000
0000
0000
0000
0000
0000
0000
0000
0000
0000
0000
0100
0000
0000
0000
0000
0000
0000
0000
0000
0000
0000
0000
0001
0000
0000
0000
0000
0000
0000
0000
0000
0000
0000
0000
,
0010
0M00
0010
1000
0100
00M0
0100
0001
1000
0001
1000
0000
0100
1000
0010
0M00
,
0010
0000
0100
1000
0010
0M00
0010
0001
0100
0010
1000
0000
1000
0001
0100
00M0
,
0100
0000
1000
0001
0010
0M00
0010
1000
0001
1000
0001
0000
0010
0001
0100
00M0
,
0100
0000
0010
0001
0100
00M0
0100
1000
0010
0100
0001
0000
0001
0010
0001
0010
,
0001
0010
0100
1000
0010
0100
0001
1000
0001
0010
0100
M000
0100
0010
0100
0010
,
0100
0010
1000
0100
0010
0001
0100
0010
1000
0100
0010
000M
0010
0100
0001
0000
,
1001
0000
1000
0010
0100
0000
0100
0001
0010
0001
1000
0000
1000
0100
0010
0001
,
1000
0100
0010
0001
4000
0004
0000
0000
0000
0000
3000
0003
0100
0000
0001
0000
,
2000
0000
0101
0000
3000
0100
1000
0000
0010
0000
0001
0000
0001
0010
1000
0000
,
0002
0000
1100
0000
0003
0100
0001
0000
0010
0000
1000
0000
1000
0010
0001
0000
,
0200
0000
0011
0000
0300
0010
1000
0000
0100
0000
0001
0000
0001
0100
1000
0000
,
0200
0000
1010
0000
0300
0010
0001
0000
0100
0000
1000
0000
0110
0000
0000
0000
,
0101
0000
0000
0000
0000
0000
1010
0000
0000
1000
0001
1000
0001
1000
0001
0100
0000
0000
0000
0000
0000
0000
0010
0100
,
0010
2001
3100
0110
,
1100
0000
0000
0000
0000
0000
0011
0000
0000
0001
1000
0001
1000
0001
1000
0001
1000
0001
0100
0000
0000
0101
0000
0000
,
0000
0000
1100
0000
0000
0000
0110
0000
1001
0000
1001
0000
0001
0010
0100
1000
,
0010
0000
0120
0000
0000
0130
1000
0000
0100
00M0
0100
0000
1000
0010
0100
0001
,
0010
0000
0120
0000
0000
0130
0001
0000
0100
00M0
0100
0000
0001
1000
0010
1000
,
0100
0000
0210
0000
0000
0310
1000
0000
0010
0M00
0010
0000
1000
0001
0010
0001
,
0100
0000
0210
0000
0000
0310
0001
0000
0010
0M00
0010
0000
0011
0000
0000
0000
,
MM0M
1001
M0MM
1010
,
0110
0000
0000
0000
0000
0000
0000
0000
0000
0000
0000
0000
0101
0000
0000
0000
0000
0000
0000
0000
0000
0000
0000
0000
1001
0000
0000
0000
0000
0000
1000
0000
0000
0001
0000
0000
0011
0000
0000
0000
0000
0000
0000
0000
0101
0000
0000
0000
,
0000
1100
0000
0110
0000
0011
0000
1010
0000
1001
0000
1100
,
0000
0101
0000
0110
0000
1010
0000
0011
0000
2002
0000
0000
,
0000
0000
0000
0000
,
0000
0000
0000
3003
;

//---------------dance-single - Spork!----------------
#NOTES:
     dance-single:
     :
     Medium:
     8:
     0.560,0.541,0.322,0.268,0.076,373.000,36.000,30.000,0.000,0.000,0.000,0.560,0.541,0.322,0.268,0.076,373.000,36.000,30.000,0.000,0.000,0.000:
0000
0000
0000
0000
,
0000
0000
0000
0000
,
0000
0000
0000
0000
,
0000
0000
0000
0000
,
1000
0000
0100
0010
0000
0010
0001
0100
,
0001
0000
0010
0100
0000
0100
1000
0001
,
1000
0000
0010
0100
0000
0100
0001
1000
,
1001
0000
0000
0110
0000
0000
1001
0000
0000
0000
1000
0000
0001
0000
0020
0000
,
0000
0000
0001
0000
0000
1000
0000
0000
,
0100
0000
0000
0001
0030
0001
1000
0020
,
0000
1000
0000
0000
0001
0000
0000
0100
,
0000
0000
1000
0000
0030
0001
0000
0000
,
1000
0000
0100
0000
1000
0010
0100
0000
,
0001
0000
0100
0000
0001
0010
0100
0000
,
1000
0100
0010
0000
0001
0100
0010
0000
,
1000
0100
0000
1000
0000
1000
0001
0100
,
0010
0000
1010
0000
0010
0011
0000
0010
,
0110
0000
0010
1001
0000
0100
1100
0000
,
0100
0101
0000
0100
0110
0000
0100
1001
,
0000
0010
0011
0000
0010
1010
0000
0010
,
0110
0000
0010
0000
1000
0010
0100
0000
,
0001
0000
1000
0000
0001
0010
0100
0000
,
1000
0000
0100
0000
1000
0000
0100
0000
0010
0000
0100
0000
,
0010
0000
0001
0000
0010
0000
0001
0000
1000
0000
0001
0000
,
2002
0000
0000
0000
,
0000
0000
0000
3003
,
1000
0100
1000
0000
0100
0010
0100
0000
,
0010
0001
0010
0000
0001
1000
0001
0000
,
0001
0100
0001
0000
0100
0010
0100
0000
,
0010
1000
0010
0000
1000
0001
1000
0000
,
1000
0100
0020
0000
0001
0001
0031
0000
,
0001
0100
0020
0000
1000
1000
1030
0000
,
0001
0010
0200
0000
1000
1000
1300
0000
,
1000
0010
0200
0000
0010
0000
0301
0000
,
1002
0000
0013
0000
0010
0001
0100
0000
,
0020
0000
0130
0000
0100
0001
1000
0100
,
0120
0000
0130
0000
1000
0001
0010
0000
,
0200
0000
0310
0000
0010
0001
1000
0010
,
0210
0000
0310
0000
1000
0001
0010
0000
,
1002
0000
0013
0000
0100
1000
0010
0000
,
0120
0130
0102
1003
,
1100
1001
0101
1001
,
1000
0100
1000
0100
1000
0100
0010
0000
,
0001
0100
0001
0100
0001
0100
0010
0000
,
1000
0001
1000
0001
1000
0001
0010
0000
,
0100
0010
0100
0010
0001
1000
0001
1000
,
0001
0010
0001
0010
0001
0010
0100
0000
,
1000
0010
1000
0010
1000
0010
0100
0000
,
0001
1000
0001
1000
0001
1000
0100
0000
,
0010
0100
0010
0100
1000
1000
0002
0000
,
0103
0000
0010
0100
0001
0000
2000
0000
,
3100
0000
0010
0100
1000
0001
0200
0000
,
0310
0000
1000
0001
0100
0000
0020
0000
,
0130
0000
0001
1000
0010
0000
2001
0000
,
3100
0000
1000
0010
0100
0000
0210
0000
,
0301
0000
1000
0001
0010
0000
0100
0010
,
0100
0010
0100
0010
0100
0010
0001
1000
,
0001
1000
0001
1000
0001
1000
0010
0000
,
0100
0000
0001
1000
0001
0000
0010
0000
,
0100
0000
1000
0001
1000
0000
0010
0000
,
1000
0000
0100
0010
0100
0000
0010
0000
,
0001
0000
0100
0010
0100
0000
0001
0000
,
1000
1002
0100
1003
,
0001
2001
0100
3010
,
0100
0000
0210
0000
0010
0000
0301
0010
,
0000
0100
0000
0100
1000
0001
0200
0000
,
0301
0000
0010
0001
0100
0010
0020
0000
,
1030
0000
0100
1000
0010
0100
0200
0000
,
0310
0000
1000
0100
0010
0010
0200
0000
,
0310
0000
0001
0100
0010
0010
0110
0000
,
0000
1001
0000
0011
,
1001
0000
0000
1010
0000
0000
1001
0000
0000
0001
0000
0010
,
0000
0001
0000
0010
0000
0100
0000
0010
0000
0100
0000
1000
,
0000
0100
0000
1000
0000
0001
0000
1000
0000
0002
0000
0000
,
0000
0000
0000
0000
,
0000
0000
0000
0003
;

//---------------dance-single - Spork!----------------
#NOTES:
     dance-single:
     :
     Hard:
     11:
     0.901,0.913,0.625,0.277,0.545,605.000,70.000,31.000,0.000,0.000,0.000,0.901,0.913,0.625,0.277,0.545,605.000,70.000,31.000,0.000,0.000,0.000: // measure 0
0000
0000
0000
0000
,  // measure 1
0000
0000
0000
0000
,  // measure 2
0000
0000
0000
0000
,  // measure 3
0000
0000
0000
0000
,  // measure 4
0010
1000
0100
1000
0010
0100
0001
0001
,  // measure 5
0010
0001
0100
0001
0010
0100
1000
1000
,  // measure 6
0001
0100
0001
1000
0100
1000
0010
0100
,  // measure 7
0101
0000
0000
1100
0000
0000
0101
0000
0000
0000
0002
0000
0023
0000
0230
0000
,  // measure 8
1300
0010
1002
0013
0001
0210
0301
1000
,  // measure 9
0210
0301
0100
2001
3100
1000
0120
0031
,  // measure 10
1000
0120
1030
0100
1002
0103
0001
0120
,  // measure 11
0031
1000
0210
0301
0010
2001
3010
1000
,  // measure 12
0000
1000
0100
0000
0010
0000
0001
0000
0000
0001
1000
0001
1000
0000
1000
0000
,  // measure 13
0000
0001
0100
0000
0010
0000
1000
0000
0000
1000
0001
0100
0001
0000
0010
0000
,  // measure 14
0000
0001
0010
0000
0100
0000
1000
0000
0000
0010
0100
0000
0010
0000
1000
0000
,  // measure 15
1100
1001
0000
0011
0000
2000
3020
0230
,  // measure 16
0301
0010
2001
3010
0100
1020
0130
0001
,  // measure 17
0210
0301
0010
1002
0013
0100
1200
1300
,  // measure 18
0001
1002
0103
0010
0201
0310
1000
0120
,  // measure 19
1030
0100
2001
3100
0010
0021
0031
1000
,  // measure 20
1002
0000
0103
0001
0010
0100
1000
0010
,  // measure 21
0100
0001
1000
0100
0010
0001
1000
0010
,  // measure 22
0101
0000
0011
0000
1001
0000
1100
0000
0101
0000
1100
0000
,  // measure 23
1010
0000
1100
0000
0110
0000
0011
0000
1010
0000
0011
0000
,  // measure 24
2002
0000
0000
0000
,  // measure 25
0000
0000
0000
3003
,  // measure 26
0001
0000
0100
0000
0001
0000
0010
0000
0100
0000
0001
0000
0100
0010
0001
0000
,  // measure 27
1000
0000
0100
0000
1000
0000
0010
0000
0100
0000
1000
0000
0100
0010
1000
0000
,  // measure 28
0001
0000
0010
0000
0100
0000
0010
0000
1000
0000
0010
0000
0001
0100
0010
0000
,  // measure 29
1000
0000
0100
0000
0010
0000
0100
0000
0001
0000
0100
0000
1000
0010
0100
0000
,  // measure 30
0001
0000
0010
0000
1000
0000
0010
0000
0100
0000
1000
0000
1000
0100
0001
0000
,  // measure 31
0100
0000
1000
0000
0001
0000
0100
0000
1000
0000
0100
0000
0001
0010
0100
0000
,  // measure 32
0010
0000
0001
0000
1000
0000
0010
0000
0001
0000
0010
0000
1000
0100
0010
0000
,  // measure 33
0001
0100
1000
0100
0010
0010
0000
0010
,  // measure 34
1000
0010
1000
0000
0001
0010
0001
0000
0100
0000
1000
0000
0100
0000
0001
0000
,  // measure 35
0010
0001
0010
0000
0100
1000
0100
0000
1000
0000
0010
0000
0001
0000
0010
0000
,  // measure 36
1000
0100
1000
0000
0001
0100
0001
0000
0010
0000
1000
0000
0010
0000
0100
0000
,  // measure 37
0100
1000
0100
0000
0010
0001
0010
0000
0001
0000
0100
0000
1000
0000
0100
0000
,  // measure 38
0010
0100
0010
0000
0100
0001
0100
0000
0001
1000
0001
0100
0001
1000
0001
0000
,  // measure 39
0010
0100
0010
0000
0100
1000
0100
0000
1000
0001
1000
0100
1000
0001
1000
0000
,  // measure 40
0001
0100
0001
0000
0010
0000
0001
1000
0001
0000
0100
0010
0100
0000
0010
0000
,  // measure 41
1000
0000
0100
0000
1000
0000
0010
0000
1000
0001
1000
0001
1000
0001
1000
0001
,  // measure 42
0100
0000
0001
0000
0011
0000
0001
0000
1000
0000
1000
0001
1000
0000
0010
0000
,  // measure 43
0100
0001
0010
0000
0100
0000
0010
0001
0100
0000
0010
1000
0100
0000
0010
0000
,  // measure 44
0100
0000
1000
0000
1010
0000
1000
0000
0001
0000
0001
1000
0001
0000
0010
0000
,  // measure 45
0100
1000
0010
0000
0100
0000
0010
1000
0100
0000
0010
0001
0100
0000
0010
0000
,  // measure 46
1000
0000
0100
0000
0110
0000
0100
1000
0010
0000
0100
0001
0010
0000
0001
0000
,  // measure 47
1000
0001
0100
0000
0010
0000
0100
0001
1000
0000
0010
1000
0001
0000
0010
0000
,  // measure 48
0001
0000
0100
0000
0110
0000
0100
0001
0010
0000
0100
1000
0010
0000
1000
0000
,  // measure 49
0001
1000
0100
0000
0010
0000
0100
0000
1000
0001
1000
0000
0110
0000
0001
0000
,  // measure 50
0100
0000
0010
1000
0100
0000
0010
0001
0100
0000
0010
0000
0100
0001
0100
0000
,  // measure 51
0001
0000
1000
0001
1000
0000
0100
0010
0100
0010
0100
0000
0100
1000
0100
0000
,  // measure 52
1000
0000
0001
1000
0001
0000
0010
0100
0010
0100
0010
0000
0010
0001
0010
0000
,  // measure 53
0001
0000
1000
0001
1000
0000
0010
0100
0010
0100
0010
0000
1000
0100
0010
0001
,  // measure 54
0100
0000
0001
0010
0100
1000
0010
0000
1000
0000
0001
0000
0001
0100
0010
1000
,  // measure 55
0100
0000
1000
0010
0100
0001
0010
0000
0001
0000
1000
0000
1000
0100
0010
0000
,  // measure 56
0100
0000
1000
0100
0010
0000
0010
0001
1000
0001
0000
0001
0100
0010
0100
0010
,  // measure 57
0100
0010
0100
0010
1000
0001
1000
0001
1000
0001
1000
0001
0100
0000
0001
0000
,  // measure 58
0010
0001
0100
0010
1000
1000
0100
1000
,  // measure 59
0010
1000
0100
0010
0001
0001
1000
0010
,  // measure 60
1000
0001
0010
0001
0100
0100
0001
0010
,  // measure 61
0100
1000
0010
0100
0001
0001
1000
0000
,  // measure 62
0010
0000
0000
0000
1001
0000
0001
0000
0100
0000
0010
0000
0000
0000
0010
0100
,  // measure 63
0010
1001
0100
0001
,  // measure 64
0010
0000
1001
1000
0100
0010
0011
0101
,  // measure 65
0000
0000
1100
0000
0000
0000
0001
0000
0010
0000
0100
0000
1000
0100
1000
0010
,  // measure 66
1000
0000
0001
0000
0000
0100
0010
0000
1000
0000
0001
0000
0001
0010
0001
0100
,  // measure 67
0001
0000
1000
0000
0000
0010
0100
0000
0001
0000
1000
0000
0001
0010
0100
1000
,  // measure 68
0010
0000
0100
0000
0000
0100
0010
0000
1000
0000
0001
0000
1000
0100
0010
0001
,  // measure 69
0100
0000
0010
0000
0000
0010
0100
0000
0001
0000
1000
0000
1001
0000
0000
0000
,  // measure 70
0000
0110
0000
1100
,  // measure 71
0101
0000
0000
0000
0000
0000
0110
0000
0000
0000
0000
0000
1001
0000
0000
1000
0000
0000
1100
0000
0000
0000
1010
0000
,  // measure 72
0000
1001
0000
0101
0000
1100
0000
0101
0000
0011
0000
0101
,  // measure 73
0000
0110
0000
1010
0000
0011
0000
1010
0000
2002
0000
0000
,  // measure 74
0000
0000
0000
0000
,  // measure 75
0000
0000
0000
3003
;
