#TITLE:Samurai Blue;
#SUBTITLE:;
#ARTIST:ZZ;
#TITLETRANSLIT:;
#SUBTITLETRANSLIT:;
#ARTISTTRANSLIT:;
#CREDIT:Lisek;
#BANNER:[Other Rhythm Games] - Samurai Blue.png;
#BACKGROUND:[Other Rhythm Games] - Samurai Blue-bg.png;
#LYRICSPATH:;
#CDTITLE:cdtitle.png;
#MUSIC:[Other Rhythm Games] - Samurai Blue.mp3;
#OFFSET:-3.930;
#SAMPLESTART:48.735;
#SAMPLELENGTH:13.980;
#SELECTABLE:YES;
#BPMS:0.000=139.000;
#STOPS:;
#BGCHANGES:;

//---------------dance-single - ----------------
#NOTES:
     dance-single:
     Lisek:
     Hard:
     7:
     0.547,0.482,0.621,0.083,0.047:
1000
0001
0100
0010
0000
1000
0100
0010
,
0000
0001
0010
0100
0000
1000
1001
0000
,
0001
0100
0010
1000
0000
0100
0010
0001
,
0000
1000
0100
0010
0000
0001
1001
0000
,
1000
0010
0100
0001
0000
0010
0100
1000
,
0000
0100
0010
0001
0000
1000
1001
0000
,
0001
0100
0010
1000
0000
0001
0010
0100
,
0000
1000
0100
0010
0000
0001
0100
0010
,
1000
0000
1000
0100
0000
0000
0010
0000
0001
0000
0001
0100
0000
0000
0010
0000
,
1000
0001
0100
0010
1000
0001
1000
0010
,
0100
0000
0000
0100
0000
0000
0010
0000
1000
0000
0000
1000
0000
0000
0001
0000
,
0010
0001
1000
0000
2002
0000
0000
3003
,
1000
0000
1000
0010
0000
0000
0100
0000
0001
0000
0001
0100
0000
0000
0010
0000
,
1000
0001
0100
0000
0010
0010
0010
0000
,
1000
0000
1000
0100
0000
0000
0010
0000
0001
0000
0001
0100
0000
0000
0010
0000
,
1000
0001
0100
0000
2002
0000
0000
3003
,
1000
0100
0001
0100
1000
0010
0001
0010
,
1000
0100
0001
0100
1000
0010
0001
0010
,
1000
0001
0000
0001
0100
0010
0000
0010
,
1000
0100
0010
0001
2000
3000
0002
0003
,
0001
0010
1000
0010
0001
0100
1000
0100
,
0001
0010
1000
0010
0001
0100
1000
0100
,
0001
0000
1000
0000
0000
0000
1000
0000
0100
0000
0000
0010
0000
0000
0000
0000
,
0001
1000
0010
0100
,
0010
0100
0010
0100
0010
0100
0010
0110
,
0000
1001
0000
0110
0110
0000
1001
0000
,
0002
0100
0100
0100
0100
0100
0100
0100
,
0103
0000
0101
1001
,
1010
0000
1001
1001
0000
0000
1000
0000
,
0001
0011
0101
1001
,
1000
0100
1000
0010
0110
0000
0100
0001
,
0100
0010
0110
0000
1000
0001
0010
0100
,
1000
0001
0100
0010
0100
0001
1000
0100
,
1100
0110
0011
1001
,
2000
0010
0010
0010
0010
0010
0010
0010
,
3010
0000
1010
0110
,
0101
0000
1001
1001
0000
0000
0001
0000
,
1000
1100
1010
1001
,
0001
0100
0010
0100
0110
0000
1000
0010
,
0100
0001
0101
0000
0001
1000
0100
0010
,
0110
1100
1001
0000
,
1001
0110
1001
0110
,
1000
0000
1100
0000
1100
0000
0000
0101
,
0000
0101
0000
1000
0001
0100
0010
1000
,
0001
0000
0101
0000
0101
0000
0000
1010
,
0000
1010
0000
0001
0100
0010
1000
0001
,
1000
0000
1100
0000
1100
0000
0000
0011
,
0000
0011
0000
1000
0001
0010
0100
1000
,
0001
0000
0011
0000
0011
0000
0000
1100
,
0000
1100
0000
0001
1000
0100
0010
0001
,
1000
0000
1001
0000
0010
0100
0001
0000
,
1000
0100
0010
0001
0000
1001
1001
0000
;

//---------------dance-single - ----------------
#NOTES:
     dance-single:
     Lisek:
     Beginner:
     1:
     0.071,0.079,0.000,0.021,0.000: // measure 1
1000
0000
0000
0000
,  // measure 2
0000
0000
0000
0000
,  // measure 3
0001
0000
0000
0000
,  // measure 4
0000
0000
0000
0000
,  // measure 5
0100
0000
0000
0000
,  // measure 6
0000
0000
0000
0000
,  // measure 7
0010
0000
0000
0000
,  // measure 8
0000
0000
0000
0000
,  // measure 9
1000
0000
0000
0000
,  // measure 10
0001
0000
0000
0000
,  // measure 11
1000
0000
0000
0000
,  // measure 12
0001
0000
0000
0000
,  // measure 13
0100
0000
0000
0000
,  // measure 14
0010
0000
0000
0000
,  // measure 15
0100
0000
0000
0000
,  // measure 16
0010
0000
0000
0000
,  // measure 17
1000
0000
0000
0000
,  // measure 18
0100
0000
0000
0000
,  // measure 19
0010
0000
0000
0000
,  // measure 20
0001
0000
0000
0000
,  // measure 21
1000
0000
0000
0000
,  // measure 22
0100
0000
0000
0000
,  // measure 23
0010
0000
0000
0000
,  // measure 24
0001
0000
0000
0000
,  // measure 25
1000
0000
0000
0000
,  // measure 26
0001
0000
0000
0000
,  // measure 27
2000
0000
0000
0000
,  // measure 28
3000
0000
0000
0000
,  // measure 29
0001
0000
0000
0000
,  // measure 30
1000
0000
0000
0000
,  // measure 31
0001
0000
0000
0000
,  // measure 32
0100
0000
0000
0000
,  // measure 33
0010
0000
0000
0000
,  // measure 34
1000
0000
0000
0000
,  // measure 35
0002
0000
0000
0000
,  // measure 36
0003
0000
0000
0000
,  // measure 37
1000
0000
0000
0000
,  // measure 38
0010
0000
0000
0000
,  // measure 39
0100
0000
0000
0000
,  // measure 40
0001
0000
0000
0000
,  // measure 41
1000
0000
0000
0000
,  // measure 42
0001
0000
0000
0000
,  // measure 43
1000
0000
0000
0000
,  // measure 44
1000
0000
0000
0000
,  // measure 45
0001
0000
0000
0000
,  // measure 46
0001
0000
0000
0000
,  // measure 47
0100
0000
0000
0000
,  // measure 48
0100
0000
0000
0000
,  // measure 49
0010
0000
0000
0000
,  // measure 50
0010
0000
0000
0000
,  // measure 51
1000
0000
0000
0000
,  // measure 52
0001
0000
0000
0000
;

//---------------dance-single - ----------------
#NOTES:
     dance-single:
     Lisek:
     Medium:
     4:
     0.291,0.295,0.093,0.093,0.000: // measure 1
1000
0100
0010
0001
,  // measure 2
1000
0001
0020
0030
,  // measure 3
0001
0100
0010
1000
,  // measure 4
0001
0010
0200
0300
,  // measure 5
0010
0001
1000
0001
,  // measure 6
0100
0010
2000
3000
,  // measure 7
0001
1000
0010
0100
,  // measure 8
0001
1000
0010
0000
,  // measure 9
1000
0100
1000
0010
,  // measure 10
0100
0010
0100
0001
,  // measure 11
0010
0001
1000
0010
,  // measure 12
0100
0010
0110
0000
,  // measure 13
0001
1000
0010
1000
,  // measure 14
0100
0010
0001
1000
,  // measure 15
0010
0100
0001
1000
,  // measure 16
0010
1000
1010
0000
,  // measure 17
1000
1000
0100
0100
,  // measure 18
0010
0010
0001
0001
,  // measure 19
1000
0000
0001
0000
,  // measure 20
0100
0010
1000
0000
,  // measure 21
0001
0001
0010
0010
,  // measure 22
0100
0100
1000
1000
,  // measure 23
0001
0000
0100
0000
,  // measure 24
0010
1000
0100
0010
,  // measure 25
0001
1000
0010
0100
,  // measure 26
0220
0000
0000
0330
,  // measure 27
2002
0000
0000
0003
,  // measure 28
3001
0000
0001
0100
,  // measure 29
0010
0000
1000
0001
0000
0000
1000
0000
,  // measure 30
0100
0010
0001
1000
,  // measure 31
0001
0100
0001
1000
,  // measure 32
0010
1000
0001
0100
,  // measure 33
0001
1000
0001
0000
,  // measure 34
1000
0001
1000
0001
,  // measure 35
2002
0000
0000
3000
,  // measure 36
1003
0000
1000
0001
,  // measure 37
0100
0000
0010
0100
0000
0000
0001
0000
,  // measure 38
1000
0010
0100
0001
,  // measure 39
1000
0100
0010
0001
,  // measure 40
0100
0010
1000
0001
,  // measure 41
1000
0001
1000
0000
,  // measure 42
0010
0100
0001
1000
,  // measure 43
0000
0001
0101
0000
,  // measure 44
1000
0010
0100
0001
,  // measure 45
0000
1000
1010
0000
,  // measure 46
0010
0100
0001
0010
,  // measure 47
0000
0001
0011
0000
,  // measure 48
0001
1000
0010
0100
,  // measure 49
0000
0010
0110
0000
,  // measure 50
0100
0001
1000
0010
,  // measure 51
0100
0000
0100
0000
0010
0100
0010
0000
,  // measure 52
0100
0010
0100
0010
0000
0100
0100
0000
;

//---------------dance-single - ----------------
#NOTES:
     dance-single:
     Lisek:
     Easy:
     2:
     0.155,0.160,0.041,0.103,0.000: // measure 1
1000
0000
0010
0000
,  // measure 2
0100
0000
0000
0000
,  // measure 3
0001
0000
0100
0000
,  // measure 4
0010
0000
0000
0000
,  // measure 5
1000
0000
0100
0000
,  // measure 6
0010
0000
0000
0000
,  // measure 7
0001
0000
0010
0000
,  // measure 8
0100
0000
0000
0000
,  // measure 9
1000
0000
0100
0000
,  // measure 10
1000
0000
0100
0000
,  // measure 11
0010
0000
0001
0000
,  // measure 12
0010
0000
0001
0000
,  // measure 13
1000
0000
0001
0000
,  // measure 14
1000
0000
0001
0000
,  // measure 15
0100
0000
0010
0000
,  // measure 16
0100
0000
0010
0000
,  // measure 17
1000
0000
1000
0000
,  // measure 18
0100
0000
0100
0000
,  // measure 19
0010
0000
0010
0000
,  // measure 20
0001
1000
0001
0000
,  // measure 21
0001
0000
0001
0000
,  // measure 22
0010
0000
0010
0000
,  // measure 23
0100
0000
0100
0000
,  // measure 24
1000
0000
0001
0000
,  // measure 25
1000
0000
0001
0000
,  // measure 26
1001
0000
0000
0000
,  // measure 27
2002
0000
0000
0000
,  // measure 28
3003
0000
1000
0000
,  // measure 29
0001
0000
0100
0000
,  // measure 30
0010
0000
1000
0000
,  // measure 31
0002
0000
0003
2000
,  // measure 32
0000
3000
0001
0000
,  // measure 33
1000
0000
0010
0000
,  // measure 34
1000
0000
0001
0000
,  // measure 35
2002
0000
0000
0000
,  // measure 36
3003
0000
0001
0000
,  // measure 37
1000
0000
0010
0000
,  // measure 38
1000
0000
0001
0000
,  // measure 39
0200
0000
0300
0020
,  // measure 40
0000
0030
1000
0000
,  // measure 41
0001
0000
0100
0000
,  // measure 42
0001
0000
1000
0000
,  // measure 43
0001
0000
0001
0000
,  // measure 44
1000
0000
1000
0000
,  // measure 45
0001
0000
0001
0000
,  // measure 46
1000
0000
1000
0000
,  // measure 47
0010
0000
0010
0000
,  // measure 48
0100
0000
0100
0000
,  // measure 49
0010
0000
0010
0000
,  // measure 50
0100
0000
0100
0000
,  // measure 51
2002
0000
0000
0000
,  // measure 52
0000
0000
3003
0000
;
