#TITLE:ΓΈ;
#SUBTITLE:;
#ARTIST:EBICO & jioyi;
#TITLETRANSLIT:SLIT;
#SUBTITLETRANSLIT:;
#ARTISTTRANSLIT:;
#GENRE:;
#CREDIT:;
#MENUCOLOR:;
#METERTYPE:DDR;
#BANNER:[Other Rhythm Games] - SLIT.png;
#BACKGROUND:[Other Rhythm Games] - SLIT-bg.png;
#LYRICSPATH:;
#CDTITLE:;
#MUSIC:[Other Rhythm Games] - SLIT.mp3;
#OFFSET:-0.058;
#SAMPLESTART:85.460;
#SAMPLELENGTH:13.000;
#SELECTABLE:YES;
#LISTSORT:;
#BPMS:0.000=165.000,8.000=82.500,24.000=165.000;
#STOPS:215.500=0.727
;
#BGCHANGES:;
#ATTACKS:;

//---------------dance-single - ----------------
#NOTES:
     dance-single:
     :
     Hard:
     9:
     0.656,0.717,0.382,0.382,0.582:
0000
0000
0000
0000
,
0000
0000
0000
0000
0000
0000
0000
0000
1100
0000
0000
0110
0000
0000
0011
0000
,
2001
0000
0000
0000
0000
0000
0000
0000
3020
0000
0000
0200
0030
0000
0302
0000
,
0023
0000
0100
0200
0000
0030
0000
2000
0000
0000
0300
0000
3002
0000
1003
0010
,
0200
0000
0000
0000
0000
0000
0000
0000
0020
0300
0000
2000
0030
0000
3002
0000
,
0200
0000
0000
0003
0020
0000
0330
0000
,
0001
0000
0000
1000
0000
0000
0001
0000
0000
1000
0000
0000
0001
1000
0000
0001
,
0100
0000
0000
0010
0000
0000
0100
0000
0000
0010
0000
0000
0100
0010
0000
0100
,
0001
0000
0000
0100
0000
0000
0001
0000
0000
0100
0000
0000
0001
0100
0000
0001
,
1000
0000
0000
0010
0000
0000
1000
0000
0010
1000
0000
0010
0000
1000
0010
0000
,
1000
0100
0010
0001
1000
0100
0010
0001
,
1000
0010
0100
0001
1000
0010
0100
0001
,
0011
1010
1100
0101
,
1001
0000
0001
0000
1000
0100
0010
0001
0020
0000
0000
0000
0130
0000
0000
0000
,
0010
0000
0000
0100
0010
0000
0010
0000
0010
0000
0110
0000
0000
0101
0000
0000
,
1000
0000
0000
0001
0010
0100
0010
0100
0010
0000
0010
0000
0001
0000
1000
0100
,
1000
0000
0000
0000
0000
0000
0000
0000
0000
0001
0000
0000
0100
0000
0000
0000
0000
0000
0000
0000
0000
0000
0000
0000
0001
0000
0000
0000
0010
0000
0000
0000
0100
0000
0000
0000
1000
0000
0000
0000
0000
0000
0000
0000
0000
0000
0000
0000
,
0220
0330
2002
3003
,
1010
0000
0000
0000
0000
0000
0100
0000
0000
0100
0000
0000
0001
0000
0010
0000
0001
0000
0100
0000
0010
0000
0100
0000
,
0010
0000
1000
0000
0010
0000
1000
0000
0100
0000
1000
0000
0001
0000
0000
0010
0000
0000
0100
0000
0000
0010
0000
0000
,
0001
0000
0101
0000
0000
0000
0010
0000
0100
0000
0000
0100
0000
0000
0100
0000
,
0101
1010
0220
0330
,
2002
0000
0000
0000
0000
0000
0000
0000
0000
0003
0000
0000
3001
0000
0010
0000
0100
0000
0010
0000
0100
0000
1000
0000
,
0200
0000
0000
0000
0000
0000
0310
0000
0002
0000
0000
0203
0000
0000
0310
0000
,
1000
0100
1000
0100
0010
0001
0010
0001
0100
0000
0100
0000
0100
0000
0100
0000
,
0010
0100
0001
0010
0000
0000
1100
0000
0000
0011
0000
0000
,
1001
0000
0000
0000
1000
0000
0010
0100
0001
0000
0010
0000
0100
0000
0000
0000
,
0010
0000
0001
0000
0100
0000
0010
0000
0100
0000
0000
0100
0000
0000
0100
0000
,
0001
0100
1000
0100
0001
0010
1000
0010
,
0001
0000
0010
0000
0100
0000
1000
0000
0001
0100
0010
1000
0100
0000
0000
0000
,
2020
0000
0000
3000
,
0200
0030
0000
0002
0300
0000
0023
0000
,
0230
0000
0010
0020
0000
0000
0300
0000
,
0002
0000
0000
0000
0030
0000
1003
0100
,
0020
0000
0000
0000
,
0200
0030
0000
0020
0300
0000
0032
0000
,
2000
0000
0000
0003
,
3020
0000
0200
0330
,
0110
0000
0100
0000
0001
0010
0000
0100
,
0010
0000
0001
0000
1000
0010
0000
1000
,
0100
0000
0010
0000
0100
0010
0000
0001
,
0100
0000
0010
0000
0100
0001
1000
0000
,
1010
0000
0010
0000
0100
0001
1000
0000
,
1100
0000
0100
0000
0010
0001
0101
0000
,
1001
1000
1010
0220
,
0000
0000
0000
0330
,
0001
1000
0000
0001
1000
0000
0001
1000
0000
0001
1000
0000
0010
1000
0010
1000
,
0100
0000
0010
0000
0001
0000
0100
0000
0010
0000
1000
0000
0001
0010
0100
0010
,
0001
0100
0000
0001
0100
0000
0001
0100
0000
0001
0100
0000
0001
1000
0001
1000
,
0100
0000
0010
0100
0010
0000
0100
1000
0100
0000
1000
0000
0001
0010
0100
1000
,
0100
0010
0000
0100
0010
0000
0100
0010
0000
0100
0010
0000
0100
0010
0100
0010
,
2000
3000
0000
2000
3000
0000
2000
3000
0000
2000
3000
0000
0001
0000
0100
0000
,
0010
1000
0000
0010
1000
0000
0010
0000
0100
0001
0000
0100
0001
0000
0100
0001
,
0000
0100
0010
0000
1000
0000
0001
0000
0010
0100
0000
0010
0000
0001
0100
0000
,
0000
0000
0000
0000
1001
0000
0000
0000
0001
0000
0000
0100
0010
0000
0100
0001
,
0000
0010
0100
0000
1000
0001
0000
0010
0100
0000
0000
1000
0100
0000
1000
0010
,
0000
0100
0010
0000
0001
0010
0000
0100
1000
0000
0000
1000
0010
0000
0100
0001
,
0000
1000
0010
0000
1000
0100
1000
0000
1010
0000
0000
0000
0100
0000
0101
0000
,
0000
0000
1000
0000
1001
0000
0001
0000
1001
0000
0000
1000
0010
0000
0100
0010
,
0000
0100
0001
0000
0010
0100
0000
0010
0001
0000
0000
1000
0010
0000
1000
0001
,
0000
0010
0100
0000
1000
0100
0000
0010
0100
0000
0000
0010
0001
0000
1000
0010
,
0000
0100
0010
0000
1010
0000
0000
0000
0110
0000
0000
0101
0000
0000
0110
0000
,
1010
0000
0000
0110
0000
0000
0101
0000
1001
0000
0000
1000
0010
0000
1000
0100
,
0000
0010
0100
0000
1000
0001
0000
0010
0001
0000
0000
0100
0010
0000
0100
0001
,
0000
0010
0100
0000
1000
0010
0000
0100
0010
0000
0000
0100
0001
0000
0010
0001
,
0000
1000
0100
0000
1000
0000
1100
0000
0000
0000
1001
0000
0000
0000
1010
0000
,
0000
0000
0101
0000
0001
0100
0010
1000
0100
0000
1000
0000
0010
0000
0100
0000
,
0001
0010
0001
1000
0010
0100
0001
0010
,
0100
0000
1000
0000
0100
0010
0100
0010
0001
0000
1000
0000
0010
0000
1000
0000
,
0100
0000
0010
0000
0100
0000
1000
0000
0010
0000
0000
0100
0000
0000
0001
0000
,
1000
0100
0010
0001
0010
0100
1000
0000
0000
0000
0000
0000
;

//---------------dance-single - ----------------
#NOTES:
     dance-single:
     :
     Medium:
     7:
     0.466,0.573,0.187,0.415,0.220:
0000
0000
0000
0000
,
0000
0000
0000
0000
0000
0000
0000
0000
0001
0000
0000
0001
0000
0000
0001
0000
,
2000
0000
0000
0000
0000
0000
0000
0000
0020
3000
0000
0200
0030
0000
0302
0000
,
0023
0000
0100
0200
0000
0030
0000
0020
0000
0000
0300
0000
0032
0000
1003
0001
,
2000
0000
0000
0000
0000
0000
0000
0000
0020
3000
0000
0200
0030
0000
0302
0000
,
0020
0000
0000
0003
0200
0000
0330
0000
,
0010
0000
0000
0010
0000
0000
0100
0000
0000
0100
0000
0000
0010
0000
0000
0000
,
1000
0000
0000
1000
0000
0000
0001
0000
0000
0001
0000
0000
1000
0000
0000
0000
,
0001
0000
0000
0001
0000
0000
0100
0000
0000
0100
0000
0000
0001
0000
0000
0000
,
1000
0000
0000
1000
0000
0000
0010
0000
1000
0000
0000
0010
0000
0000
1000
0000
,
0001
1000
0001
0000
1000
0100
1000
0000
,
0100
0010
0100
0000
0010
0001
0010
0000
,
0101
1010
1100
0011
,
1000
0001
2000
0000
3020
0000
0130
0000
,
0100
0000
0000
0000
0001
0000
0100
0000
0001
0000
0100
0000
0000
0001
0000
0000
,
1000
0000
0001
0010
0100
0010
0001
0000
,
1000
0110
0010
0100
,
0220
0330
2002
3003
,
0001
0000
0000
0000
0000
0000
1000
0000
0000
0100
0000
0000
1000
0000
0000
0000
1000
0000
0100
0000
0000
0000
0100
0000
,
0010
0000
0000
0000
0010
0000
0001
0000
0000
0000
0000
0000
1000
0000
0000
0001
0000
0000
1000
0000
0000
0001
0000
0000
,
1000
0000
0010
0000
0000
0000
0000
0000
0010
0000
0000
0100
0000
0000
0010
0000
,
1000
0010
0220
0330
,
2002
0003
3001
0100
,
0020
0000
0000
0000
0000
0000
0130
0000
0002
0000
0000
2003
0000
0000
3100
0000
,
0020
0000
0000
0000
0130
0001
0100
0001
,
1000
0000
0100
0010
0100
0000
1001
0000
,
1010
0000
1000
0100
0010
0000
0100
0000
,
0010
0000
0001
0000
0100
0000
0001
0000
0100
0000
0000
0001
0000
0000
0100
0000
,
0001
0100
1000
0000
1000
0100
0001
0000
,
0001
0100
0010
1000
0200
0000
0300
0000
,
2001
0000
0000
0000
,
0020
3000
0000
0200
0030
0000
0302
0000
,
0023
0000
0100
0200
0000
0000
0030
0000
,
0020
0000
0000
0000
0300
0000
0031
0010
,
0002
0000
0000
0000
,
0200
0003
0000
0020
0300
0000
0230
0000
,
0002
0000
0000
0300
,
2000
0003
0002
3003
,
0110
0000
0100
0000
0001
0010
0000
0000
,
0100
0000
0010
0000
0001
0100
0000
0000
,
0010
0000
0100
0000
0001
1000
0000
0000
,
0100
0000
1000
0000
0010
0100
0010
0000
,
0110
0100
0001
1000
,
1100
0100
0010
0011
,
0101
0100
0110
2002
,
0000
0000
0000
3003
,
1000
0000
0000
0001
0000
0000
1000
0000
0000
0001
0000
0000
1000
0000
0001
0000
,
0010
0000
0100
0010
0100
0010
0200
0000
,
0310
0000
0000
0001
0000
0000
0010
0000
0000
0001
0000
0000
0010
0000
0001
0000
,
1000
0001
0010
0001
0100
0001
2000
0000
,
3010
0000
0000
1000
0000
0000
0010
0000
0000
1000
0000
0000
0010
0000
1000
0000
,
0200
0300
0000
0200
0300
0000
0200
0300
0000
0200
0300
0000
0100
0000
0000
0000
,
0010
0000
0000
0100
0000
0000
0010
0000
1000
0000
0000
0100
0000
0000
1000
0000
,
0000
0100
0000
0000
1000
0000
0001
0000
0100
0000
0000
0010
0000
0000
0100
0000
,
0000
0000
0000
0000
1001
0000
0000
0000
1000
0000
0000
0010
0000
0000
0100
0000
,
0000
0001
0000
0000
0010
0000
0000
0000
0100
0000
0000
0010
0000
0000
0001
0000
,
0000
0100
0000
0000
0001
0000
0000
0000
0100
0000
0000
0010
0000
0000
1000
0000
,
0000
0100
0000
0000
1000
0000
0001
0000
0100
0000
0000
0000
0010
0000
0100
0000
,
0000
0000
0001
0000
0010
0000
0100
0000
1000
0000
0000
0010
0000
0000
0100
0000
,
0000
0001
0000
0000
0010
0000
0000
0000
0100
0000
0000
0010
0000
0000
0001
0000
,
0000
0100
0000
0000
0010
0000
0000
0000
0100
0000
0000
0001
0000
0000
1000
0000
,
0000
0100
0000
0000
1000
0000
0000
0000
0001
0000
0000
0010
0000
0000
0100
0000
,
1000
0000
0000
0100
0000
0000
0010
0000
0001
0000
0000
0100
0000
0000
0010
0000
,
0000
0100
0000
0000
0001
0000
0000
0000
1000
0000
0000
0100
0000
0000
0010
0000
,
0000
0100
0000
0000
0010
0000
0000
0000
0001
0000
0000
0100
0000
0000
0010
0000
,
0000
1000
0000
0000
0100
0000
1000
0000
0000
0000
1100
0000
0000
0000
0011
0000
,
0000
0001
0100
0000
0001
0100
1000
0000
,
1000
0100
0001
0000
1000
0010
0001
0000
,
0001
0010
1000
0000
0001
0100
0001
0100
,
0010
0000
1000
0000
0010
0000
1000
0000
0100
0000
0000
0010
0000
0000
0100
0000
,
1000
0001
1001
0000
;

//---------------dance-single - ----------------
#NOTES:
     dance-single:
     :
     Easy:
     5:
     0.344,0.545,0.155,0.358,0.028: // measure 1
0000
0000
0000
0000
,  // measure 2
0000
0000
1001
0000
,  // measure 3
2001
0000
0000
0000
0000
0000
0000
0000
0020
3000
0000
0200
0030
0000
0302
0000
,  // measure 4
0023
0000
0200
0000
0000
0030
0000
0020
0000
0000
0300
0000
0230
0000
0301
0000
,  // measure 5
0200
0000
0000
0000
0000
0000
0000
0000
0020
0300
0000
0200
0030
0000
0302
0000
,  // measure 6
2000
0000
0000
0003
0002
0000
3003
0000
,  // measure 7
1000
0010
0000
0100
,  // measure 8
0000
0001
0000
0010
,  // measure 9
0000
0001
0000
0100
,  // measure 10
0000
0010
0000
0100
,  // measure 11
0001
1000
0100
1000
,  // measure 12
0010
0100
0001
0010
,  // measure 13
0100
0010
0001
1000
,  // measure 14
0001
2000
0000
3001
,  // measure 15
0100
0000
0000
0000
0010
0000
0000
0000
0000
0000
0100
0000
0000
0010
0000
0000
,  // measure 16
0100
0000
0001
0000
1000
0001
1000
0000
,  // measure 17
0001
0100
0010
0100
,  // measure 18
0220
0330
2002
3003
,  // measure 19
1000
0001
1000
0100
,  // measure 20
0010
0001
0100
0010
,  // measure 21
0100
0010
0000
0000
0100
0000
0001
0000
,  // measure 22
1000
0010
0220
0330
,  // measure 23
2001
0000
3010
0100
,  // measure 24
0002
0000
0000
0000
2003
0000
0000
3100
,  // measure 25
0020
0000
0130
0010
,  // measure 26
0100
1000
1010
0101
,  // measure 27
1001
0000
0010
0000
,  // measure 28
0100
0001
0000
0010
,  // measure 29
0001
0010
0100
1000
,  // measure 30
0001
0010
0200
0300
,  // measure 31
2001
0000
0000
0000
,  // measure 32
0020
3000
0000
0200
0030
0000
0302
0000
,  // measure 33
0023
0200
0000
0030
,  // measure 34
0020
0000
0300
0031
,  // measure 35
0200
0000
0000
0000
,  // measure 36
0020
0300
0000
0200
0030
0000
0302
0000
,  // measure 37
2000
0000
0000
0003
,  // measure 38
0020
3000
0200
0330
,  // measure 39
1001
0000
1000
0000
0000
0001
0000
0000
,  // measure 40
0100
0000
0010
0000
0000
0100
0000
0000
,  // measure 41
0001
0000
0010
0000
0000
0100
0000
0000
,  // measure 42
0010
0000
0001
0000
0000
1000
0000
0000
,  // measure 43
1010
0010
1000
0010
,  // measure 44
0110
0100
0010
1010
,  // measure 45
1010
1000
1001
2002
,  // measure 46
0000
0000
0000
3003
,  // measure 47
0001
0000
0000
1000
0000
0000
0001
0000
,  // measure 48
0100
0010
0100
0002
,  // measure 49
1003
0000
0000
0100
0000
0000
1000
0000
,  // measure 50
0001
0010
0000
0100
0000
1000
0002
0000
,  // measure 51
1003
0000
0000
0010
0000
0000
0100
0000
,  // measure 52
0001
0000
0000
0001
0000
0000
0001
0000
,  // measure 53
1000
0000
0000
0010
0100
0000
0000
0001
,  // measure 54
0000
0000
0000
0000
0010
0000
0000
0000
0100
0000
0000
0010
0000
0000
0100
0000
,  // measure 55
0000
1001
1000
0010
,  // measure 56
0100
0001
0010
0001
,  // measure 57
0100
0010
1000
0100
,  // measure 58
1000
0000
0001
0100
0001
0000
0100
0010
,  // measure 59
0000
0100
0010
0100
0010
0000
0100
0000
,  // measure 60
0001
1000
0100
0010
,  // measure 61
0100
0010
0001
0100
,  // measure 62
0010
0000
0000
0000
1000
0000
0000
0000
0001
0000
0000
0001
0000
0000
0001
0000
,  // measure 63
1000
0000
0000
1000
0000
0000
1000
0000
0001
0000
0000
0000
0100
0000
0000
0000
,  // measure 64
0010
0100
0001
1000
,  // measure 65
0100
0010
0100
0010
,  // measure 66
0001
0000
0100
0010
0000
0100
0000
0001
,  // measure 67
0000
1000
0000
0000
0001
0000
0100
0000
,  // measure 68
0010
0100
0001
1000
,  // measure 69
0100
0010
0100
0010
,  // measure 70
0001
0100
0010
0000
,  // measure 71
0001
1000
1001
0000
;

//---------------dance-single - ----------------
#NOTES:
     dance-single:
     :
     Beginner:
     2:
     0.141,0.258,0.114,0.000,0.000: // measure 1
0000
0000
0000
0000
,  // measure 2
0000
0000
1001
0000
,  // measure 3
1001
0000
0000
0000
,  // measure 4
0000
0000
0000
0000
,  // measure 5
0000
0000
0000
0000
,  // measure 6
0000
0000
0000
0000
,  // measure 7
1001
0000
0000
0000
,  // measure 8
0001
0000
0000
0000
,  // measure 9
0001
0000
0000
0000
,  // measure 10
0001
0000
0000
0000
,  // measure 11
1000
0000
0000
0000
,  // measure 12
1000
0000
0000
0000
,  // measure 13
1000
0000
0000
0000
,  // measure 14
1000
0000
0000
0000
,  // measure 15
0010
0000
0100
0000
,  // measure 16
0010
0000
0100
0000
,  // measure 17
0010
0000
1000
0000
,  // measure 18
1001
0000
0110
0000
,  // measure 19
1001
0000
0001
0000
,  // measure 20
0010
0000
0100
0000
,  // measure 21
0010
0000
0001
0000
,  // measure 22
0100
0000
0110
0000
,  // measure 23
1001
0000
0001
0000
,  // measure 24
1000
0000
0010
0000
,  // measure 25
0100
0000
0001
0000
,  // measure 26
1000
0000
1001
1001
,  // measure 27
1001
0000
0000
0000
,  // measure 28
0110
0000
0000
0000
,  // measure 29
1000
0000
1000
0000
,  // measure 30
0001
0000
0001
0000
,  // measure 31
1000
0000
0000
0000
,  // measure 32
0000
0000
0000
0000
,  // measure 33
0000
0000
0000
0000
,  // measure 34
0000
0000
0000
0000
,  // measure 35
0000
0000
0000
0000
,  // measure 36
0000
0000
0000
0000
,  // measure 37
0000
0000
0000
0000
,  // measure 38
0000
0000
0000
0000
,  // measure 39
1000
0000
0000
0000
,  // measure 40
0001
0000
0000
0000
,  // measure 41
1000
0000
0000
0000
,  // measure 42
0001
0000
0000
0000
,  // measure 43
0100
0000
0000
0000
,  // measure 44
0010
0000
0000
0000
,  // measure 45
0100
0000
0010
0100
,  // measure 46
0000
0000
0000
0000
,  // measure 47
1000
0000
0000
0000
,  // measure 48
0001
0001
1000
1000
,  // measure 49
0001
0000
0000
0000
,  // measure 50
0100
0000
0000
0010
,  // measure 51
0100
0000
0000
0000
,  // measure 52
0100
0000
0000
0100
0000
0000
0100
0000
,  // measure 53
0010
0000
0100
0000
,  // measure 54
0000
0000
0000
0000
0001
0000
0000
1000
,  // measure 55
0000
1001
1000
0001
,  // measure 56
0000
1000
0000
0001
,  // measure 57
0000
1000
0000
0001
,  // measure 58
0000
0000
1000
0000
0001
0000
0000
1000
,  // measure 59
0000
0001
0100
0010
,  // measure 60
0000
0100
0000
0010
,  // measure 61
0000
0100
0000
0010
,  // measure 62
0000
0100
0001
0000
,  // measure 63
1000
0000
0001
1000
,  // measure 64
0000
0001
0000
1000
,  // measure 65
0000
0001
0000
1000
,  // measure 66
0000
0000
0001
0000
0000
1000
0000
0001
,  // measure 67
0000
1000
0000
0000
0001
0000
1000
0000
,  // measure 68
0000
0010
0000
0100
,  // measure 69
0000
0001
0000
0010
,  // measure 70
0000
0100
1000
0000
,  // measure 71
0001
0000
1001
0000
;
