#TITLE:Rooftop Run;
#SUBTITLE:Act 1;
#ARTIST:大谷智哉;
#TITLETRANSLIT:;
#SUBTITLETRANSLIT:;
#ARTISTTRANSLIT:Tomoya Ohtani;
#GENRE:Game;
#CREDIT:vincentw;
#BANNER:[Other Rhythm Games] - Rooftop Run (Act 1).png;
#BACKGROUND:[Other Rhythm Games] - Rooftop Run (Act 1)-bg.png;
#LYRICSPATH:;
#CDTITLE:cdtitle.png;
#MUSIC:[Other Rhythm Games] - Rooftop Run (Act 1).ogg;
#OFFSET:1.252000;
#SAMPLESTART:12.958527;
#SAMPLELENGTH:12.631578;
#LASTBEATHINT:0.638400;
#SELECTABLE:YES;
#BPMS:0.000000=152.000000
;
#STOPS:
;
#BGCHANGES:0.000=[Other Rhythm Games] - Rooftop Run (Act 1)-bg.png=1.000=0=0=1=====,
99999=-nosongbg-=1.000=0=0=0 // don't automatically add -songbackground-
;
#KEYSOUNDS:;
#ATTACKS:;

//---------------dance-single - ----------------
#NOTES:
     dance-single:
     :
     Beginner:
     1:
     0.120829,0.124472,0.034878,0.052318,0.000000,87.000000,4.000000,6.000000,0.000000,0.000000,0.000000,0.120829,0.124472,0.034878,0.052318,0.000000,87.000000,4.000000,6.000000,0.000000,0.000000,0.000000:
// measure 0
0000
0000
0000
0000
,  // measure 1
0000
0000
0000
0000
,  // measure 2
0000
0000
0000
0000
,  // measure 3
0000
0000
0000
0000
,  // measure 4
0000
0000
0000
0000
,  // measure 5
1001
0000
0000
0000
,  // measure 6
0000
0000
0000
0000
,  // measure 7
1000
0000
1000
0000
,  // measure 8
0002
0000
0000
0003
,  // measure 9
1000
0000
0000
0000
,  // measure 10
1000
0000
0000
0000
,  // measure 11
0001
0000
0000
0000
,  // measure 12
0001
0000
0000
0000
,  // measure 13
0010
0000
0000
0000
,  // measure 14
0010
0000
0000
0000
,  // measure 15
0100
0000
0000
0000
,  // measure 16
0100
0000
0000
0000
,  // measure 17
1000
0000
0000
0000
,  // measure 18
0100
0000
0000
0000
,  // measure 19
1000
0000
0100
0000
,  // measure 20
1000
0000
0000
0000
,  // measure 21
0001
0000
0000
0000
,  // measure 22
0100
0000
0000
0000
,  // measure 23
0001
0000
0100
0000
,  // measure 24
0001
0000
0000
0000
,  // measure 25
1000
0000
0000
0000
,  // measure 26
0010
0000
0000
0000
,  // measure 27
1000
0000
0010
0000
,  // measure 28
1000
0000
0000
0000
,  // measure 29
0001
0000
0000
0000
,  // measure 30
0010
0000
0000
0000
,  // measure 31
0001
0000
0010
0000
,  // measure 32
0001
0000
0000
0000
,  // measure 33
2000
0000
0000
3000
0000
0000
0000
0000
,  // measure 34
0002
0000
0000
0003
0000
0000
0000
0000
,  // measure 35
0200
0000
0000
0300
0000
0000
0000
0000
,  // measure 36
0020
0000
0000
0030
0000
0000
0000
0000
,  // measure 37
1000
0000
1000
0000
,  // measure 38
0001
0000
0001
0000
,  // measure 39
0010
0000
0010
0000
,  // measure 40
0100
0000
0100
0000
,  // measure 41
1000
0000
0001
0000
,  // measure 42
1001
0000
0000
0000
,  // measure 43
0010
0000
0100
0000
,  // measure 44
0110
0000
0000
0000
,  // measure 45
1000
0000
0001
0000
,  // measure 46
1001
0000
0000
0000
,  // measure 47
0001
0000
0000
0000
,  // measure 48
1000
0000
0010
0000
,  // measure 49
0100
0000
0000
0000
,  // measure 50
0010
0000
0000
0000
,  // measure 51
0100
0000
0000
0000
,  // measure 52
0010
0000
1000
0000
,  // measure 53
0001
0000
0000
0000
,  // measure 54
0100
0000
0000
0000
,  // measure 55
0010
0000
0000
0000
,  // measure 56
0100
0000
0010
0000
,  // measure 57
0100
0000
0000
0000
,  // measure 58
0001
0000
0000
0000
,  // measure 59
1000
0000
0000
0000
,  // measure 60
0001
0000
1000
0000
,  // measure 61
0001
0000
0000
0000
,  // measure 62
0010
0000
0000
0000
,  // measure 63
0001
0000
0000
0000
,  // measure 64
1000
0000
0000
0000
,  // measure 65
0100
0000
0000
0000
,  // measure 66
1000
0000
1000
0000
,  // measure 67
0010
0000
0010
0000
,  // measure 68
0100
0000
0100
0000
,  // measure 69
0001
0000
0001
0000
,  // measure 70
0000
1000
1000
0000
,  // measure 71
0002
0000
0000
0003
0000
0000
0000
0000
;

//---------------dance-single - ----------------
#NOTES:
     dance-single:
     :
     Easy:
     4:
     0.231693,0.248945,0.052318,0.034878,0.000000,176.000000,6.000000,4.000000,0.000000,0.000000,0.000000,0.231693,0.248945,0.052318,0.034878,0.000000,176.000000,6.000000,4.000000,0.000000,0.000000,0.000000:
// measure 0
0000
0000
0000
0000
,  // measure 1
0000
0000
0000
0000
,  // measure 2
0000
0000
0000
0000
,  // measure 3
0000
0000
0000
0000
,  // measure 4
0000
0000
0000
0000
,  // measure 5
1001
0000
0000
0000
,  // measure 6
1000
0000
0001
0000
,  // measure 7
1000
1000
0001
0001
,  // measure 8
2002
0000
0000
3003
,  // measure 9
0010
0000
0100
0000
,  // measure 10
0010
0000
0100
0100
,  // measure 11
0010
0000
1000
0000
,  // measure 12
0010
1000
0010
0000
,  // measure 13
0100
0000
0001
0000
,  // measure 14
0100
0000
0001
0001
,  // measure 15
1000
0000
0100
0000
,  // measure 16
1000
0100
1000
0100
,  // measure 17
1000
0000
0001
0000
,  // measure 18
0100
0000
0010
0010
,  // measure 19
1000
0000
0010
0000
,  // measure 20
0100
0000
0100
0000
,  // measure 21
0001
0000
1000
0000
,  // measure 22
0010
0000
1000
0000
,  // measure 23
0100
0100
1000
1000
,  // measure 24
0002
0000
0000
0003
,  // measure 25
0010
0000
0100
0000
,  // measure 26
1000
0000
0000
1000
0000
0000
0000
0000
,  // measure 27
0001
0010
0001
0010
,  // measure 28
0100
0000
0000
0100
0000
0000
0000
0000
,  // measure 29
1000
0000
0100
0000
,  // measure 30
0010
0000
0000
0010
0000
0000
0000
0000
,  // measure 31
0100
0100
1000
1000
,  // measure 32
0002
0000
0000
0003
,  // measure 33
0001
0000
0000
0001
0000
0000
0000
0000
,  // measure 34
1000
0000
0000
1000
0000
0000
0000
0000
,  // measure 35
0010
0000
0000
0010
0000
0000
0000
0000
,  // measure 36
0100
0000
0000
0100
0000
0000
0000
0000
,  // measure 37
0001
0000
0000
0001
0000
0000
0000
0000
,  // measure 38
0010
0000
0000
0010
0000
0000
0000
0000
,  // measure 39
0100
0000
0100
0000
,  // measure 40
1000
0000
1000
0000
,  // measure 41
0001
0100
0010
1000
,  // measure 42
1001
0000
0010
0000
,  // measure 43
0100
0000
0010
0100
,  // measure 44
0001
0000
1000
0000
,  // measure 45
0100
1000
0001
0010
,  // measure 46
0110
0000
0000
0000
,  // measure 47
0100
0000
0000
1000
0000
0000
0000
0000
,  // measure 48
0001
0000
1000
0000
,  // measure 49
0010
0000
0000
0010
0000
0000
0000
0000
,  // measure 50
0100
0000
0001
0000
,  // measure 51
1000
0000
0000
0010
0000
0000
0000
0000
,  // measure 52
1000
0100
0010
0001
,  // measure 53
1000
1000
0001
0001
,  // measure 54
1001
0000
0001
0000
,  // measure 55
1000
0000
0000
1000
0000
0000
0000
0000
,  // measure 56
0010
0010
0100
0100
,  // measure 57
0001
0000
0000
0001
0000
0000
0010
0000
,  // measure 58
0010
0000
0100
0000
,  // measure 59
1000
0000
0000
1000
0000
0000
0001
0000
,  // measure 60
0001
1000
1000
0010
,  // measure 61
0010
0100
0100
0000
,  // measure 62
0001
0001
1000
1000
,  // measure 63
0010
0010
1000
1000
,  // measure 64
0001
0001
0100
0100
,  // measure 65
0010
0100
0010
0100
,  // measure 66
0001
1000
0001
1000
,  // measure 67
0100
1000
0100
1000
,  // measure 68
0010
0100
0001
0010
,  // measure 69
0100
1000
0001
1000
,  // measure 70
0000
0001
1000
0001
,  // measure 71
1000
0000
0000
1001
0000
0000
0000
0000
;

//---------------dance-single - ----------------
#NOTES:
     dance-single:
     :
     Medium:
     7:
     0.381172,0.435654,0.130794,0.244149,0.052318,263.000000,15.000000,28.000000,0.000000,0.000000,0.000000,0.381172,0.435654,0.130794,0.244149,0.052318,263.000000,15.000000,28.000000,0.000000,0.000000,0.000000:
// measure 0
0000
0000
0000
0000
,  // measure 1
0000
0000
0000
0000
,  // measure 2
0000
0000
0000
0000
,  // measure 3
0000
0000
0000
0000
,  // measure 4
0000
0000
0000
0000
,  // measure 5
1001
0000
1000
0000
,  // measure 6
0100
0000
0000
0010
0000
0000
0001
0000
,  // measure 7
1000
0001
0100
0010
,  // measure 8
2000
0000
0000
0200
0000
0000
3300
0000
,  // measure 9
0010
0001
0000
0000
1000
0001
0000
0000
,  // measure 10
0100
0001
0000
0000
0010
0001
0010
0000
,  // measure 11
0100
1000
0000
0000
0001
1000
0000
0000
,  // measure 12
0010
1000
0001
1000
0000
0000
0000
0000
,  // measure 13
0001
0100
0000
0000
0010
0100
0000
0000
,  // measure 14
1000
0100
0000
0000
0001
0100
0001
0000
,  // measure 15
1000
0010
0000
0000
0100
0010
0000
0000
,  // measure 16
0001
0010
0100
0010
0000
0000
0000
0000
,  // measure 17
2000
0000
3200
0000
,  // measure 18
0320
0000
0000
0031
0000
0001
0010
0100
,  // measure 19
1000
0010
0100
0001
,  // measure 20
0010
0000
0000
0010
0000
0000
0001
0000
0000
0000
1000
0000
0010
0000
0100
0000
,  // measure 21
0002
0000
0203
0000
,  // measure 22
0320
0000
0000
1030
0000
1000
0010
0100
,  // measure 23
0001
0010
0100
1000
,  // measure 24
0010
0000
0000
0010
0000
0000
2000
0000
0000
0000
0000
0000
3000
0000
0000
0000
,  // measure 25
0002
0000
0023
0000
,  // measure 26
2030
0000
0000
3010
0000
0001
0010
0100
,  // measure 27
1000
0010
0001
0010
,  // measure 28
1000
0000
0000
1000
0000
0000
0001
0000
0000
0000
0001
0000
0100
0000
0010
0000
,  // measure 29
2000
0000
3200
0000
,  // measure 30
0302
0000
0000
0103
0000
1000
0010
0100
,  // measure 31
0001
0100
1000
0100
,  // measure 32
0010
0000
0000
0010
0000
0000
0200
0000
0000
0000
0000
0000
0300
0000
0000
0000
,  // measure 33
0001
0010
0100
1000
0000
0000
0000
0000
,  // measure 34
0001
0100
0010
1000
0000
0000
0000
0000
,  // measure 35
0001
0010
1000
0010
0000
0000
0000
0000
,  // measure 36
0001
0100
1000
0100
0000
0000
0000
0000
,  // measure 37
0010
1000
0100
0001
0000
0000
0000
0000
,  // measure 38
0100
1000
0010
0001
0000
0000
0000
0000
,  // measure 39
0010
0000
0000
1000
0000
0000
0010
0000
0100
0000
0000
0001
0000
0000
0100
0000
,  // measure 40
0001
0000
0000
0010
0000
0000
0001
0000
1000
0000
0000
0100
0000
0000
1000
0000
,  // measure 41
0002
0023
2030
3200
,  // measure 42
0301
0000
0100
0000
,  // measure 43
0010
0000
1000
1000
,  // measure 44
0001
1000
0000
0000
0010
0100
0000
0000
,  // measure 45
0001
1000
0100
0010
0000
0000
0000
0000
,  // measure 46
0110
0000
1001
0000
,  // measure 47
0110
0000
0000
1001
0000
0001
1000
0001
,  // measure 48
1000
1100
0001
0011
,  // measure 49
1000
0000
0000
0010
0000
0000
1010
0000
0000
0000
0000
0000
0000
0000
0000
0000
,  // measure 50
1010
0000
0101
0000
,  // measure 51
0011
0000
0000
1100
0000
1000
0100
1000
,  // measure 52
0100
0110
0001
1001
,  // measure 53
0100
0000
0000
0001
0000
0000
0101
0000
0000
0000
0000
0000
0000
0000
0000
0000
,  // measure 54
0001
1000
0010
1000
,  // measure 55
0100
0000
1000
0001
0000
0001
0100
0010
,  // measure 56
0001
0010
1000
0100
,  // measure 57
1000
0000
0000
0001
0000
0000
1000
0000
0000
0000
0010
0000
0100
0000
0001
0000
,  // measure 58
1000
0001
0100
0001
,  // measure 59
0010
0000
0001
1000
0000
1000
0010
0100
,  // measure 60
1000
0100
0001
0010
,  // measure 61
0001
0000
0000
1000
0000
0000
0001
0000
0000
0000
0100
0000
0010
0000
1000
0000
,  // measure 62
0002
0000
0000
0000
0000
1003
0100
2000
,  // measure 63
0000
0000
0000
0000
0000
3010
0100
0001
,  // measure 64
0010
0200
0000
0000
0000
0000
1300
0000
,  // measure 65
0001
0100
0010
2000
0000
0000
3000
0000
,  // measure 66
0020
0000
0000
0000
0000
0130
0001
0200
,  // measure 67
0000
0000
0000
0000
0000
0301
1000
0010
,  // measure 68
1000
0002
0000
0000
0000
0000
0103
0000
,  // measure 69
0010
0100
0001
2000
0000
0000
0000
0000
,  // measure 70
3000
0010
1000
0001
,  // measure 71
0010
0001
1000
0100
0000
0000
0000
0000
;

//---------------dance-single - ----------------
#NOTES:
     dance-single:
     :
     Hard:
     10:
     0.734939,0.809071,0.497018,0.217990,0.457780,508.000000,57.000000,25.000000,6.000000,0.000000,0.000000,0.734939,0.809071,0.497018,0.217990,0.457780,508.000000,57.000000,25.000000,6.000000,0.000000,0.000000:
// measure 0
0000
0000
0000
0000
,  // measure 1
0000
0000
0000
0000
,  // measure 2
0000
0000
0000
0000
,  // measure 3
0000
0000
0000
0000
,  // measure 4
0000
0000
0000
0000
,  // measure 5
1000
0000
0001
0000
0001
0000
0100
0000
0010
0000
0000
0010
0000
0000
0010
0000
,  // measure 6
1000
0000
0100
0000
0100
0000
0010
0000
0001
0000
0000
0001
0000
0000
0001
0000
,  // measure 7
1000
0000
0010
0000
1010
0000
0100
0010
0100
0010
0100
0000
0001
0000
0010
0000
,  // measure 8
0100
0000
1000
0001
0100
0000
0001
1000
0100
0000
1000
0001
0010
0001
1000
0010
,  // measure 9
0100
0001
0100
0000
0010
1000
0010
0000
,  // measure 10
1000
0000
0100
0000
1000
0000
0000
0000
0001
0000
0010
0000
0001
1000
0001
1000
,  // measure 11
0100
0010
0001
0100
0010
1000
0000
0010
,  // measure 12
1000
0100
0001
0200
0000
0000
0300
0000
,  // measure 13
1000
1001
0000
0000
0010
0110
0000
0000
,  // measure 14
1000
0000
1100
0000
0000
0000
0000
0000
0001
0000
0101
0000
0100
0010
0100
0010
,  // measure 15
1000
1010
0010
1000
0001
0011
0000
0001
,  // measure 16
0010
0000
0001
1000
0010
0000
1000
0001
0010
0000
0001
1000
0100
1000
0001
0100
,  // measure 17
0020
1030
2000
3100
,  // measure 18
0200
0000
0010
0310
0000
0010
0100
1000
,  // measure 19
0010
1010
0100
0101
,  // measure 20
0001
0000
0000
1000
0000
0000
1001
0000
0000
0000
0001
0000
1000
0000
0010
0000
,  // measure 21
0200
0301
0002
0013
,  // measure 22
0020
0000
0100
0130
0000
0100
0010
0001
,  // measure 23
0100
0101
0010
1010
,  // measure 24
0100
0000
0000
0010
0000
0000
0110
0000
0000
0000
0000
0000
1000
0010
0100
0001
,  // measure 25
1000
0000
0100
0000
1100
0000
0010
0001
0010
0001
0010
0000
0001
0000
0100
0000
,  // measure 26
0001
0000
0010
0000
0011
0000
0100
1000
0100
1000
0100
0000
1000
0000
0010
0000
,  // measure 27
0100
0000
0001
0000
0101
0000
1000
0010
1000
0010
1000
0000
0010
0000
0001
0000
,  // measure 28
0010
0000
1000
0000
1010
0000
0001
0100
0001
0100
0001
0000
0100
0000
1000
0000
,  // measure 29
0100
0000
0011
0000
1000
0000
0101
1000
0000
0001
1010
0000
0001
0000
1100
0000
,  // measure 30
0010
0000
0001
0000
0010
0000
1000
0010
1000
0010
1000
0000
0001
0000
0100
0001
,  // measure 31
0100
0000
0010
0000
0110
0000
1000
0010
0100
0001
1000
0000
1001
0000
0100
0000
,  // measure 32
0001
0000
0010
0001
0100
0000
0010
0001
1000
0000
0100
0001
1000
0010
0001
0010
,  // measure 33
1000
0100
0020
0002
0000
0030
0003
0000
,  // measure 34
1000
0010
0200
0002
0000
0300
0003
0001
,  // measure 35
1000
0100
0002
0200
0000
0003
0300
0100
,  // measure 36
1000
0010
0002
0020
0000
0003
0030
0100
,  // measure 37
0001
0000
0010
0000
1000
0000
0010
0000
0001
0010
0001
0000
1000
0000
0100
0000
,  // measure 38
0010
0000
0001
0000
0100
0000
1000
0000
0100
0001
0100
0000
0101
0000
0000
0000
,  // measure 39
0011
0000
0000
1000
0000
0000
0100
0000
1100
0000
0000
0010
0000
0000
0001
0000
,  // measure 40
0101
0000
0100
0001
0000
1000
0010
0000
1000
0100
0000
0010
0001
0000
0110
0000
,  // measure 41
1000
0000
0100
1000
0010
0000
0100
1000
0001
0000
0010
1000
0001
0100
1000
0100
,  // measure 42
0001
0000
1000
0000
1000
0000
0001
0010
0100
0000
0000
0100
0000
0000
0100
0000
,  // measure 43
1000
0000
0010
0000
0010
0000
0100
0001
1000
0000
0000
1000
0000
0000
1000
0000
,  // measure 44
0001
0000
0100
0000
0100
0000
0001
0100
0010
0000
0000
0010
0000
0000
0010
0000
,  // measure 45
1010
0000
0100
0000
0001
0000
0101
0000
0000
0000
0100
0001
0010
1000
0010
0001
,  // measure 46
0200
0000
0302
0000
,  // measure 47
0023
0000
0000
1030
0000
0001
0100
1000
,  // measure 48
0010
0110
1000
1001
,  // measure 49
0001
0000
0000
0010
0000
0000
0011
0000
0000
0000
0100
0000
1000
0000
0001
0000
,  // measure 50
0020
0000
0032
0000
,  // measure 51
0203
0000
0000
1300
0000
0001
0010
1000
,  // measure 52
0100
1100
0010
0011
,  // measure 53
0100
0000
0000
0010
0000
0000
0110
0000
0000
0000
0000
0000
0001
0010
0100
1000
,  // measure 54
0010
0000
1000
0000
1010
0000
0001
0100
0001
0100
0001
0000
0100
0000
1000
0000
,  // measure 55
0100
0000
0001
0000
0101
0000
1000
0010
1000
0010
1000
0000
0010
0000
0001
0000
,  // measure 56
1000
0000
0100
0000
0101
0000
0001
0010
0100
0010
0001
0000
0100
0000
0001
0100
,  // measure 57
0001
0000
0010
0000
0011
0000
0100
1000
0001
1000
0100
0000
1000
0000
0010
0100
,  // measure 58
0001
0000
0010
0000
0011
0000
0100
1000
0010
1000
0100
0000
1100
0000
0010
0001
,  // measure 59
1000
0000
0100
0000
0101
0000
1000
0010
0001
0010
1000
0000
1010
0000
0010
0100
,  // measure 60
0001
0000
1000
0000
1001
0000
0010
0001
1000
0100
0010
0000
0110
0000
1000
0000
,  // measure 61
0010
0000
M010
0001
0100
0000
010M
1000
0010
0000
M010
0001
0100
1000
0100
0001
,  // measure 62
0020
0000
0000
0000
0000
0130
0001
0200
,  // measure 63
0000
0000
0000
0000
0000
1300
0001
0010
,  // measure 64
1000
0010
0002
0000
0000
0000
0000
0000
0000
0000
0000
0000
0103
0000
0000
0000
,  // measure 65
0010
0000
1000
0001
1000
0000
0200
0000
0000
0000
0000
0000
0300
0000
0000
0000
,  // measure 66
1000
0000
0100
0000
1100
0000
0010
0001
1000
0001
0010
0000
0011
0000
0100
0000
,  // measure 67
1000
0000
0010
0000
1010
0000
0100
0001
0010
0001
0100
0000
0101
0000
0010
0000
,  // measure 68
0100
0010
1000
0000
1001
0000
0001
0100
1000
0100
0001
0000
0110
0000
0001
0000
,  // measure 69
0100
0000
010M
1000
0010
0000
M010
0001
0100
0000
010M
1000
0010
0001
0010
1000
,  // measure 70
0100
0011
1100
1001
,  // measure 71
0110
1000
0010
0101
0000
0000
0000
0000
;
