#TITLE:Romantic Horse;
#SUBTITLE:;
#ARTIST:Studio Doma;
#TITLETRANSLIT:;
#SUBTITLETRANSLIT:;
#ARTISTTRANSLIT:;
#GENRE:;
#CREDIT:;
#BANNER:Romantic Horse-Banner.png;
#BACKGROUND:Romantic Horse-BG.png;
#LYRICSPATH:;
#CDTITLE:cdtitle.png;
#MUSIC:[오투잼 아날로그] Romantic Horse.mp3;
#OFFSET:0.220000;
#SAMPLESTART:48.838997;
#SAMPLELENGTH:11.500000;
#SELECTABLE:YES;
#BPMS:0.000000=190.000000
;
#STOPS:151.000000=0.316000
;
#BGCHANGES:
;
#KEYSOUNDS:;
#ATTACKS:;

//---------------dance-single - ----------------
#NOTES:
     dance-single:
     :
     Hard:
     9:
     0.715165,0.854185,0.413049,0.099132,0.375875,544.000000,50.000000,12.000000,0.000000,0.000000,0.000000,0.715165,0.854185,0.413049,0.099132,0.375875,544.000000,50.000000,12.000000,0.000000,0.000000,0.000000:
0000
0000
0000
0000
,
0000
0000
0000
0000
,
0000
0000
0000
0000
,
0000
0000
0000
0000
,
0000
0000
0000
0000
,
0000
0000
0000
0000
,
0000
0000
0000
0000
,
0000
0000
0000
0000
1001
0000
0000
0000
0001
0000
0000
0001
0100
0000
0000
0000
,
0100
0000
0000
0100
0010
0000
0000
0000
0010
0000
0000
0010
1000
0000
0000
0000
,
0000
2001
0000
0000
,
0000
0002
0000
3000
,
0000
2000
0000
3003
,
0000
0000
0001
0100
1000
0000
0001
0100
,
1000
0000
0001
0100
1000
0100
0001
0000
,
1001
0000
0001
0010
0100
0010
0001
0100
,
0010
1000
0100
0001
0100
1000
1001
0000
,
0000
0000
1000
0100
0001
0000
1000
0100
,
0001
0000
1000
0100
0001
0100
1000
0000
,
1001
0000
1000
0010
0100
0010
1000
0100
,
0010
0001
0100
1000
0100
0001
1001
0000
,
0000
0000
0001
0100
1000
0100
0010
1000
,
0100
0001
0100
0010
0001
0100
0010
0000
,
0110
0000
0010
1000
0100
0010
0100
1000
,
0010
0000
0100
0000
0001
0000
1000
0001
1000
0001
1000
0001
1000
0000
0000
0000
,
0000
0000
1000
0100
0001
0100
0010
0001
,
0100
1000
0100
0010
1000
0100
0010
0000
,
0110
0000
0010
0001
0100
0010
0100
0001
,
0010
0000
0100
0000
1000
0000
0001
1000
0001
0000
1000
0000
1000
0000
0000
0000
,
1001
0101
1100
0101
,
0000
0000
0000
0001
1000
0001
1000
0000
0000
1000
0001
1000
,
0001
1001
0110
1001
,
0000
0000
0000
0001
0000
0001
1000
0000
1000
0001
0000
0001
,
1000
1100
0101
1100
,
0000
0000
0000
1000
0001
1000
0001
0000
0000
0001
1000
0001
,
1000
1001
0110
1001
,
0000
1001
0110
1001
,
0000
0000
0001
0100
1000
0100
0001
0100
,
1000
0000
0000
0000
0000
0000
0000
0000
0000
0000
0000
0000
0000
0000
0000
0000
0000
0000
0000
0000
0000
0000
0000
0000
0100
0000
0000
0000
0000
0000
0000
0000
0000
0000
0000
0000
0000
0000
0000
0000
0000
0000
0000
0000
0000
0000
0000
0000
0001
0000
0000
0000
0000
0000
0000
0000
0000
0000
0000
0000
0000
0000
0000
0000
0000
0000
0000
0000
0000
0000
0000
0000
0001
0000
0000
0000
0000
0000
0000
0000
0000
0000
0000
0000
0000
0000
0000
0000
0000
0000
0000
0000
0000
0000
0000
0000
1000
0000
0000
0000
0000
0000
0000
0000
0000
0000
0000
0000
0000
0000
0000
0000
0000
0000
0000
0000
0000
0000
0000
0000
1000
0000
0000
0000
0000
0000
0000
0000
0000
0000
0000
0000
0000
0000
0000
0000
0000
0000
0000
0000
0000
0000
0000
0000
2002
3003
0000
0000
0000
0000
0000
0000
0000
0000
0000
0000
0000
0000
0000
0000
0000
0000
0000
0000
0000
0000
0000
0000
0000
0000
0000
0000
0000
0000
0000
0000
0000
0000
0000
0000
0000
0000
0000
0000
0000
0000
0000
0000
0000
0000
0000
0000
,
1000
0100
0001
0100
0010
0001
0100
1000
,
0100
0010
1000
0100
0010
0000
0110
0000
,
0010
0000
0001
1000
0001
0000
0100
0000
0010
0000
1000
0001
1000
0000
0010
0000
,
1000
0100
0001
0100
1000
0000
0000
0000
,
0001
0100
1000
0100
0010
1000
0100
0001
,
0100
0010
0001
0100
0010
0000
0110
0000
,
0010
0000
1000
0001
1000
0000
0100
0000
0010
0000
0001
1000
0001
0000
0010
0000
,
0001
0100
1000
0100
0001
0000
0000
0000
,
0001
0010
0100
1000
0001
0010
0100
1000
,
0001
0100
0010
0100
1000
0100
0010
0100
,
0001
1000
0001
1000
0001
0000
0010
0000
0001
1000
0001
1000
0001
0000
0100
0000
,
0001
0010
0100
1000
0100
0010
0001
0001
,
1000
0010
0100
0001
1000
0010
0100
0001
,
1000
0100
0010
0100
0001
0100
0010
0100
,
1000
0001
1000
0001
1000
0000
0010
0000
1000
0001
1000
0001
1000
0000
0100
0000
,
1000
0000
1000
0000
0001
0000
0001
0000
1001
0000
0000
0000
0001
1000
0001
1000
,
0002
0000
0000
0000
0000
0000
0000
0000
1003
0000
0000
0000
1000
0001
1000
0001
,
2000
0000
3001
0000
,
1001
0000
0000
0000
1000
0000
0000
1000
0010
0000
0000
0000
0010
0000
0000
0010
,
0100
0000
0000
0000
0100
0000
0000
0100
0001
0000
0000
0000
1001
0000
0000
0000
,
1000
0000
0000
0000
1000
0000
0000
0000
0010
0000
0000
0010
0100
0000
0000
0100
,
0001
0000
0000
0000
0001
0000
0000
0000
0010
0000
0000
0010
0100
0000
0000
0100
,
1000
0000
0000
1000
0001
0000
0000
0001
1000
0000
0000
0000
1001
0000
0000
0000
,
1100
0000
0000
0000
1100
0000
0000
1000
0010
0000
0000
0000
0000
0000
0000
0000
,
0101
0000
0000
0000
0101
0000
0000
0001
0010
0000
0000
0000
0000
0000
0000
0000
,
0011
0000
0000
0000
0011
0000
0000
0001
0100
0000
0000
0000
0000
0000
0000
0000
,
1010
0000
0000
0000
1010
0000
0000
1000
0100
0000
1000
0000
0001
0000
0001
0000
,
2001
0000
0000
0000
,
3002
1000
1000
1000
,
2003
0001
3001
0000
,
0001
0100
1000
0100
0010
1000
0100
0001
,
0100
0010
0001
0100
0010
0000
0110
0000
,
0010
0000
1000
0001
1000
0000
0100
0000
0010
0000
0001
1000
0001
0000
0010
0000
,
0001
0100
1000
0100
0001
0000
0000
0000
,
1000
0100
0001
0100
0010
0001
0100
1000
,
0100
0010
1000
0100
0010
0000
0110
0000
,
0010
0000
0001
1000
0001
0000
0100
0000
0010
0000
1000
0001
1000
0000
0010
0000
,
1000
0100
0001
0100
1000
0000
0000
0000
,
0001
0000
0100
0001
0100
0000
0001
0000
0010
0000
0100
0010
0100
0000
0010
0000
,
0001
0000
0100
0010
0100
0000
0010
0000
0010
0000
0000
0000
0110
0000
0000
0000
,
0010
0000
1000
0001
1000
0000
0100
0000
0010
0000
0001
1000
0001
0000
0100
0000
,
0001
0000
1000
0001
1000
0001
1000
0001
1000
0000
0000
0000
0000
0000
0000
0000
,
1000
0000
0100
1000
0100
0000
1000
0000
0010
0000
0100
0010
0100
0000
0010
0000
,
1000
0000
0100
0010
0100
0000
0010
0000
0010
0000
0000
0000
0110
0000
0000
0000
,
0010
0000
0001
1000
0001
0000
0100
0000
0010
0000
1000
0001
1000
0000
0010
0000
,
1000
0000
0001
1000
0001
0000
1000
0000
1000
0000
0000
0000
1001
0000
0000
0000
,
0001
0000
0010
0000
0100
0000
1000
0000
0001
0000
0001
0000
,
1000
0000
0010
0000
0100
0000
0001
0000
1000
0000
1000
0000
,
0001
0000
0010
0000
0100
0000
1000
0000
0010
0000
0100
0000
,
0001
0000
1000
0000
0001
0000
1000
0000
0000
0000
0000
0000
,
1010
0000
0000
1000
0010
0100
0001
0000
0000
1001
0000
0000
,
0011
0000
0000
0001
0010
0100
1000
0000
0000
1001
0000
0000
,
1000
0100
0010
0001
0010
0100
1000
0000
0000
0000
0000
0000
,
0001
0100
0010
1000
0010
0100
0001
0000
0000
0000
0000
0000
,
2002
0000
0000
0000
,
0000
0000
0000
0000
,
3003
0000
0000
0000
;

//---------------dance-single - ----------------
#NOTES:
     dance-single:
     :
     Medium:
     8:
     0.685661,0.698879,0.470876,0.099132,0.251960,512.000000,57.000000,12.000000,0.000000,0.000000,0.000000,0.685661,0.698879,0.470876,0.099132,0.251960,512.000000,57.000000,12.000000,0.000000,0.000000,0.000000:
0000
0000
0000
0000
,
0000
0000
0000
0000
,
0000
0000
0000
0000
,
0000
0000
0000
0000
,
0000
0000
0000
0000
,
0000
0000
0000
0000
,
0000
0000
0000
0000
,
0000
0000
1001
0000
1000
0100
0010
0000
,
0100
0010
0010
0000
0100
0010
0001
0000
,
0000
1002
0000
0000
,
0000
2000
0000
0003
,
0000
0002
0000
3003
,
0000
0000
1000
0100
0001
0000
1000
0100
,
0001
0000
1000
0100
0001
0100
1000
0000
,
1001
0000
0001
0100
1000
0100
0001
0010
,
1000
0010
0001
0100
0010
1000
1001
0000
,
0000
0000
0001
0100
1000
0000
0001
0100
,
1000
0000
0001
0100
1000
0100
0001
0000
,
1001
0000
1000
0100
0001
0100
1000
0010
,
0001
0010
1000
0100
0010
0001
1001
0000
,
0000
0000
0001
0100
1000
0000
0001
0010
,
1000
0000
1000
0100
0001
0100
1000
0000
,
1001
0000
0001
0100
1000
0100
0001
0010
,
1000
0010
0001
0100
0010
1000
1001
0000
,
0000
0000
1000
0100
0001
0000
1000
0010
,
0001
0000
0001
0100
1000
0100
0001
0000
,
1001
0000
1000
0100
0001
0100
1000
0010
,
0001
0010
1000
0100
0010
0001
1001
0000
,
1001
1100
0101
1100
,
0000
0000
0000
1000
0001
1000
0001
0000
0000
0001
1000
0001
,
1000
1001
0110
1001
,
0000
0000
0000
1000
0000
1000
0001
0000
0001
1000
0000
1000
,
0001
0101
1100
0101
,
0000
0000
0000
0001
1000
0001
1000
0000
0000
1000
0001
1000
,
0001
1001
0110
1001
,
0000
1001
0110
1001
,
0000
0000
0001
1000
0001
1000
0001
1000
,
0001
0000
0000
0000
0000
0000
0000
0000
0000
0000
0000
0000
0000
0000
0000
0000
0000
0000
0000
0000
0000
0000
0000
0000
1000
0000
0000
0000
0000
0000
0000
0000
0000
0000
0000
0000
0000
0000
0000
0000
0000
0000
0000
0000
0000
0000
0000
0000
0001
0000
0000
0000
0000
0000
0000
0000
0000
0000
0000
0000
0000
0000
0000
0000
0000
0000
0000
0000
0000
0000
0000
0000
0001
0000
0000
0000
0000
0000
0000
0000
0000
0000
0000
0000
0000
0000
0000
0000
0000
0000
0000
0000
0000
0000
0000
0000
1000
0000
0000
0000
0000
0000
0000
0000
0000
0000
0000
0000
0000
0000
0000
0000
0000
0000
0000
0000
0000
0000
0000
0000
1000
0000
0000
0000
0000
0000
0000
0000
0000
0000
0000
0000
0000
0000
0000
0000
0000
0000
0000
0000
0000
0000
0000
0000
2002
3003
0000
0000
0000
0000
0000
0000
0000
0000
0000
0000
0000
0000
0000
0000
0000
0000
0000
0000
0000
0000
0000
0000
0000
0000
0000
0000
0000
0000
0000
0000
0000
0000
0000
0000
0000
0000
0000
0000
0000
0000
0000
0000
0000
0000
0000
0000
,
1000
0100
0001
0100
1000
0010
0001
0010
,
1000
0100
0001
0100
1000
0000
1001
0000
,
0001
0100
1000
0100
0001
0010
1000
0010
,
0001
0000
1000
0001
1000
0001
1000
0001
1000
0000
0000
0000
0000
0000
0000
0000
,
0001
0100
1000
0100
0001
0010
1000
0010
,
0001
0100
1000
0100
0001
0000
1001
0000
,
1000
0100
0001
0100
1000
0010
0001
0010
,
1000
0000
0001
1000
0001
0000
1000
0000
1001
0000
0000
0000
0000
0000
0000
0000
,
1000
0010
0100
0001
1000
0010
0100
0001
,
1000
0100
0010
0100
0001
0100
0010
0100
,
1000
0010
0001
0010
1000
0100
0001
0100
,
1000
0010
0100
0001
0100
0010
1000
1000
,
0001
0010
0100
1000
0001
0010
0100
1000
,
0001
0100
0010
0100
1000
0100
0010
0100
,
0001
0010
1000
0010
0001
0100
1000
0100
,
0001
0001
1000
1000
1001
0000
0000
0000
,
1002
0000
1003
0000
,
2001
0000
3001
0000
,
1001
0000
0001
0100
0010
0000
0100
0010
,
0010
0000
0100
0010
1000
0000
1001
0000
,
0001
0000
0000
0000
0001
0000
0000
0000
0010
0000
0000
0010
0100
0000
0000
0100
,
1000
0000
0000
0000
1000
0000
0000
0000
0010
0000
0000
0010
0100
0000
0000
0100
,
0001
0000
0000
0001
1000
0000
0000
1000
0001
0000
0000
0000
1001
0000
0000
0000
,
0101
0000
0000
0000
0101
0000
0000
0001
0010
0000
0000
0000
0000
0000
0000
0000
,
1100
0000
0000
0000
1100
0000
0000
1000
0010
0000
0000
0000
0000
0000
0000
0000
,
1010
0000
0000
0000
1010
0000
0000
1000
0100
0000
0000
0000
0000
0000
0000
0000
,
0011
0000
0000
0000
0011
0000
0000
0001
0100
0000
0001
0000
1000
0000
1000
0000
,
1002
0000
0000
0000
,
2003
0001
0001
0001
,
3002
1000
1003
0000
,
1000
0100
0001
0100
1000
0010
0001
0010
,
1000
0100
0001
0100
1000
0000
1001
0000
,
0001
0100
1000
0100
0001
0010
1000
0010
,
0001
0000
1000
0001
1000
0000
0001
0000
1001
0000
0000
0000
0000
0000
0000
0000
,
0001
0100
1000
0100
0001
0010
1000
0010
,
0001
0100
1000
0100
0001
0000
1001
0000
,
1000
0100
0001
0100
1000
0010
0001
0010
,
1000
0000
0001
1000
0001
0000
1000
0000
1001
0000
0000
0000
0000
0000
0000
0000
,
1000
0100
0001
0100
0010
0001
0100
1000
,
0100
0010
1000
0100
0010
0000
0110
0000
,
0010
0000
0001
1000
0001
0000
0100
0000
0010
0000
1000
0001
1000
0000
0100
0000
,
1000
0000
0001
1000
0001
1000
0001
1000
0001
0000
0000
0000
0000
0000
0000
0000
,
0001
0100
1000
0100
0010
1000
0100
0001
,
0100
0010
0001
0100
0010
0000
0110
0000
,
0010
0000
1000
0001
1000
0000
0100
0000
0010
0000
0001
1000
0001
0000
0010
0000
,
0001
0000
1000
0001
1000
0000
0001
0000
0001
0000
0000
0000
1001
0000
0000
0000
,
1000
0000
0010
0000
0100
0000
0001
0000
1000
0000
1000
0000
,
0001
0000
0010
0000
0100
0000
1000
0000
0001
0000
0001
0000
,
1000
0000
0010
0000
0100
0000
0001
0000
0010
0000
0100
0000
,
1000
0000
0001
0000
1000
0000
0001
0000
0000
0000
0000
0000
,
0011
0000
0000
0001
0010
0100
1000
0000
0000
1001
0000
0000
,
1010
0000
0000
1000
0010
0100
0001
0000
0000
1001
0000
0000
,
0001
0100
0010
1000
0010
0100
0001
0000
0000
0000
0000
0000
,
1000
0100
0010
0001
0010
0100
1000
0000
0000
0000
0000
0000
,
2002
0000
0000
0000
,
0000
0000
0000
0000
,
3003
0000
0000
0000
;

//---------------dance-single - ----------------
#NOTES:
     dance-single:
     :
     Easy:
     5:
     0.493299,0.504746,0.636096,0.173481,0.024783,320.000000,77.000000,21.000000,0.000000,0.000000,0.000000,0.493299,0.504746,0.636096,0.173481,0.024783,320.000000,77.000000,21.000000,0.000000,0.000000,0.000000:
0000
0000
0000
0000
,
0000
0000
0000
0000
,
0000
0000
0000
0000
,
0000
0000
0000
0000
,
0000
0000
0000
0000
,
0000
0000
0000
0000
,
0000
0000
0000
0000
,
0000
1002
0000
0023
,
0000
0230
0000
2300
,
0000
3002
0000
0000
,
0000
2000
0000
0003
,
0000
0002
0000
3003
,
0000
1000
1001
1000
,
1100
1000
1010
0010
,
0110
0000
0100
0001
0100
0000
0001
0010
,
0001
0000
0010
0001
1000
0001
0100
0000
,
0000
0001
1001
0001
,
0101
0001
0011
0010
,
0110
0000
0100
1000
0100
0000
1000
0010
,
1000
0000
0010
1000
0001
1000
0100
0000
,
0000
1000
1000
0001
,
0001
1000
0001
1001
,
1001
1000
0100
0001
,
0010
1000
0001
1001
,
0000
0001
0001
1000
,
1000
0001
1000
1001
,
1001
0001
0100
1000
,
0010
0001
1000
1001
,
1001
0101
1100
0101
,
0000
0000
0000
0001
0000
0001
1000
0000
0000
1000
0000
1000
,
0001
1001
0110
1001
,
0000
0001
0001
1000
,
1000
1100
0101
1100
,
0000
0000
0000
1000
0000
1000
0001
0000
0000
0001
0000
0001
,
1000
1001
0110
1001
,
0000
1001
0110
1001
,
0000
1000
0001
1000
,
0001
0000
0000
0000
0000
0000
0000
0000
0000
0000
0000
0000
0000
0000
0000
0000
0000
0000
0000
0000
0000
0000
0000
0000
0000
0000
0000
0000
0000
0000
0000
0000
0000
0000
0000
0000
0000
0000
0000
0000
0000
0000
0000
0000
0000
0000
0000
0000
1000
0000
0000
0000
0000
0000
0000
0000
0000
0000
0000
0000
0000
0000
0000
0000
0000
0000
0000
0000
0000
0000
0000
0000
1000
0000
0000
0000
0000
0000
0000
0000
0000
0000
0000
0000
0000
0000
0000
0000
0000
0000
0000
0000
0000
0000
0000
0000
0001
0000
0000
0000
0000
0000
0000
0000
0000
0000
0000
0000
0000
0000
0000
0000
0000
0000
0000
0000
0000
0000
0000
0000
0001
0000
0000
0000
0000
0000
0000
0000
0000
0000
0000
0000
0000
0000
0000
0000
0000
0000
0000
0000
0000
0000
0000
0000
2002
3003
0000
0000
0000
0000
0000
0000
0000
0000
0000
0000
0000
0000
0000
0000
0000
0000
0000
0000
0000
0000
0000
0000
0000
0000
0000
0000
0000
0000
0000
0000
0000
0000
0000
0000
0000
0000
0000
0000
0000
0000
0000
0000
0000
0000
0000
0000
,
1000
1000
0001
0001
,
1000
0001
1001
1001
,
1000
0100
0001
0010
,
1000
0001
1001
0000
,
0001
0001
1000
1000
,
0001
1000
0001
1001
,
0001
0100
1000
0010
,
0001
1000
1001
0000
,
1000
0100
1000
0010
,
1000
1000
0001
0001
,
1000
0100
0001
0000
0001
0100
1000
0000
,
1000
0010
0100
0001
,
0001
0100
0001
0010
,
0001
0001
1000
1000
,
0001
0100
1000
0000
1000
0100
0001
0000
,
0001
1000
1001
0000
,
2001
0000
3001
0000
,
1002
0000
1003
0000
,
2001
0000
3020
0000
,
0230
0000
0301
1001
,
1000
0000
1000
0000
0001
1000
0001
1000
,
0001
0000
0001
0000
1000
0001
1000
0001
,
1000
1000
0001
0001
,
0101
1100
0101
0000
,
1001
0110
1001
0000
,
1100
0101
1100
0000
,
1001
0110
1001
0000
,
2001
0000
0000
0000
,
3002
1000
1000
1000
,
2003
0001
3001
0000
,
0001
0001
1000
1000
,
0001
1000
1001
1001
,
0001
0100
1000
0010
,
0001
1000
1001
0000
,
1000
1000
0001
0001
,
1000
0001
1001
1001
,
1000
0100
0001
0010
,
1000
0001
1001
0000
,
0001
1001
0001
0101
,
0001
0011
0010
0110
,
0100
1000
0100
0000
1000
0010
1000
0000
,
0010
1000
0001
1000
0100
0000
0000
0000
,
1000
1001
1000
1100
,
1000
1010
0010
0110
,
0100
0001
0100
0000
0001
0010
0001
0000
,
0010
0001
1000
0001
0100
0000
1001
0000
,
1000
0000
1000
0000
,
0010
0000
0010
0000
,
0100
0000
0100
0000
,
0001
0000
1000
0000
0001
0000
1000
0000
0000
0000
0000
0000
,
1001
1000
0010
0110
,
1001
0001
0010
0110
,
1002
1000
1003
0000
,
2001
0001
3001
0000
,
2002
0000
0000
0000
,
0000
0000
0000
0000
,
3003
0000
0000
0000
;

//---------------dance-single - ----------------
#NOTES:
     dance-single:
     :
     Beginner:
     3:
     0.447273,0.504746,0.545225,0.206525,0.000000,288.000000,66.000000,25.000000,0.000000,0.000000,0.000000,0.447273,0.504746,0.545225,0.206525,0.000000,288.000000,66.000000,25.000000,0.000000,0.000000,0.000000:
// measure 0
0000
0000
0000
0000
,  // measure 1
0000
0000
0000
0000
,  // measure 2
0000
0000
0000
0000
,  // measure 3
0000
0000
0000
0000
,  // measure 4
0000
0000
0000
0000
,  // measure 5
0000
0000
0000
0000
,  // measure 6
0000
0000
0000
0000
,  // measure 7
0000
2001
0000
3020
,  // measure 8
0000
0230
0000
0302
,  // measure 9
0000
2003
0000
0000
,  // measure 10
0000
0002
0000
3000
,  // measure 11
0000
2000
0000
3003
,  // measure 12
0000
0001
0001
1000
,  // measure 13
1000
0100
0001
0010
,  // measure 14
1000
0001
0001
1000
,  // measure 15
1000
2001
0100
3100
,  // measure 16
0000
1000
1000
0001
,  // measure 17
0001
0100
1000
0010
,  // measure 18
0001
1000
1000
0001
,  // measure 19
0001
1002
0100
0103
,  // measure 20
0000
0001
0100
0001
,  // measure 21
0010
0001
0100
0110
,  // measure 22
1001
1000
0100
0010
,  // measure 23
0001
1000
0001
1001
,  // measure 24
0000
1000
0100
1000
,  // measure 25
0010
1000
0100
0110
,  // measure 26
1001
0001
0100
0010
,  // measure 27
1000
0001
1000
1001
,  // measure 28
1001
1100
0101
1100
,  // measure 29
0000
1000
1000
0001
,  // measure 30
0001
1001
0110
1001
,  // measure 31
0000
1000
1000
0001
,  // measure 32
0001
0101
1100
0101
,  // measure 33
0000
0001
0001
1000
,  // measure 34
1000
1001
0110
1001
,  // measure 35
0000
1001
0110
1001
,  // measure 36
0000
0001
1000
0001
,  // measure 37
1000
0000
0000
0000
0000
0000
0000
0000
0000
0000
0000
0000
0000
0000
0000
0000
0000
0000
0000
0000
0000
0000
0000
0000
0000
0000
0000
0000
0000
0000
0000
0000
0000
0000
0000
0000
0000
0000
0000
0000
0000
0000
0000
0000
0000
0000
0000
0000
0001
0000
0000
0000
0000
0000
0000
0000
0000
0000
0000
0000
0000
0000
0000
0000
0000
0000
0000
0000
0000
0000
0000
0000
0000
0000
0000
0000
0000
0000
0000
0000
0000
0000
0000
0000
0000
0000
0000
0000
0000
0000
0000
0000
0000
0000
0000
0000
1000
0000
0000
0000
0000
0000
0000
0000
0000
0000
0000
0000
0000
0000
0000
0000
0000
0000
0000
0000
0000
0000
0000
0000
0000
0000
0000
0000
0000
0000
0000
0000
0000
0000
0000
0000
0000
0000
0000
0000
0000
0000
0000
0000
0000
0000
0000
0000
2002
3003
0000
0000
0000
0000
0000
0000
0000
0000
0000
0000
0000
0000
0000
0000
0000
0000
0000
0000
0000
0000
0000
0000
0000
0000
0000
0000
0000
0000
0000
0000
0000
0000
0000
0000
0000
0000
0000
0000
0000
0000
0000
0000
0000
0000
0000
0000
,  // measure 38
0001
0001
1000
1000
,  // measure 39
0001
1000
1001
1001
,  // measure 40
0001
0100
1000
0010
,  // measure 41
0001
1000
1001
0000
,  // measure 42
1000
1000
0001
0001
,  // measure 43
1000
0001
1001
1001
,  // measure 44
1000
0100
0001
0010
,  // measure 45
1000
0001
1001
0000
,  // measure 46
1000
0100
0010
0001
,  // measure 47
1000
0010
0100
0001
,  // measure 48
1000
1000
0001
0001
,  // measure 49
1000
0100
0010
0001
,  // measure 50
0001
0100
0010
1000
,  // measure 51
0001
0010
0100
1000
,  // measure 52
0001
0001
1000
1000
,  // measure 53
0001
1000
1001
0000
,  // measure 54
1002
0000
1003
0000
,  // measure 55
2001
0000
3001
0000
,  // measure 56
1002
0000
0023
0000
,  // measure 57
0230
0000
1300
1001
,  // measure 58
1000
1000
0001
1000
,  // measure 59
0001
0001
1000
0001
,  // measure 60
1000
1000
0001
0001
,  // measure 61
0101
1100
0101
0000
,  // measure 62
1001
0110
1001
0000
,  // measure 63
1100
0101
1100
0000
,  // measure 64
1001
0110
1001
0000
,  // measure 65
1002
0000
0000
0000
,  // measure 66
2003
0001
0001
3001
,  // measure 67
0002
1000
1003
0000
,  // measure 68
1000
1000
0001
0001
,  // measure 69
1000
0001
1001
1001
,  // measure 70
1000
0100
0001
0010
,  // measure 71
1000
0001
1001
0000
,  // measure 72
0001
0001
1000
1000
,  // measure 73
0001
1000
1001
1001
,  // measure 74
0001
0100
1000
0010
,  // measure 75
0001
1000
1001
0000
,  // measure 76
0001
0001
1000
1000
,  // measure 77
0100
0001
0010
1000
,  // measure 78
0001
0001
1000
1000
,  // measure 79
2001
0100
3100
0000
,  // measure 80
1000
1000
0001
0001
,  // measure 81
0100
1000
0010
0001
,  // measure 82
1000
1000
0001
0001
,  // measure 83
1002
0100
0103
1001
,  // measure 84
0001
0000
0001
0000
,  // measure 85
0010
0000
0010
0000
,  // measure 86
0100
0000
0100
0000
,  // measure 87
1000
0000
1000
0000
,  // measure 88
1001
0001
0010
0110
,  // measure 89
1001
1000
0010
0110
,  // measure 90
1002
1000
1003
0000
,  // measure 91
2001
0001
3001
0000
,  // measure 92
2002
0000
0000
0000
,  // measure 93
0000
0000
0000
0000
,  // measure 94
3003
0000
0000
0000
;
