#TITLE:Rolling Girl;
#SUBTITLE:;
#ARTIST:wowaka feat. Hatsune Miku;
#TITLETRANSLIT:;
#SUBTITLETRANSLIT:;
#ARTISTTRANSLIT:;
#GENRE:;
#CREDIT:;
#BANNER:[Other Rhythm Games] - Rolling Girl.png;
#BACKGROUND:[Other Rhythm Games] - Rolling Girl-bg.png;
#LYRICSPATH:;
#CDTITLE:cdtitle.png;
#MUSIC:[Other Rhythm Games] - Rolling Girl.mp3;
#OFFSET:-0.354998;
#SAMPLESTART:73.885452;
#SAMPLELENGTH:19.692314;
#SELECTABLE:YES;
#BPMS:0.000000=97.500000
,7.000000=195.000000
;
#STOPS:
;
#BGCHANGES:;
#KEYSOUNDS:;
#ATTACKS:;

//---------------dance-single - ----------------
#NOTES:
     dance-single:
     :
     Challenge:
     9:
     0.853760,0.895308,0.755727,0.512504,0.152014,542.000000,87.000000,59.000000,0.000000,0.000000,0.000000,0.853760,0.895308,0.755727,0.512504,0.152014,542.000000,87.000000,59.000000,0.000000,0.000000,0.000000:
0000
0000
0000
0000
,
0000
0000
0000
0000
,
1001
0000
0101
0000
0010
1000
0100
0001
,
0000
0000
0001
0000
0100
0000
1000
0000
0010
0000
1000
0001
1000
0000
0001
0010
,
0100
0000
0110
0000
0010
0001
0100
1000
,
0000
1000
0100
0001
0010
0100
0100
0000
,
1100
0000
0101
0000
0100
0001
0010
1000
,
0000
0000
1000
0000
0010
0000
0001
0000
0100
0000
0010
0100
0001
0000
0010
0100
,
1000
0000
1100
0000
0100
1000
0010
0001
,
0000
0000
0001
0000
0010
0000
1000
0000
0100
0000
1000
0001
1000
0001
1000
0001
,
0100
0000
0000
0000
1010
0000
0000
0000
0100
0000
0001
0000
0010
0001
1000
0000
,
0000
0000
1000
0000
0100
0000
0001
0000
0100
0000
0010
0100
1000
0000
0001
1000
,
0001
0000
1100
0000
0100
1000
0010
0001
,
0000
0000
0010
0000
0100
0000
0001
1000
0001
0000
0010
0000
0010
0000
0000
0000
,
1001
0000
0000
0000
1100
0000
0000
0000
0100
0000
0010
0000
0001
1000
0010
0000
,
0000
0000
0010
0000
0100
0000
1000
0000
0100
0000
0010
0100
0001
0000
1000
0100
,
1000
0000
0101
0000
0100
0001
0010
1000
,
0000
0000
0010
0000
0001
0000
0100
0000
0010
0000
1000
0001
1000
0001
1000
0001
,
1000
0100
0012
0103
,
2010
0000
0100
0000
3001
1000
0001
0100
,
0010
0000
1000
0000
0100
0010
0001
0200
,
0000
0001
0301
0000
0100
0010
1000
0100
,
0010
0001
2100
3010
,
0102
0000
0010
0000
1003
0000
0001
2000
,
0010
0000
0100
0000
3010
0000
1000
0002
,
0000
1000
1000
0000
0103
0001
1000
0000
,
1200
0000
0010
0000
1300
0100
0010
0002
,
0000
1000
1003
0000
1001
0000
0011
0000
,
1001
0000
0110
0000
1001
0000
1000
0200
,
0000
0010
0310
0000
0110
0000
1100
0000
,
1002
0000
0100
0000
1003
0001
0100
0020
,
0000
0100
0130
0000
0110
0000
1010
0000
,
1002
0000
0010
0000
1003
0100
0001
0200
,
0000
0000
1000
0000
1000
0000
0000
0000
0310
0000
0001
1000
0001
1000
0001
1000
,
0010
0000
1010
0000
0010
1000
0100
0001
,
0000
0000
0001
0000
0100
0000
1000
0000
0010
0000
1000
0001
1000
0000
0100
0010
,
0001
0000
0011
0000
0010
0001
0100
1000
,
0000
1000
0100
0001
0010
0100
0100
0000
,
1001
0000
1100
0000
0100
1000
0010
0001
,
0000
0000
0001
0000
0010
0000
1000
0000
0100
0000
0010
0001
1000
0000
0010
0100
,
0010
0000
0110
0000
0100
0001
0010
1000
,
0000
0000
1000
0000
0010
0000
0001
0000
0100
0000
0001
1000
0001
0000
0010
0000
,
0100
0010
2001
3010
,
1002
0000
0010
0000
1003
0001
1000
0010
,
0100
0000
0001
0000
0010
0100
0000
0020
,
0000
0001
0031
0000
0100
0010
1000
0100
,
1000
0001
0102
0013
,
2100
3010
1001
0021
,
0100
0000
0031
0000
0100
0010
1000
0002
,
0000
0010
0013
0000
0001
1000
0100
0000
,
1001
0000
1001
0000
1000
0100
0000
0021
,
0000
0130
1000
0000
0001
0100
0000
2010
,
0000
3010
1000
0010
0001
0010
1000
0002
,
0000
1003
0200
0000
0310
0001
0100
0000
,
1001
0001
0102
1003
,
2100
3001
0012
1003
,
0001
0001
1000
1000
0001
0001
1000
1000
,
0100
0000
0010
0001
0010
0001
0010
0001
0010
0001
0010
0001
0010
0001
0010
0001
,
1000
0000
1100
0000
0010
0001
1000
1020
,
0000
1030
0001
0000
0010
0001
1000
1002
,
0000
1003
0100
0001
0100
1000
0010
0102
,
0000
0013
0001
0100
0010
1000
0100
0000
,
1100
0000
0010
0010
0001
0000
0100
0201
,
0000
0310
1000
1000
0100
0000
1000
2001
,
0000
3001
0100
1000
0100
0001
0010
1200
,
0000
1300
0010
0001
0010
2000
0100
3000
,
1001
0000
0101
0000
0010
1000
0100
0021
,
0000
0130
1000
0001
0100
0000
0010
2010
,
0000
3001
1000
0100
0001
0100
0010
0012
,
0000
0013
0001
0100
1000
0100
0001
0000
,
2001
3100
0012
0103
,
2010
3100
1002
0103
,
0120
1030
0110
1001
,
1200
0000
0310
0000
0101
0000
0010
1000
,
0001
0000
0101
0000
0010
1000
0100
0120
,
0000
0031
0100
0000
0010
1000
0001
2001
,
0000
3001
0100
1000
0100
0001
0100
2010
,
0000
3010
0100
0001
0010
0100
1000
0000
,
0101
0000
0010
0010
1000
0000
1000
1200
,
0000
0310
0001
0001
0100
0000
0001
1002
,
0000
1003
0100
0001
0100
1000
0010
0102
,
0000
0013
1000
0010
0001
0200
0010
0300
,
1010
0000
1100
0000
0010
0001
0100
1020
,
0000
0130
0001
0010
0100
0000
1000
1002
,
0000
1003
0100
0001
0100
1000
0010
0120
,
0000
0031
0010
1000
0100
1000
0001
0000
,
1002
0103
2010
3100
,
0012
0103
2001
3010
,
0201
0000
0010
0000
0010
0000
1300
0100
,
0001
0000
1000
0001
1000
0001
1000
0001
0010
0000
0110
0000
0000
0000
0000
0000
;

//---------------dance-single - ----------------
#NOTES:
     dance-single:
     :
     Hard:
     9:
     0.761931,0.622823,0.807846,0.529877,0.000000,460.000000,93.000000,61.000000,0.000000,0.000000,0.000000,0.761931,0.622823,0.807846,0.529877,0.000000,460.000000,93.000000,61.000000,0.000000,0.000000,0.000000:
0000
0000
0000
0000
,
0000
0000
0000
0000
,
1100
0000
0011
0000
0001
0100
0000
1010
,
0000
0010
0100
0001
0010
0100
1000
0000
,
0101
0000
1010
0000
1000
0100
0000
0011
,
0000
1000
0100
0010
0001
0100
1000
0000
,
1100
0000
0101
0000
0001
0010
0000
1100
,
0000
0010
0001
0100
0010
1000
0100
0000
,
0011
0000
1100
0000
1000
0010
0000
0101
,
0000
1000
0010
0100
0001
0100
1000
0100
,
0001
0000
1001
0000
1000
0100
0010
0001
,
0000
0001
0100
0010
0100
0001
1000
0100
,
1000
0000
1001
0000
0001
0100
0010
1000
,
0000
0001
0010
0100
1000
0100
0001
0000
,
0101
0000
1100
0000
0001
0010
0100
1000
,
0000
1000
0010
0100
0001
0010
0100
0010
,
0001
0000
1001
0000
1000
0010
0100
0001
,
0000
1000
0100
0001
0100
1000
0001
0000
,
0101
0001
0021
0031
,
2001
0000
0001
0000
3001
0000
1000
0001
,
0010
0000
0001
0000
0100
0010
0000
0210
,
0000
0001
0301
1000
,
1100
1000
1020
1030
,
1002
0000
1000
0000
1003
0000
0001
0020
,
0000
0000
0100
0000
0130
0000
1000
0020
,
0000
0000
0100
0000
0130
0010
0100
0000
,
0102
0000
1000
0000
1003
0000
0001
0020
,
0000
0031
0101
0110
,
1010
0000
1010
0000
1001
0000
1000
0200
,
0000
1300
1100
0011
,
2001
0000
0010
0000
3010
1000
0001
2000
,
0000
3100
0011
0101
,
1002
0000
0100
0000
0103
0001
1000
0200
,
0000
0000
1000
0000
1300
0100
0010
0001
,
0100
0000
1010
0000
0010
1000
0100
0010
,
0000
0100
1000
0010
0100
0001
1000
0000
,
1100
0000
0011
0000
0100
1000
0010
0100
,
0000
0100
0001
0010
0001
0100
1000
0000
,
1100
0000
0101
0000
0100
0001
0010
0100
,
0000
0010
0001
0100
0010
1000
0001
0000
,
0011
0000
1100
0000
0010
0001
0100
0010
,
0000
0010
1000
0100
0001
0100
1000
0001
,
1000
1000
2010
3010
,
2001
0000
0001
0000
3001
0000
0010
0001
,
0100
0000
0010
0000
0100
0001
0000
2001
,
0000
0100
3100
1100
,
1001
0001
0021
0031
,
2001
0001
3010
0210
,
0001
0000
0001
0000
0301
0100
0010
2000
,
0000
3001
1000
0000
0002
0000
0103
0000
,
1001
0000
0001
0000
1000
0100
0000
1002
,
0000
0103
0010
0000
0100
0001
0000
2001
,
0000
3100
0010
0000
0001
1000
0001
0200
,
0000
0310
2000
0000
3100
0000
0010
0000
,
0012
0103
0201
0310
,
2010
3001
0021
0130
,
1000
0001
1000
0001
1000
0001
0010
0100
,
1000
0010
0100
0001
0010
0001
0100
0000
,
1001
0000
1001
0000
1000
0010
0000
0021
,
0000
0031
1000
0000
0001
0010
0000
2010
,
0000
3100
0010
0001
0100
0000
0001
0020
,
0000
0031
0100
0010
1000
0000
0110
0000
,
1001
0000
0001
1000
0100
0000
0100
0002
,
0000
0000
1003
0001
0100
0000
0100
2000
,
0000
3010
0100
0010
0100
0001
0010
0200
,
0000
1300
0010
0100
0001
0020
0000
0030
,
1001
0000
1001
0000
0001
0100
0000
2010
,
0000
3010
0100
0001
1000
0000
0000
1200
,
0000
0310
0100
0010
0001
0100
0010
2000
,
0000
3001
0010
0100
1000
0000
0010
0000
,
2001
3010
1020
0130
,
0102
1003
2001
3100
,
0012
1003
0101
1100
,
0102
1003
1100
0011
,
1001
0000
1001
0000
0001
0010
0000
1020
,
0000
1030
0001
0000
1000
0010
0000
0012
,
0000
0103
0010
1000
0100
0010
0001
0200
,
0000
0310
1000
0100
0010
0000
0110
0000
,
1001
0000
1000
0001
0010
0000
0010
2000
,
0000
0000
3001
1000
0010
0000
0010
0002
,
0000
0103
0010
0100
0010
1000
0100
0020
,
0000
0031
0010
0100
1000
0020
0000
0030
,
1001
0000
1001
0000
1000
0100
0000
0012
,
0000
0013
0100
1000
0001
0000
0000
0201
,
0000
0310
0100
0010
1000
0100
0010
0002
,
0000
0103
0010
1000
0001
0000
0010
0000
,
1002
0103
0210
0301
,
2001
3100
0210
1300
,
1020
0000
0100
0000
0100
0000
0031
0010
,
1000
0010
1000
0010
0100
0001
0000
0000
;

//---------------dance-single - ----------------
#NOTES:
     dance-single:
     :
     Medium:
     6:
     0.574551,0.583897,0.625429,0.495131,0.000000,334.000000,72.000000,57.000000,0.000000,0.000000,0.000000,0.574551,0.583897,0.625429,0.495131,0.000000,334.000000,72.000000,57.000000,0.000000,0.000000,0.000000:
0000
0000
0000
0000
,
0000
0000
0000
0000
,
0001
0101
1000
1100
,
0001
0000
0010
0000
0001
0100
0010
0000
,
1000
1100
0001
0101
,
0010
0000
1000
0000
0100
0010
0001
0000
,
1000
1010
0001
0011
,
1000
0000
0100
0000
1000
0010
0100
0000
,
0001
0011
1000
1010
,
0100
0000
0001
0000
1000
0100
0010
0000
,
0001
0000
0101
0000
1000
0100
0000
0011
,
0000
0000
0010
0000
0001
0100
0010
0000
,
1000
0000
1100
0000
0001
0100
0000
1010
,
0000
0000
0001
0000
1000
0100
0010
0000
,
0001
0000
0011
0000
1000
0010
0000
0101
,
0000
0000
0010
0000
0100
0001
1000
0000
,
0100
0000
1100
0000
0001
0100
0000
1010
,
0000
1000
0001
0000
1000
0001
0010
0000
,
1100
0000
2010
0000
,
0002
0000
0000
0000
3003
0000
0001
1000
,
0001
0000
0010
0000
0100
1000
0000
2200
,
0000
0300
3001
0100
,
0101
0000
0012
0000
,
2000
0000
0000
0000
3003
0000
1000
0020
,
0000
0000
0100
0000
0130
0000
0001
0020
,
0000
0100
0130
0010
,
1002
0000
0000
0000
0103
0000
0010
2000
,
0000
0000
3001
0010
,
0001
0000
0001
0000
1000
0000
0010
0200
,
0000
0000
0301
0010
,
0002
0000
0000
0000
0103
0010
0100
0020
,
0000
0000
1030
0001
,
2000
0000
0000
0000
3100
0010
0100
0020
,
0000
0000
0000
0000
0031
1000
0001
1000
,
0001
0101
1000
1100
,
0010
0000
0001
0000
0100
0001
1000
0000
,
0001
0011
1000
1010
,
0001
0000
0100
0000
0010
1000
0100
0000
,
1000
1100
0001
0101
,
0010
0000
1000
0000
0100
0010
0001
0000
,
1000
1010
0001
0011
,
1000
0001
1000
0000
0001
0010
0100
0000
,
1100
0000
0012
0000
,
0200
0000
0000
0000
0303
0000
0010
1000
,
0010
0000
1000
0000
0100
0010
0000
0012
,
0000
0000
0103
0010
,
1010
0000
0102
0000
,
0020
0003
0031
2100
,
0000
0000
0001
0000
3001
0100
0010
2000
,
0000
3001
0200
0300
,
1001
0000
0001
0000
0001
0010
0000
1200
,
0000
0000
1300
0000
1000
0010
0000
0102
,
0000
0000
0013
0000
0001
1000
0001
2000
,
0000
3010
0100
0010
,
1010
0000
0101
0000
,
0011
0000
1100
0000
,
1002
1000
1003
0110
,
1001
0000
0100
0010
0100
0010
0100
0000
,
2001
0000
3001
0000
0010
0000
0000
1002
,
0000
0000
1003
0000
0010
0000
0000
2001
,
0000
0000
3001
0000
1000
0000
0100
0020
,
0000
0000
0031
1000
0001
0000
0100
0000
,
1002
0000
0013
0001
0010
0000
0000
2001
,
0000
0000
3010
1000
0010
0000
0000
1002
,
0000
0000
0013
0100
0010
0000
0001
2000
,
0000
0000
3010
0000
0100
0002
0000
0003
,
1001
0000
1000
0000
1000
0100
0000
0012
,
0000
0000
0103
0000
0001
0000
0000
2001
,
0000
0000
3010
0000
1000
0000
0001
0020
,
0000
0031
0100
0010
,
1010
0000
2100
0000
,
3001
0000
0101
0000
,
0012
0000
0100
1000
,
0200
0003
0301
1000
,
1002
0000
1003
0000
0010
0000
0000
2001
,
0000
0000
3001
0000
0010
0000
0000
1002
,
0000
0000
1003
0000
0010
0000
0100
0002
,
0000
0000
0013
0100
0010
0000
0001
0000
,
2001
0000
3010
1000
0010
0000
0000
1002
,
0000
0000
0013
0001
0010
0000
0000
2001
,
0000
0000
3010
0100
0010
0000
1000
0200
,
0000
0000
0310
0000
0001
2000
0000
3000
,
1001
0000
0001
0000
0001
0100
0000
2010
,
0000
0000
3100
0000
0010
0000
0000
1002
,
0000
0000
0103
0000
0001
0000
1000
0200
,
0000
0310
0001
0100
,
0101
0000
2010
0000
,
3001
0000
1100
0000
,
0012
0000
0000
0000
0013
0000
0100
2000
,
0000
0000
3001
0100
0010
1000
0000
0000
;

//---------------dance-single - ----------------
#NOTES:
     dance-single:
     :
     Easy:
     4:
     0.378484,0.427594,0.147671,0.286655,0.000000,255.000000,17.000000,33.000000,0.000000,0.000000,0.000000,0.378484,0.427594,0.147671,0.286655,0.000000,255.000000,17.000000,33.000000,0.000000,0.000000,0.000000:
0000
0000
0000
0000
,
0000
0000
0000
0000
,
1000
1000
0001
0000
,
0001
0010
0100
1000
,
0001
0001
1000
0000
,
0001
0100
0001
0010
,
0001
0001
0100
0000
,
0100
0010
1000
0001
,
1000
1000
0100
0000
,
1000
0010
0100
0010
,
1000
1000
0100
0000
,
0001
0000
0100
1000
,
0001
0001
0100
0000
,
1000
0000
0100
0001
,
1000
1000
0010
0000
,
0001
0000
0010
1000
,
0001
0001
0010
0000
,
1000
0000
0010
0001
,
1000
0000
0020
0000
,
0200
0000
0330
0001
,
1000
0100
0010
0000
,
0220
0000
0330
1000
,
0001
0000
0200
0000
,
0020
0000
0330
1000
,
0002
0000
0000
0013
,
0200
0000
0000
0300
,
2001
0000
0000
3010
,
0200
0000
0301
0010
,
0001
0001
1000
0000
,
0020
0000
1030
0100
,
0020
0000
0000
0130
,
0200
0000
1300
0010
,
0200
0000
0000
0301
,
0002
0000
1000
0000
,
1003
1000
0100
0000
,
0100
1000
0010
0100
,
0001
0001
0100
0000
,
0010
0100
0001
0010
,
0001
0001
0100
0000
,
0100
0001
0010
0100
,
1000
1000
0100
0000
,
1000
0010
0100
0010
,
1000
0000
1002
0000
,
0020
0000
0033
0100
,
1000
0000
0010
0000
,
0220
0000
0330
1000
,
0001
0000
2001
0000
,
3020
0000
0130
0220
,
0000
0000
0330
0001
,
2000
0000
3200
0000
,
0310
0010
0001
0000
,
1000
0001
0010
0000
,
0001
1000
0001
0001
,
0100
0010
1000
0001
,
1000
0000
1100
0000
,
0011
0000
0101
0000
,
2001
0000
0000
0100
,
0002
3003
1000
0001
,
0100
0100
0010
0000
,
0100
0100
0010
0000
,
0100
0010
1000
0001
,
0010
0001
0100
0010
,
1000
0001
0001
0000
,
1000
0001
0001
0000
,
1000
0100
1000
0100
,
0010
0001
1000
0001
,
0100
0100
0010
0000
,
1000
0001
1000
0000
,
0100
0000
0100
0010
,
0001
0100
0010
1000
,
0001
0000
1002
0000
,
0103
0000
0110
0000
,
2001
0000
0010
0010
,
3002
0000
1003
0001
,
0010
0010
0100
0000
,
0010
0010
0100
0000
,
0010
0001
0100
0010
,
1000
0100
1000
0010
,
1000
0001
0001
0000
,
1000
0001
0001
0000
,
0100
0001
0100
0001
,
0010
0100
1000
0010
,
1000
1000
0001
0000
,
0010
0100
0010
0000
,
0001
0000
0001
0100
,
0010
1000
0100
0010
,
0001
0000
1002
0000
,
0103
0000
0110
0000
,
2001
0000
0000
0010
,
0020
3030
0101
0000
;

//---------------dance-single - ----------------
#NOTES:
     dance-single:
     :
     Beginner:
     2:
     0.182417,0.194361,0.104238,0.208476,0.000000,111.000000,12.000000,24.000000,0.000000,0.000000,0.000000,0.182417,0.194361,0.104238,0.208476,0.000000,111.000000,12.000000,24.000000,0.000000,0.000000,0.000000:
// measure 0
0000
0000
0000
0000
,  // measure 1
0000
0000
0000
0000
,  // measure 2
1000
0000
0000
0000
,  // measure 3
0001
0000
0000
0000
,  // measure 4
1000
0000
0000
0000
,  // measure 5
0010
0000
0000
0000
,  // measure 6
1000
0000
0000
0000
,  // measure 7
0001
0000
0000
0000
,  // measure 8
1000
0000
0000
0000
,  // measure 9
0100
0000
0000
0000
,  // measure 10
0010
0000
0000
0000
,  // measure 11
0001
0000
0000
0000
,  // measure 12
1000
0000
0000
0000
,  // measure 13
0001
0000
0000
0000
,  // measure 14
0010
0000
0000
0000
,  // measure 15
0001
0000
0000
0000
,  // measure 16
1000
0000
0000
0000
,  // measure 17
0010
0000
0000
0000
,  // measure 18
1000
0000
1000
0000
,  // measure 19
2000
0000
3000
0000
,  // measure 20
0001
0000
0001
0000
,  // measure 21
0002
0000
0003
0000
,  // measure 22
1000
0000
1000
0000
,  // measure 23
2000
0000
3000
0000
,  // measure 24
0200
0000
0300
0000
,  // measure 25
0020
0000
0030
0000
,  // measure 26
0002
0000
0003
0000
,  // measure 27
2000
0000
3000
0000
,  // measure 28
0010
0000
0010
0000
,  // measure 29
0020
0000
0030
0000
,  // measure 30
0200
0000
0300
0000
,  // measure 31
0002
0000
0003
0000
,  // measure 32
2000
0000
3000
0000
,  // measure 33
0200
0000
0300
0000
,  // measure 34
1000
0000
0000
0000
,  // measure 35
0100
0000
0000
0000
,  // measure 36
0010
0000
0000
0000
,  // measure 37
0100
0000
0000
0000
,  // measure 38
1000
0000
0000
0000
,  // measure 39
0100
0000
0000
0000
,  // measure 40
0010
0000
0000
0000
,  // measure 41
0001
0000
0000
0000
,  // measure 42
1000
0000
0001
0000
,  // measure 43
2000
0000
3000
0000
,  // measure 44
0001
0000
0001
0000
,  // measure 45
0002
0000
0003
0000
,  // measure 46
1000
0000
0001
0000
,  // measure 47
2000
0000
3000
0000
,  // measure 48
0020
0000
0030
0000
,  // measure 49
0100
0000
0100
0000
,  // measure 50
0002
0000
0003
0000
,  // measure 51
2000
0000
3000
0000
,  // measure 52
0001
0000
0001
0000
,  // measure 53
0002
0000
0003
0000
,  // measure 54
0010
0000
0010
0000
,  // measure 55
0100
0000
0100
0000
,  // measure 56
0020
0000
0030
0000
,  // measure 57
0200
0000
0300
0000
,  // measure 58
1001
0000
0000
0000
,  // measure 59
1001
0000
0000
0000
,  // measure 60
0001
0000
1000
0000
,  // measure 61
0001
0000
0000
0000
,  // measure 62
0110
0000
0000
0000
,  // measure 63
0110
0000
0000
0000
,  // measure 64
1000
0000
0001
0000
,  // measure 65
1000
0000
0000
0000
,  // measure 66
1001
0000
0000
0000
,  // measure 67
0110
0000
0000
0000
,  // measure 68
1000
0000
0001
0000
,  // measure 69
0010
0000
0000
0000
,  // measure 70
0001
0000
0001
0000
,  // measure 71
1000
0000
1000
0000
,  // measure 72
0010
0000
0010
0000
,  // measure 73
0200
0000
0300
0000
,  // measure 74
1001
0000
0000
0000
,  // measure 75
1001
0000
0000
0000
,  // measure 76
1000
0000
0001
0000
,  // measure 77
1000
0000
0000
0000
,  // measure 78
0110
0000
0000
0000
,  // measure 79
0110
0000
0000
0000
,  // measure 80
0001
0000
1000
0000
,  // measure 81
0001
0000
0000
0000
,  // measure 82
1001
0000
0000
0000
,  // measure 83
0110
0000
0000
0000
,  // measure 84
0001
0000
1000
0000
,  // measure 85
0010
0000
0000
0000
,  // measure 86
1000
0000
1000
0000
,  // measure 87
0001
0000
0001
0000
,  // measure 88
0020
0000
0030
0000
,  // measure 89
0200
0000
0310
0000
;
