#VERSION:0.81;
#TITLE:Poison (Beat Juggle);
#SUBTITLE:;
#ARTIST:Bell Biv Devoe;
#TITLETRANSLIT:;
#SUBTITLETRANSLIT:;
#ARTISTTRANSLIT:;
#GENRE:;
#ORIGIN:;
#CREDIT:;
#BANNER:;
#BACKGROUND:;
#PREVIEWVID:;
#JACKET:[Other Rhythm Games] - Poison (Beat Juggle)-jacket.png;
#CDIMAGE:;
#DISCIMAGE:;
#LYRICSPATH:;
#CDTITLE:cdtitle.png;
#MUSIC:[Other Rhythm Games] - Poison (Beat Juggle).ogg;
#OFFSET:0.000000;
#SAMPLESTART:63.275082;
#SAMPLELENGTH:13.090912;
#SELECTABLE:YES;
#BPMS:0.000=110.000;
#STOPS:;
#DELAYS:;
#WARPS:;
#TIMESIGNATURES:0.000=4=4;
#TICKCOUNTS:0.000=4;
#COMBOS:0.000=1;
#SPEEDS:0.000=1.000=0.000=0;
#SCROLLS:0.000=1.000;
#FAKES:;
#LABELS:0.000=Song Start;
#BGCHANGES:;
#KEYSOUNDS:;
#ATTACKS:
;

//---------------dance-single - S-CHALLENGE----------------
#NOTEDATA:;
#CHARTNAME:xRGTMx-CSP;
#STEPSTYPE:dance-single;
#DESCRIPTION:S-CHALLENGE;
#CHARTSTYLE:;
#DIFFICULTY:Challenge;
#METER:11;
#RADARVALUES:0.754036,0.668820,0.867658,0.156660,0.632667,353.000000,72.000000,13.000000,0.000000,0.000000,0.000000,0.000000,0.000000,0.754036,0.668820,0.867658,0.156660,0.632667,353.000000,72.000000,13.000000,0.000000,0.000000,0.000000,0.000000,0.000000;
#CREDIT:xRGTMx;
#NOTES:
// measure 0
0000
0000
0000
1001
,  // measure 1
0101
0000
0000
0000
0000
0000
0000
0000
0001
0000
0000
0100
0000
0001
0000
0000
1000
0000
0000
0000
0000
0000
0000
0000
0100
0000
0000
1000
0000
0100
0000
0000
0010
0000
0000
0000
0000
0010
0000
0000
0100
0000
0000
0000
0000
0000
0000
0000
1001
0000
0000
0000
0000
0000
0000
0000
0000
0000
0000
0000
0000
0000
0000
0000
,  // measure 2
1010
0000
0000
0000
0000
0000
0000
0000
0000
0000
0000
0000
0000
0000
0000
0000
0000
0000
0000
0000
0000
0000
0000
0000
0010
0000
0000
0000
0000
0000
0000
0000
0000
0000
0000
0000
0000
0000
0000
0000
1000
0000
0000
0000
0000
0000
0000
0000
0001
0000
0000
0000
0000
0000
0000
0000
0000
0000
0000
0000
0000
0000
0000
0000
0000
0000
0000
0000
0000
0000
0000
0000
0010
0000
0000
0000
0000
0000
0000
0000
0000
0000
0000
0000
0000
0000
0000
0000
0001
0000
0000
0000
0000
0000
0000
0000
0100
0000
0000
0000
0000
0000
0000
0000
0000
0000
0000
0000
0000
0000
0000
0100
0000
0000
0000
0000
0000
0000
0000
0000
0010
0000
0000
0000
0000
0000
0000
0000
0000
0000
0000
0000
0000
0000
0000
0000
0000
0000
0000
0000
0000
0000
0000
0000
1001
0000
0000
0000
0000
0000
0000
0000
0000
0000
0000
0000
0000
0000
0000
0000
0000
0000
0000
0000
0000
0000
0000
0000
0000
0000
0000
0000
0000
0000
0000
0000
0000
0000
0000
0000
0000
0000
0000
0000
0000
0000
0000
0000
0000
0000
0000
0000
,  // measure 3
1100
0000
0000
0000
0000
0000
0000
1000
0000
0000
0000
0100
0000
1000
0000
0000
0001
0000
0000
0000
0000
0000
0000
0000
0100
0000
0000
0001
0000
0100
0000
0000
0010
0000
0000
0000
0000
0010
0000
0000
0100
0000
0000
0000
0000
0000
0000
0000
1001
0000
0000
0000
0000
0000
0000
0000
0000
0000
0000
0000
0000
0000
0000
0000
,  // measure 4
0012
0000
0103
0201
0000
0310
0120
1030
,  // measure 5
1001
0000
0000
0000
0100
0000
0000
1000
1000
0000
0001
0000
0100
0000
0010
0000
,  // measure 6
0110
0000
0000
0000
1000
0000
0000
0001
0001
0000
0010
0000
0100
0000
1100
0000
,  // measure 7
1000
0000
0000
0000
0000
0000
0000
0000
0000
0000
0000
0000
0000
0000
0000
0000
0000
0000
0000
0000
0000
0000
0000
0000
0001
0000
0000
0000
0000
0000
0000
0000
0000
0000
0000
0000
0000
0000
0000
1000
0000
0000
0000
0000
0000
0000
0000
0000
0100
0000
0000
0000
0000
0000
0000
0000
0000
0000
0000
0000
0000
0000
0000
0000
0000
0000
0000
0000
0000
0000
0000
0000
0010
0000
0000
0000
0000
0000
0000
0000
0000
0000
0000
0000
0000
0000
0001
0000
0000
0000
0000
0010
0000
0000
0000
0000
0001
0000
0000
0000
0000
0000
0000
0000
0000
0000
0000
0000
0100
0000
0000
0000
0000
0000
0000
0000
0000
0000
0000
0000
0010
0000
0000
0000
0000
0000
0000
0000
0000
0000
0000
0000
0000
0000
0000
0000
0000
0000
0000
0000
0000
0000
0000
0000
0120
0000
0000
0000
0000
0000
0000
0000
0000
0000
0000
0000
0000
0000
0000
0000
0000
0000
0000
0000
0000
0000
0000
0000
1030
0000
0000
0000
0000
0000
0000
0000
0000
0000
0000
0000
0000
0000
0000
0000
0000
0000
0000
0000
0000
0000
0000
0000
,  // measure 8
2001
0000
0000
3010
,  // measure 9
1001
0000
0001
0000
0010
0000
0001
0100
0100
0000
0010
0000
1000
0000
0001
0000
,  // measure 10
0101
0000
0101
0000
1100
0000
1100
0000
1001
0000
1001
0000
0110
0000
0010
0100
,  // measure 11
0001
0000
0000
0000
0000
0000
0000
0000
0000
0000
0000
0000
0000
0000
0000
0000
0000
0000
0000
0000
0000
1000
0000
0000
0000
0000
0000
0000
0000
0000
0000
0000
0000
0100
0000
0000
0000
0000
0000
1000
0000
0000
0000
0000
0000
0000
0000
0000
0010
0000
0000
0000
0000
0000
0000
0000
0000
0000
0000
0000
0000
0000
0000
0000
0000
0000
0000
0000
0000
0000
0100
0000
0000
0000
0000
0000
0000
0000
0000
0000
0000
0000
0000
0000
0000
0000
0001
0000
0000
0000
0000
0100
0000
0000
0000
0000
0001
0000
0000
0000
0000
0000
0000
0000
0000
0000
0000
0000
0000
0000
0000
0010
0000
0000
0000
0000
0000
0000
0000
0000
0100
0000
0000
0000
0000
0000
0000
0000
0000
0000
0000
0000
0000
0000
0000
0000
0000
0000
0000
0000
0000
0000
0000
0000
1000
0000
0000
0000
0000
0000
0000
0000
0000
0000
0000
0000
0000
0000
0000
0000
0000
0000
0000
0000
0000
0000
0000
0000
0101
0000
0000
0000
0000
0000
0000
0000
0000
0000
0000
0000
0000
0000
0000
0000
0000
0000
0000
0000
0000
0000
0000
0000
,  // measure 12
0010
0000
1100
0000
1000
0000
0011
0000
0100
0000
0010
1000
1002
0000
0013
0000
,  // measure 13
1001
0000
0000
0000
1000
0000
0000
0100
0100
0000
0100
0000
0010
0000
0001
1000
,  // measure 14
0001
0000
0100
0000
1000
0000
0100
0100
0001
0000
0010
0000
0100
0000
1100
0000
,  // measure 15
1001
0000
0000
0000
0000
0000
0000
0000
0000
0000
0000
0000
0001
0000
0000
0101
0000
0000
0000
0000
0000
0110
0000
0000
0000
0000
0000
1010
0000
0000
1000
0000
0000
0000
0000
0000
0100
0000
0000
0000
0100
0000
0010
0000
0000
0000
0000
0000
,  // measure 16
0001
0000
1000
0000
1001
0000
1001
0000
0000
0100
1000
0000
1010
0010
0100
0000
,  // measure 17
0102
0000
0000
0000
0000
0000
1003
0000
1100
0000
0110
0000
0010
0001
0100
0000
,  // measure 18
0001
0000
0001
0000
0000
0000
1000
0000
1010
0000
0100
0000
0011
0000
0001
1000
,  // measure 19
0010
0000
0000
0000
0000
0000
0100
0000
0100
0010
0000
0000
1010
0000
0000
1000
0000
0001
0010
0000
0000
0001
0000
0000
,  // measure 20
1000
0000
0000
0000
1000
0000
0100
0000
0000
0000
0100
0000
0010
0000
0000
0000
0000
0000
0110
0000
0000
0000
0000
0000
0110
0000
0000
0000
0000
0000
0010
0000
0000
0100
0000
0000
0010
0000
0000
0001
0000
0000
1000
0000
0000
0001
0000
0000
,  // measure 21
0201
0000
0000
0000
0000
0000
0000
0000
0000
0000
0000
0000
0010
0000
0000
0000
0000
0000
0000
0000
0000
1000
0000
0000
1300
0000
0000
0000
0100
0000
0001
0000
0000
0000
0000
0000
1000
0000
0000
0000
1000
0000
0100
0000
0000
0000
0000
0000
,  // measure 22
0000
0000
0110
0000
0000
0000
0011
0000
0102
0000
1000
0000
1003
0000
0001
1000
,  // measure 23
0001
0000
0000
0000
0000
0000
2000
0000
0000
0000
0000
0000
3010
0000
0000
0000
0000
0000
0010
0000
0000
0010
0000
0000
1000
0000
0000
0000
1000
0000
0001
0000
0000
0000
0000
0000
0010
0000
0000
0000
0001
0000
0100
0000
0000
0001
0000
0000
,  // measure 24
1000
0000
0000
1100
0000
0000
0011
0000
0001
0100
0000
0100
0010
0100
0001
0100
0000
0000
0001
0000
0001
0010
0000
0000
,  // measure 25
2100
0000
0000
0000
0000
0000
0001
0000
0000
0000
0000
0000
3001
0000
0000
0000
0000
0000
0100
0000
0000
0000
0100
0000
0001
0000
0000
0000
0001
0000
1000
0000
0000
0000
0000
0000
1100
0000
0000
0000
0000
0000
0100
0000
0000
0010
0000
0000
,  // measure 26
0001
0000
0000
0000
1010
0000
0000
0000
0010
0100
0000
0000
0001
0000
0000
0000
0011
0000
0000
0000
1000
0001
0000
0000
1000
0000
0000
0000
0010
0000
0010
0000
,  // measure 27
0100
0000
0000
0000
0000
0000
0000
0000
0000
0000
0000
0000
0000
0000
0000
0000
0000
0000
0000
0000
0000
0000
0000
0000
0001
0000
0000
0000
0000
0100
0000
0000
0000
0000
0001
0000
0000
0000
0000
0000
0000
0000
0000
0000
0000
0000
0000
0000
2000
0000
0000
0000
0000
0000
0000
0000
0000
0000
0000
0000
0000
0000
0000
0000
0000
0000
0000
0000
0000
0000
0000
0000
0000
0000
0000
0000
0000
0000
0000
0000
0000
0000
0000
0000
0000
0000
0000
0000
0000
0000
0000
0000
0000
0000
0000
0000
0000
0000
0000
0000
0000
0000
0000
0000
0000
0000
0000
0000
0000
0000
0000
0000
0000
0000
0000
0000
0000
0000
0000
0000
0000
0000
0000
0000
0000
0000
0000
0000
0000
0000
0000
0000
0000
0000
0000
0000
0000
0000
0000
0000
0000
0000
0000
0000
0000
0000
0000
0000
0000
0000
0000
0000
0000
0000
0000
0000
0000
0000
0000
0000
0000
0000
0000
0000
0000
0000
0000
0000
0000
0000
0000
0000
0000
0000
0000
0000
0000
0000
0000
0000
0000
0000
0000
0000
0000
0000
0000
0000
0000
0000
0000
0000
,  // measure 28
3010
0000
0100
0000
0010
0000
0100
0000
0001
0000
0000
0000
1000
0000
0100
0000
0001
0000
0100
0000
1000
0100
0010
0000
0001
0000
0000
0000
0100
0000
0000
0000
,  // measure 29
0101
0001
1000
0100
0010
0100
1000
0000
,  // measure 30
1001
0000
0000
0000
0000
0000
0000
0000
0000
0000
0000
0000
0000
0000
0000
0000
0000
0000
0000
0000
0000
0000
0000
0000
1001
0000
0000
0000
0000
0000
0000
0000
0000
0000
0000
0000
0000
0000
0000
0000
0000
0000
0000
0000
0000
0000
0000
0000
1000
0000
0000
0000
0000
0000
0100
0000
0000
0000
0000
0000
1000
0000
0000
0000
0000
0000
0100
0000
0000
0000
0000
0000
0010
0000
0000
0000
0000
0000
0000
0000
0000
0000
0000
0000
0001
0000
0000
0000
0000
0000
0000
0000
0000
0000
0000
0000
0100
0000
0000
0000
0000
0000
0000
0000
0000
0000
0000
0000
0001
0000
0000
0000
0000
0000
0000
0000
0000
0000
0000
0000
0100
0000
0000
0000
0000
0000
0000
0000
0000
0000
0000
0000
0000
0000
0000
0000
0000
0000
0000
0000
0000
0000
0000
0000
0110
0000
0000
0000
0000
0000
0000
0000
0000
0000
0000
0000
0000
0000
0000
0000
0010
0000
0000
0000
0000
0000
0000
0000
1000
0000
0000
0000
0000
0000
0000
0000
0000
0000
0000
0000
0000
0000
0000
0000
0000
0000
0000
0000
0000
0000
0000
0000
,  // measure 31
1001
0001
0010
1001
0001
0110
1000
0110
,  // measure 32
1001
0000
0000
0000
0001
0100
0001
0000
0010
0000
0000
0000
0100
1000
0100
0000
0010
0000
0001
0000
0010
0000
0001
0000
0100
0000
0000
0000
0010
0000
0000
0000
,  // measure 33
0110
0000
1000
0000
0001
1000
0000
0000
1100
0000
0000
0100
0010
0000
0011
0000
,  // measure 34
1001
0000
0000
0000
0000
0000
0000
0000
0000
0000
0000
0000
0000
0000
0000
0000
0000
0000
0000
0000
0000
0000
0000
0000
1010
0000
0000
0000
0000
0000
0000
0000
0000
0000
0000
0000
0000
0000
0000
0000
0000
0000
0000
0000
0000
0000
0000
0000
0010
0000
0000
0000
0000
0000
0100
0000
0000
0000
0000
0000
0010
0000
0000
0000
0000
0000
0000
0000
0000
0000
0000
0000
0100
0000
0000
0000
0000
0000
0000
0000
0000
0000
0000
0000
0001
0000
0000
0000
0000
0000
0000
0000
0000
0000
0000
0000
1000
0000
0000
0000
0000
0000
0000
0000
0000
0000
0000
0000
0100
0000
0000
0000
0000
0000
0000
0000
0000
0000
0000
0000
1000
0000
0000
0000
0000
0000
0000
0000
0000
0000
0000
0000
0000
0000
0000
0000
0000
0000
0000
0000
0000
0000
0000
0000
0010
0000
0000
0000
0000
0000
0000
0000
0000
0000
0000
0000
0000
0000
0000
0000
0100
0000
0000
0000
0000
0000
0000
0000
0001
0000
0000
0000
0000
0000
0000
0000
0000
0000
0000
0000
0000
0000
0000
0000
0000
0000
0000
0000
0000
0000
0000
0000
,  // measure 35
0021
0000
0130
0000
1100
0000
0000
0000
1001
0000
0000
0001
0100
0010
0010
0100
,  // measure 36
0001
0000
0000
0000
0000
0000
0000
0000
0000
0000
0000
0000
1000
0000
0000
0000
0000
0000
0000
0000
0000
0000
0000
0000
0100
0000
0000
0000
0000
0000
1000
0000
0000
0000
0000
0000
0100
0000
0000
0000
0000
0000
0000
0000
0000
0000
0000
0000
0010
0000
0000
0000
0000
0000
0000
0000
0000
0000
0000
0000
0100
0000
0000
0000
0000
0000
0000
0000
0000
0000
0000
0000
0010
0000
0000
0000
0000
0000
0000
0000
0000
0000
0000
0000
0100
0000
0000
0000
0000
0000
0000
0000
0000
0000
0000
0000
1000
0000
0000
0000
0000
0000
0000
0000
0000
0000
0000
0000
0001
0000
0000
0000
0000
0000
0000
0000
0000
0000
0000
0000
0100
0000
0000
0000
0000
0000
0000
0000
0000
0000
0000
0000
1000
0000
0000
0000
0000
0000
0000
0000
0000
0000
0000
0000
0100
0000
0000
0000
0000
0000
0000
0000
0000
0000
0000
0000
0000
0000
0000
0000
0100
0000
0000
0000
0000
0000
0000
0000
0010
0000
0000
0000
0000
0000
0000
0000
0000
0000
0000
0000
0000
0000
0000
0000
0000
0000
0000
0000
0000
0000
0000
0000
,  // measure 37
1001
0000
0000
0000
;

//---------------dance-single - S-EXPERT----------------
#NOTEDATA:;
#CHARTNAME:xRGTMx-ESP;
#STEPSTYPE:dance-single;
#DESCRIPTION:S-EXPERT;
#CHARTSTYLE:;
#DIFFICULTY:Hard;
#METER:8;
#RADARVALUES:0.459652,0.423586,0.253067,0.084356,0.192813,239.000000,21.000000,7.000000,0.000000,0.000000,0.000000,0.000000,0.000000,0.459652,0.423586,0.253067,0.084356,0.192813,239.000000,21.000000,7.000000,0.000000,0.000000,0.000000,0.000000,0.000000;
#CREDIT:xRGTMx;
#NOTES:
0000
0000
0000
1001
,
1000
0100
1000
0010
0100
0100
0010
0000
,
2000
0010
3001
1001
,
0001
0100
0001
0010
0100
0100
0010
0000
,
1002
0000
0103
0001
0000
0001
0100
0001
,
1000
0000
0000
0000
0100
0000
0000
0100
1000
0000
1000
0000
0100
0000
0000
0000
,
1000
0000
0000
0000
0001
0000
0000
0001
1000
0000
1000
0000
0001
0000
0000
0000
,
0100
0001
0100
0010
0100
0100
0010
0000
,
1001
0000
0000
0010
,
1001
0000
0000
0000
0100
0000
0000
0100
0001
0000
0001
0000
0100
0000
0000
0000
,
0001
0000
0000
0000
1000
0000
0000
1000
0001
0000
0001
0000
1000
0000
0001
0000
,
0010
0001
0010
0100
1000
0100
1000
0010
,
0200
0010
0000
0010
0000
0310
0100
0000
,
1001
0000
0000
0000
1000
0000
0000
0010
1000
0000
0010
0000
0100
0000
0001
0000
,
1000
0000
0000
0000
0100
0000
0000
0100
0010
0000
0001
0000
1000
0000
0001
0000
,
0101
0000
0000
0000
0100
0010
0000
0010
0000
1000
0000
0000
0100
0000
0000
0000
,
1000
0000
0001
0000
0100
0000
0100
0000
0000
0010
0000
0000
0010
0100
0000
0000
,
1001
0000
0000
0000
0000
0000
0100
0000
0110
0000
0010
0000
1000
0001
1000
0000
,
0100
0100
0000
1000
1001
0000
0101
0100
,
0010
0000
1000
0001
0010
0001
1000
0000
,
0001
0000
0000
0000
0010
0000
0010
0000
0010
0000
0010
0100
0010
0000
0000
0000
,
0002
0100
1000
0023
,
0000
0100
0000
0130
0000
0100
1000
0011
,
1000
0020
0130
0000
0001
0100
0001
1000
,
0100
0100
0010
0010
0100
0100
0010
0010
,
0001
0000
1000
0000
0010
0100
0010
0010
,
0000
0000
1010
0000
0100
0000
0000
0000
0011
0000
0100
0000
1000
0000
0001
1000
,
0001
0000
0100
0010
0200
0000
0000
0000
0000
0000
0000
0000
0000
0000
0000
0000
,
0310
0100
0010
0100
0010
0000
1000
0000
1000
0000
0001
0000
0010
0000
0000
0000
,
1001
0000
0000
0000
0100
0000
0000
0100
1000
0000
0001
0000
0100
0000
0000
0000
,
0010
0000
0010
0000
0100
0001
0100
0001
0100
0000
0010
0000
0100
0000
0000
0000
,
1001
0000
0100
0001
0000
0101
0000
1100
,
0100
0000
0010
0000
0100
0000
0010
0000
0100
1000
0100
1000
0010
0000
0000
0000
,
1001
0000
1000
0000
0000
0010
0000
0000
0100
0000
0000
0010
0100
0000
0001
0000
,
1000
0000
1000
0000
0001
1000
0001
1000
0100
0010
0100
0000
0000
0000
0010
0000
,
1001
0000
0001
0000
1000
0000
0000
0000
0010
0000
0000
0010
0000
0100
0010
0100
,
0001
0000
0100
0000
1000
0000
0010
0000
0001
0100
0001
0010
0100
0000
0000
0000
,
1001
0000
0000
0000
;

//---------------dance-single - S-DIFFICULT----------------
#NOTEDATA:;
#CHARTNAME:xRGTMx-DSP;
#STEPSTYPE:dance-single;
#DESCRIPTION:S-DIFFICULT;
#CHARTSTYLE:;
#DIFFICULTY:Medium;
#METER:4;
#RADARVALUES:0.249624,0.222940,0.180762,0.012051,0.000000,129.000000,15.000000,1.000000,0.000000,0.000000,0.000000,0.000000,0.000000,0.249624,0.222940,0.180762,0.012051,0.000000,129.000000,15.000000,1.000000,0.000000,0.000000,0.000000,0.000000,0.000000;
#CREDIT:xRGTMx;
#NOTES:
0000
0000
0000
1000
,
1000
0001
0001
0100
,
0110
0000
0000
0001
,
0001
1000
1000
0100
,
0110
0000
0000
0000
,
1001
1000
0100
0100
,
1000
0001
0100
0100
,
0001
0100
1000
0010
,
0001
0000
0000
0100
,
1001
1000
0010
0010
,
1000
0001
0010
0010
,
0001
0010
1000
0100
,
0001
0001
0001
1000
,
1001
0001
0100
0100
,
0001
1000
0100
0100
,
1000
0100
0001
0010
,
1000
0100
0010
0001
,
1001
0000
0010
0010
,
0001
1000
0010
0010
,
1000
0010
0001
0100
,
1000
0001
0000
0100
,
1001
1000
0000
1000
,
0000
1000
0000
1000
0000
1000
0000
0000
,
1001
0001
0000
0001
,
0000
0001
0000
0001
0000
0001
0000
0000
,
1001
1000
0000
0100
,
0000
0010
0000
0100
0000
0010
0000
0000
,
0001
0200
0000
0000
,
0310
0010
0100
0110
,
1001
1000
0100
0001
,
0010
1000
0001
0010
,
1001
0010
1000
0100
,
0001
0010
0100
0010
,
1001
0001
0100
1000
,
0010
0001
1000
0010
,
1001
0010
0001
0100
,
1000
0010
0100
0100
,
1001
0000
0000
0000
;

//---------------dance-single - S-BASIC----------------
#NOTEDATA:;
#CHARTNAME:xRGTMx-BSP;
#STEPSTYPE:dance-single;
#DESCRIPTION:S-BASIC;
#CHARTSTYLE:;
#DIFFICULTY:Easy;
#METER:2;
#RADARVALUES:0.108457,0.089176,0.108457,0.000000,0.000000,54.000000,9.000000,0.000000,0.000000,0.000000,0.000000,0.000000,0.000000,0.108457,0.089176,0.108457,0.000000,0.000000,54.000000,9.000000,0.000000,0.000000,0.000000,0.000000,0.000000,0.000000;
#CREDIT:xRGTMx;
#NOTES:
0000
0000
0000
0010
,
0010
0010
0000
0010
,
0000
0000
0000
0100
,
0000
0100
0100
0100
,
0000
0000
0000
0000
,
1001
0000
0000
0000
,
0000
0100
0100
0000
,
0010
0000
0000
0000
,
0010
0000
0000
0000
,
1001
0000
0000
0000
,
0000
0100
0100
0000
,
0010
0000
0000
0000
,
0010
0000
0000
0000
,
1001
0000
0000
0000
,
0000
1000
1000
0000
,
0100
0000
0000
0000
,
0000
0010
0010
0000
,
1001
0000
0000
0000
,
0000
0001
0001
0000
,
0100
0000
0100
0000
,
0010
0000
0000
0000
,
1000
0000
0100
0000
,
1000
0000
0000
0000
,
0001
0000
0100
0000
,
0001
0000
0000
0000
,
1000
0000
0100
0000
,
0010
0000
0000
0000
,
0001
0000
0000
0000
,
0100
0000
0000
0000
,
1001
0000
0000
0000
,
1000
1000
0000
0000
,
1001
0000
0000
0000
,
0001
0001
0000
0000
,
0110
0000
0000
0000
,
0100
0100
0000
0000
,
0110
0000
0000
0000
,
0010
0010
0000
0000
,
1001
0000
0000
0000
;

//---------------dance-single - PISS EASY----------------
#NOTEDATA:;
#CHARTNAME:PISS EASY;
#STEPSTYPE:dance-single;
#DESCRIPTION:PISS EASY;
#CHARTSTYLE:;
#DIFFICULTY:Beginner;
#METER:1;
#RADARVALUES:0.027545,0.066882,0.012051,0.000000,0.000000,15.000000,1.000000,0.000000,0.000000,0.000000,0.000000,0.000000,0.000000,0.027545,0.066882,0.012051,0.000000,0.000000,15.000000,1.000000,0.000000,0.000000,0.000000,0.000000,0.000000,0.000000;
#CREDIT:xRGTMx;
#NOTES:
0000
0000
0000
0000
,
0000
0000
0000
0000
,
0000
0000
0000
0000
,
0000
0000
0000
0000
,
0000
0000
0000
0000
,
1000
0000
0000
0000
,
0000
0000
0000
0000
,
0000
0000
0000
0000
,
0000
0000
0000
0000
,
1000
0000
0000
0000
,
0000
0000
0000
0000
,
0000
0000
0000
0000
,
0000
0000
0000
0000
,
0001
0000
0000
0000
,
0000
0000
0000
0000
,
0000
0000
0000
0000
,
0000
0000
0000
0000
,
0001
0000
0000
0000
,
0000
0000
0000
0000
,
0000
0000
0000
0000
,
0000
0000
0000
0000
,
0010
0000
0000
0000
,
0000
0000
0000
0000
,
0010
0000
0000
0000
,
0000
0000
0000
0000
,
0100
0000
0000
0000
,
0000
0000
0000
0000
,
0100
0000
0000
0000
,
0000
0000
0000
0000
,
1000
0000
0000
0000
,
0000
0000
0000
0000
,
0001
0000
0000
0000
,
0000
0000
0000
0000
,
1000
0000
0000
0000
,
0001
0000
0000
0000
,
1000
0000
0000
0000
,
0001
0000
0000
0000
,
1001
0000
0000
0000
;
