#VERSION:0.81;
#TITLE:機器娃娃;
#SUBTITLE:(龍飛鳯舞ver.);
#ARTIST:羅志祥 (Original);
#TITLETRANSLIT:Mechanical Doll;
#SUBTITLETRANSLIT:(NX2 Chinese Ver.);
#ARTISTTRANSLIT:Luo Zhi Xiang (Original);
#GENRE:;
#ORIGIN:;
#CREDIT:;
#BANNER:Mechanical Doll - bn.png;
#BACKGROUND:Mechanical Doll - BG.png;
#PREVIEWVID:;
#JACKET:Mechanical Doll - Jacket.png;
#CDIMAGE:;
#DISCIMAGE:;
#LYRICSPATH:;
#CDTITLE:;
#MUSIC:Mechanical Doll.ogg;
#OFFSET:-2.297000;
#SAMPLESTART:-2.297000;
#SAMPLELENGTH:12.000000;
#SELECTABLE:YES;
#BPMS:0.000=106.000;
#STOPS:;
#DELAYS:;
#WARPS:;
#TIMESIGNATURES:0.000=4=4;
#TICKCOUNTS:0.000=4;
#COMBOS:0.000=1;
#SPEEDS:0.000=1.000=0.000=0;
#SCROLLS:0.000=1.000;
#FAKES:;
#LABELS:0.000=Song Start;
#BGCHANGES:;
#KEYSOUNDS:;
#ATTACKS:
;

//---------------dance-single - ----------------
#NOTEDATA:;
#CHARTNAME:;
#STEPSTYPE:dance-single;
#DESCRIPTION:;
#CHARTSTYLE:;
#DIFFICULTY:Hard;
#METER:9;
#RADARVALUES:0.649595,0.582635,0.413378,0.159714,0.521420,423.000000,44.000000,17.000000,0.000000,0.000000,0.000000,0.000000,0.000000,0.649595,0.582635,0.413378,0.159714,0.521420,423.000000,44.000000,17.000000,0.000000,0.000000,0.000000,0.000000,0.000000;
#CREDIT:Kimchinim;
#NOTES:
0000
0000
0000
0000
,
0000
0000
0000
0000
,
0000
0000
0000
0000
,
0000
0000
0000
0000
,
0001
0000
0010
0000
0001
0000
0100
0010
0100
0001
0010
0000
0110
0000
0100
0000
,
1000
0000
0010
0000
1000
0000
0100
0010
0100
1000
0010
0000
0110
0000
1001
0000
,
0100
0000
0010
0000
1000
0000
0010
0100
0001
1000
0100
0000
1100
0000
0000
0000
,
1000
0100
1000
0010
1000
0001
0010
0001
0100
0010
1000
0000
1010
0000
0011
0000
,
0001
0000
0010
0001
0100
0000
0100
0000
0010
1000
0010
1000
0010
0000
1010
0000
,
1000
0100
1000
0100
0010
0001
0010
0001
0100
0010
1000
0000
1001
0000
0001
0100
,
0010
0000
0010
0000
0010
0000
0100
0010
1000
0100
0010
0000
0010
0000
0001
0100
,
0001
0000
0011
0000
0101
0000
0100
0010
1000
0100
0010
0001
0100
0000
0010
1000
,
0001
0100
0000
0100
0010
0000
0010
1000
0010
0100
0001
0010
0100
0000
1100
0000
,
1000
0000
0100
1000
0100
0000
0100
1000
0010
0100
0001
0010
0100
0000
1000
0100
,
1000
0100
1000
0000
1100
0000
0001
0100
0001
0100
0001
0000
0101
0000
0001
1000
,
0010
0100
0001
0010
0001
0100
0010
1000
0000
0000
1100
0000
0101
0000
0000
0000
,
0001
0100
0001
0010
0100
0000
1100
0000
0001
0010
0100
0000
1100
0000
0000
0000
,
1000
0100
1000
0100
1000
0000
0010
0000
1010
0000
0100
0001
0000
0000
0101
0000
,
1000
0010
1000
0100
0010
0000
0011
0000
1000
0100
0010
0000
0011
0000
0000
0000
,
0001
0100
0001
0100
0001
0000
1000
0000
1100
0000
0001
0100
0000
0000
0101
0000
,
0002
0000
0010
0000
0010
0000
0010
0000
0010
0000
0013
0000
0001
0100
0000
0010
,
2000
0000
0100
0000
0100
0000
0100
0000
0100
0000
3100
0000
0100
1000
0010
0100
,
0002
0000
0100
0000
0100
0000
0100
0000
0100
0000
0103
0000
0010
1000
0001
0000
,
0011
0000
0001
0000
1001
0000
1000
0000
1100
0000
0100
0010
0001
1000
0010
1000
,
0200
0000
0010
0000
0010
0000
0010
0000
0010
0000
0310
0000
0010
0001
1000
0000
,
0020
0000
0100
0000
0100
0000
0100
0000
0100
0000
0130
0000
0100
0010
1000
0001
,
0020
0000
0100
0000
0100
0000
0100
0000
0100
0000
0130
0000
0100
1000
0001
0000
,
0101
0000
0001
0000
1001
0000
1000
0000
1100
0000
0100
0010
0001
0100
0010
0000
,
1000
0000
0010
1000
0100
0000
1100
0000
0100
0010
0001
0100
0001
0000
0101
0000
,
0001
0010
0001
1000
0010
1000
0001
0100
0001
1000
0100
0010
0001
0000
1000
0000
,
0001
0100
0001
0100
0001
0000
0101
0000
1000
0100
1000
0000
1100
0000
0000
0000
,
0010
0100
0001
0010
0100
1000
0010
0100
0001
0000
1000
0001
0200
0000
0300
0000
,
0002
0000
0010
0000
0010
0000
0100
0000
0100
0000
1003
0000
0010
0100
0001
0000
,
2000
0000
0100
0000
0100
0000
0010
0000
0010
0000
3001
0000
0100
0010
1000
0001
,
0200
0000
0010
0000
0010
0000
0001
0000
0001
0000
0310
0000
0010
1000
0100
0000
,
1100
0000
1000
0000
1001
0000
0001
0000
0101
0000
0000
0000
0100
0010
1000
0001
,
2000
0000
0010
0000
0010
0000
0100
0000
0100
0000
3001
0000
0001
1000
0010
0100
,
0002
0000
0100
0000
0100
0000
0010
0000
0010
0000
1003
0000
0010
0100
0001
1000
,
0020
0000
0100
0000
0100
0000
1000
0000
1000
0000
0130
0000
0100
0001
1000
0000
,
1100
0000
1000
0000
1001
0000
0001
0000
0101
0000
0100
0001
1000
0000
0010
0100
,
0001
0000
0010
0000
0100
0000
1000
0000
0001
0100
0001
1000
0100
0000
1000
0000
,
1100
0000
0000
0000
1001
0000
0100
0010
1000
0100
0010
0000
1001
0000
0000
0000
,
0002
0000
0013
0000
0000
0000
0001
0010
0100
0000
1000
0000
0010
0000
0100
0000
,
0002
0000
0003
0000
0101
0000
1000
0100
1000
0001
0100
0000
0101
0000
0010
0000
,
1000
0000
0100
0010
0100
0010
0001
1000
0100
0000
0010
0000
0002
0000
0000
0000
,
2000
0000
0000
0000
0000
0000
0000
0000
0000
0000
0000
0000
0000
0000
0000
3003
;

//---------------dance-single - ----------------
#NOTEDATA:;
#CHARTNAME:;
#STEPSTYPE:dance-single;
#DESCRIPTION:;
#CHARTSTYLE:;
#DIFFICULTY:Medium;
#METER:7;
#RADARVALUES:0.464380,0.453160,0.244269,0.075160,0.173807,312.000000,26.000000,8.000000,0.000000,0.000000,0.000000,0.000000,0.000000,0.464380,0.453160,0.244269,0.075160,0.173807,312.000000,26.000000,8.000000,0.000000,0.000000,0.000000,0.000000,0.000000;
#CREDIT:;
#NOTES:
0000
0000
0000
0000
,
0000
0000
0000
0000
,
0000
0000
0000
0000
,
0000
0000
0000
0000
,
0001
0000
0000
0000
0010
0000
0001
0000
0100
0001
0100
0000
0101
0000
0000
0000
,
0001
0010
0001
0100
0001
1000
0010
0100
,
0001
0000
0000
0000
0101
0000
1000
0000
0100
1000
0100
0000
0010
0000
0000
0000
,
0010
0000
0100
0000
1000
0000
0010
0000
0100
0010
0100
0000
1001
0000
1001
0000
,
0100
0000
0010
0000
1000
0000
0100
1000
0000
0100
1000
0000
1100
0000
0000
0000
,
1000
0001
1000
0010
0100
0010
1001
0000
,
0010
0000
0010
0000
0100
0000
0001
0010
0000
0001
0100
0000
0010
1000
0000
0000
,
0001
0001
1000
1000
0010
0100
1001
0000
,
1000
0100
0000
0000
1100
0000
0010
0100
0000
0001
0100
0000
1010
0000
0000
0000
,
0010
0000
0100
0010
0000
0100
0000
0010
1000
0000
0100
0000
0010
0000
0001
0000
,
0100
0010
1000
0100
1000
0010
0100
0000
,
0010
0000
0100
0010
0000
0100
0000
0001
0100
0000
0010
0000
1000
0000
0001
0000
,
1000
0100
1000
0000
0010
0000
0100
0000
0001
0000
0010
0000
0011
0000
0000
0000
,
1001
0000
0000
0000
0100
0000
0010
1000
0100
0000
0010
0000
0001
0000
2000
0000
,
3100
0000
0100
0000
1000
0000
0010
0000
1010
0000
0001
0000
1010
0000
0010
0100
,
0001
0000
0000
0000
0010
0000
0001
0100
0001
0100
0001
0000
2000
0000
3000
0000
,
0001
0100
0001
0010
0001
0100
0000
0001
,
1000
0100
1000
0010
1000
0100
0000
1000
,
0001
0010
0001
0100
0001
0010
0000
0100
,
0001
0100
1000
0100
0010
0000
1001
0000
,
1000
0100
1000
0010
1000
0100
0000
1000
,
0001
0010
0001
0100
0001
0010
0000
0001
,
1000
0010
1000
0100
1000
0010
0000
0100
,
0001
0100
1000
0100
0001
0000
1001
0000
,
0010
0100
0001
0000
0010
0100
1000
0000
,
0010
0000
0100
0010
0000
0100
0000
0001
0100
0000
0010
0000
1000
0000
0100
0000
,
1000
0100
1000
0000
0001
0100
0001
0000
0100
0000
0010
0000
1001
0000
0000
0000
,
1000
0000
0010
1000
0010
0000
1000
0000
0100
0010
0100
0010
0100
0000
0000
0000
,
1000
0100
1000
0010
1000
0001
0000
1000
,
0001
0000
0010
0000
0001
0000
0100
0000
0001
0000
1000
0000
0000
0000
1000
0100
,
1000
0100
0010
0001
0100
0010
0000
0010
,
1000
0000
0010
0000
0001
0000
0010
0000
1000
0000
0001
0000
0101
0000
1000
0100
,
0010
0000
0000
0000
0011
0000
0001
0010
0001
0000
0100
0000
0010
0000
2000
0000
,
3100
0000
0100
0000
0010
0000
0001
0000
0110
0000
0001
0000
0110
0000
0010
0100
,
0002
0000
0003
0000
0011
0000
0100
0010
1000
0000
0100
0000
1000
0000
0001
0000
,
0100
0010
0100
0010
0100
0000
1001
0000
,
0010
0000
0010
0000
0100
0000
0001
0000
1000
0000
0001
0100
0010
0000
0100
0000
,
0002
0013
2010
3100
,
0001
0010
0000
0010
0001
0100
0010
1000
,
0001
0000
0101
0000
1000
0100
1100
0000
,
0010
0000
0100
0000
0001
0000
1000
0001
1000
0000
0100
0000
0010
0000
0000
0000
,
2002
0000
0000
0000
0000
0000
0000
0000
0000
0000
0000
0000
0000
0000
0000
3003
;

//---------------dance-single - ----------------
#NOTEDATA:;
#CHARTNAME:;
#STEPSTYPE:dance-single;
#DESCRIPTION:;
#CHARTSTYLE:;
#DIFFICULTY:Easy;
#METER:4;
#RADARVALUES:0.295270,0.258596,0.131529,0.009395,0.000000,205.000000,14.000000,1.000000,0.000000,0.000000,0.000000,0.000000,0.000000,0.295270,0.258596,0.131529,0.009395,0.000000,205.000000,14.000000,1.000000,0.000000,0.000000,0.000000,0.000000,0.000000;
#CREDIT:;
#NOTES:
0000
0000
0000
0000
,
0000
0000
0000
0000
,
0000
0000
0000
0000
,
0000
0000
0000
0000
,
0100
0000
1000
0000
0010
1000
0100
0000
,
1100
0000
0001
0000
1000
0001
1000
0001
,
0100
0000
0010
0000
0100
0001
0010
0000
,
0001
0000
1000
0000
0010
0100
0001
1000
,
0001
0010
0001
0000
0001
0100
0010
0000
,
1000
0000
1010
0000
0100
0001
1000
0000
,
0010
0010
0010
0000
0100
0100
0100
0000
,
0001
0000
1000
0000
0001
1000
0100
0000
,
1100
0000
0101
0000
0001
0010
0100
0000
,
1000
1000
0001
0001
,
1000
0010
1000
0000
0001
0010
0001
0000
,
0100
0000
0110
0000
0001
1000
0100
0000
,
1000
0000
0100
1000
0000
0010
1000
0000
,
0110
0000
1001
0000
0100
0010
0100
0000
,
0001
0000
0010
0001
0000
0100
0001
0000
,
1001
0000
0110
0000
0001
1000
0001
0000
,
1000
0000
0100
0000
1000
0100
0000
1000
,
0001
0000
0100
0000
0001
0010
0000
0001
,
1000
0000
0010
0000
1000
0100
0000
0000
,
1000
0001
1000
0001
1000
0000
0000
0000
,
0001
0000
0010
0000
0001
0100
0000
0001
,
1000
0000
0100
0000
1000
0010
0000
1000
,
0001
0000
0010
0000
0001
0100
0000
0000
,
0010
1000
0010
1000
0010
0000
0000
0000
,
1000
0000
1100
0000
1000
0100
1000
0000
,
0001
0000
1000
0000
0001
0100
0001
0000
,
1000
1000
1000
0000
0001
0001
0001
0000
,
0100
0000
0010
0000
1000
0001
0100
0000
,
0001
0000
0010
0000
0001
0100
0000
0001
,
1000
0000
0100
0000
1000
0010
0000
1000
,
0001
0000
0010
0000
0001
0100
0000
0000
,
0001
1000
0001
1000
0001
0000
0000
0000
,
1000
0000
0010
0000
1000
0100
0000
1000
,
0001
0000
0100
0000
0001
0010
0000
0001
,
0100
0000
0010
0000
1000
0001
0000
0000
,
0100
0010
0100
0010
0100
0000
0000
0000
,
0001
0000
0010
0000
0001
0010
0001
0000
,
1000
1010
0001
0011
,
1000
0000
0100
0000
1000
0010
0100
0000
,
0001
0011
1000
1010
,
0100
0000
0010
0000
0001
1000
0010
0000
,
0200
0000
0000
0000
0000
0000
0000
0300
;

//---------------dance-single - ----------------
#NOTEDATA:;
#CHARTNAME:;
#STEPSTYPE:dance-single;
#DESCRIPTION:;
#CHARTSTYLE:;
#DIFFICULTY:Beginner;
#METER:2;
#RADARVALUES:0.187899,0.193947,0.169109,0.037580,0.000000,118.000000,18.000000,4.000000,0.000000,0.000000,0.000000,0.000000,0.000000,0.187899,0.193947,0.169109,0.037580,0.000000,118.000000,18.000000,4.000000,0.000000,0.000000,0.000000,0.000000,0.000000;
#CREDIT:;
#NOTES:
0000
0000
0000
0000
,
0000
0000
0000
0000
,
0000
0000
0000
0000
,
0000
0000
0000
0000
,
0001
0000
0001
0011
,
0001
0000
0100
0010
,
1000
0000
1000
1100
,
1000
0000
1001
1001
,
1000
0000
0100
0000
,
1000
0010
1000
0001
,
0010
0000
0010
0000
,
0001
0100
0001
1000
,
0100
0000
0100
0000
,
1000
0001
1000
0001
,
0100
0000
0100
0000
,
0010
0000
0110
0001
,
2000
0000
3100
0000
,
1100
0000
1001
0000
,
0002
0000
0013
0000
,
0011
0000
1001
0000
,
0100
0001
0100
0000
,
0100
1000
0100
0000
,
0100
0001
0100
0000
,
0010
0110
1001
0000
,
0010
1000
0010
0000
,
0010
0001
0010
0000
,
0010
1000
0010
0000
,
0100
0110
1001
0000
,
0001
0000
0001
0000
,
0010
0001
0100
0010
,
1000
0000
1000
0000
,
0100
1000
0010
0100
,
0001
0010
0001
0000
,
0010
0100
0010
0000
,
0100
1000
0100
0000
,
1000
1010
0110
0000
,
1000
0010
1000
0000
,
0100
0010
0100
0000
,
0010
0001
0010
0000
,
0001
0011
0101
0000
,
0001
1000
0010
0100
,
0002
0000
0000
0003
,
1000
0001
0100
0000
,
0001
1000
0100
0000
,
1000
0000
1010
0001
,
0200
0000
0000
0000
0000
0000
0000
0300
;

//---------------dance-double - ----------------
#NOTEDATA:;
#CHARTNAME:;
#STEPSTYPE:dance-double;
#DESCRIPTION:;
#CHARTSTYLE:;
#DIFFICULTY:Hard;
#METER:9;
#RADARVALUES:0.640200,0.582635,0.375799,0.169109,0.507328,419.000000,40.000000,18.000000,0.000000,0.000000,0.000000,0.000000,0.000000,0.640200,0.582635,0.375799,0.169109,0.507328,419.000000,40.000000,18.000000,0.000000,0.000000,0.000000,0.000000,0.000000;
#CREDIT:;
#NOTES:
00000000
00000000
00000000
00000000
,
00000000
00000000
00000000
00000000
,
00000000
00000000
00000000
00000000
,
00000000
00000000
00000000
00000000
,
00000010
00000000
00001000
00000000
00000100
00000000
00001000
00000010
00000100
00000010
00001000
00000000
00001100
00000000
00000000
00000000
,
00000100
00000000
00010000
00000000
00001000
00000000
00100000
00000000
00010000
01000000
00100000
00000000
10010000
00000000
10010000
00000000
,
00100000
00000000
00010000
00000000
01000000
00000000
00010000
00100000
00010000
01000000
00100000
00000000
01100000
00000000
00000000
00000000
,
00001000
00010000
00001000
00010000
00000100
00001000
00000010
00000100
00000001
00001000
00000100
00000000
00011000
00000000
00011000
00000000
,
00000100
00000000
00001000
00000010
00000100
00000000
00000100
00000000
00000010
00000100
00000001
00000010
00000100
00000000
00000100
00000000
,
00001000
00000100
00010000
00001000
00100000
00010000
01000000
00100000
10000000
01000000
00100000
00000000
00110000
00000000
00010000
01000000
,
00001000
00000000
00001000
00000000
01001000
00000000
00010000
00001000
00010000
00000000
00010000
00000000
00010100
00000000
00010000
00000000
,
00001000
00000000
00100000
00000000
01000000
00000000
10000000
00000000
00100000
01000000
00010000
00000000
01010000
00000000
00000000
00000000
,
01000000
00010000
00000000
00100000
00010000
00000000
00100000
00001000
00010000
00000100
00001000
00000000
00001100
00000000
00000010
00000100
,
00000001
00000000
00000010
00000100
00001000
00000000
00000010
00000100
00000001
00000100
00000010
00001000
00000100
00000000
00010000
00001000
,
01000000
00010000
01000000
00000000
01010000
00000000
00001000
00010000
00000100
00001000
00000100
00000000
00001100
00000000
00010000
00001000
,
00100000
00010000
00100000
01000000
00100000
00010000
01000000
00100000
00000000
00000000
10100000
00000000
00110000
00000000
00000000
00000000
,
00001000
00010000
00001000
00010000
00000100
00000000
00001100
00000000
00010000
00001000
01000000
00000000
01010000
00000000
00000000
00000000
,
00100000
00001000
00010000
00000100
00000010
00000000
00000001
00000000
00000011
00000000
00000100
00001000
00000000
00000000
00000001
00000000
,
00001000
00000010
00001000
00000100
00010000
00000000
00010100
00000000
00010000
00001000
01000000
00000000
01010000
00000000
00000000
00000000
,
00010000
00100000
01000000
10000000
00010000
01000000
00100000
10000000
01000000
00000000
00100000
00010000
01000000
00000000
01010000
00000000
,
00002000
00000000
00010000
00000000
00010000
00000000
00100000
00000000
00100000
00000000
01003000
00000000
00010000
00001000
00010000
00000000
,
00020000
00000000
00001000
00000000
00001000
00000000
00000100
00000000
00000100
00000000
00030010
00000000
00001000
00000100
00000010
00001000
,
00000200
00000000
00001000
00000000
00001000
00000000
00010000
00000000
00010000
00000000
00001300
00000000
00010000
00001000
00100000
00000000
,
00002000
00000000
00013000
00000000
00020000
00000000
00130000
00000000
01100000
00000000
00100000
10000000
01000000
00100000
00010000
01000000
,
00002000
00000000
00100000
00000000
00100000
00000000
00010000
00000000
00010000
00000000
01003000
00000000
00100000
00010000
01000000
00001000
,
00020000
00000000
00000100
00000000
00000100
00000000
00000010
00000000
00000010
00000000
00031000
00000000
00000100
00001000
00000010
00000100
,
00000002
00000000
00000010
00000000
00000010
00000000
00000100
00000000
00000100
00000000
00001003
00000000
00000100
00000010
00001000
00000000
,
00001100
00000000
00000100
00000000
00010100
00000000
00010000
00000000
00011000
00000000
00001000
01000000
00010000
00000000
00000000
00000000
,
10000000
00000000
01000000
00100000
01000000
00000000
10000000
00000000
00100000
01000000
00010000
00100000
01000000
00000000
11000000
00000000
,
00010000
01000000
00001000
00010000
00000100
00001000
00000010
00000100
00000001
00001000
00000001
00000000
00001001
00000000
00001000
00000100
,
00010000
00000100
00000010
00000100
00001000
00000000
00001100
00000000
00010000
00001000
01000000
00000000
01010000
00000000
00000000
00000000
,
00010000
00100000
00010000
01000000
00010000
00100000
00010000
10000000
00001000
00000000
00010000
00001000
00000000
00000000
00011000
00000000
,
00020000
00000000
00000100
00000000
00000100
00000000
00000010
00000000
00000010
00000000
00030001
00000000
00000100
00010000
00001000
00100000
,
00002000
00000000
00100000
00000000
00100000
00000000
01000000
00000000
01000000
00000000
10003000
00000000
00010000
00100000
00001000
01000000
,
00010000
00000000
01000000
00000000
01010000
00000000
00010000
00100000
00001000
00010000
00000100
00000000
00001000
00000010
00000000
00000000
,
00001010
00000000
00001000
00000000
00001001
00000000
00000001
00000000
00000101
00000000
00001000
00000010
00010000
00001000
00100000
00010000
,
20000000
00000000
01000000
00000000
01000000
00000000
00100000
00000000
00100000
00000000
30010000
00000000
00010000
00100000
00001000
00000000
,
00020000
00000000
00000100
00000000
00000100
00000000
00000010
00000000
00000010
00000000
00030001
00000000
00000100
00000010
00001000
00000100
,
00000010
00000000
00000001
00000000
00000011
00000000
00000100
00001000
00000100
00000000
00010000
00000000
00001000
00000000
00100000
00000000
,
00110000
00000000
00010000
00000000
01010000
00000000
00010000
00000000
10010000
00000000
00001000
00010000
00000010
00000000
00000000
00000000
,
00010000
00000000
00000100
00000000
00000010
00000000
00000001
00000000
00000100
00000000
00000010
00001000
00000100
00000000
00010000
00000000
,
02000000
00000000
10000000
00000000
13000000
00000000
00000000
00000000
00020000
00000000
01000000
00000000
01030000
00000000
00010000
10000000
,
00100000
02000000
03000000
00010000
00100000
00001000
00000100
00000010
,
00002000
00000000
00003000
00000000
00001100
00000000
00010000
00001000
00010000
00001000
00100000
00000000
00110000
00000000
00010000
10000000
,
00100000
00000000
01000000
00010000
00100000
00010000
01000000
00001000
00010000
00000100
00000010
00000001
00002000
00000000
00000000
00000000
,
00000200
00000000
00000000
00000000
00000000
00000000
00000000
00000000
00000000
00000000
00000000
00000000
00000000
00000000
00000000
00003300
;

//---------------dance-double - ----------------
#NOTEDATA:;
#CHARTNAME:;
#STEPSTYPE:dance-double;
#DESCRIPTION:;
#CHARTSTYLE:;
#DIFFICULTY:Medium;
#METER:7;
#RADARVALUES:0.405326,0.387895,0.206689,0.018790,0.079857,278.000000,22.000000,2.000000,0.000000,0.000000,0.000000,0.000000,0.000000,0.405326,0.387895,0.206689,0.018790,0.079857,278.000000,22.000000,2.000000,0.000000,0.000000,0.000000,0.000000,0.000000;
#CREDIT:;
#NOTES:
00000000
00000000
00000000
00000000
,
00000000
00000000
00000000
00000000
,
00000000
00000000
00000000
00000000
,
00000000
00000000
00000000
00000000
,
00001000
00000000
00011000
00000000
00100000
00010000
01000000
00000000
,
00010000
00100000
01000000
10000000
00100000
01000000
00001000
00010000
,
00000100
00000000
00001100
00000000
00000010
00000100
00000001
00000000
,
00000010
00000000
00000100
00000000
00001000
00000000
00000010
00000000
00000100
00000001
00000100
00000000
00001001
00000000
00001001
00000000
,
00001000
00000000
00000100
00010000
00001000
01000000
00100000
00000000
,
10000000
01000000
10000000
00010000
01000000
01000000
10010000
00000000
,
00100000
00100000
00100000
00000000
01000000
01000000
01000000
00000000
,
00010000
00000000
00110000
01000000
10000000
00100000
01000000
00000000
,
00010000
00100000
00000000
00000000
00110000
00000000
00000000
00000000
00100000
00000000
00001000
00000000
00010000
00000000
00000000
00000000
,
00010000
00000000
00000100
00001000
00000000
00000100
00000000
00001000
00000010
00000000
00000100
00000000
00000001
00000000
00001000
00000000
,
00000010
00000000
00000110
00000000
00001000
00000001
00001000
00000000
,
00000100
00000000
00010000
00001000
00000000
00100000
00000000
00010000
01000000
00000000
00100000
00000000
10000000
00000000
01000000
00000000
,
00100000
00010000
00100000
00000000
00010000
00000000
01000000
00000000
00100000
00000000
10000000
00000000
00100000
00000000
00000000
00000000
,
01010000
00000000
00000000
00000000
00010000
00000000
00100000
00001000
00010000
00000000
00000100
00000000
00000000
00000000
00001100
00000000
,
00000001
00000100
00000010
00000100
00000001
00001000
00000100
00000000
,
00010100
00000000
00000000
00000000
00010000
00000000
00001000
00100000
00010000
00000000
01000000
00000000
00100000
00000000
00000000
00000000
,
10000000
01000000
10000000
01000000
10000000
01000000
00000000
01000000
,
00010000
00001000
00010000
00001000
00010000
00001000
00000000
00001000
,
00000100
00000001
00000100
00000001
00000100
00000001
00000000
00000000
,
00000001
00001000
00000001
00001000
00000001
00000000
00001001
00000000
,
00000001
00000010
00000001
00000010
00000001
00000010
00000000
00000010
,
00001000
00010000
00001000
00010000
00001000
00010000
00000000
00010000
,
00100000
10000000
00100000
10000000
00100000
10000000
00000000
00000000
,
10000000
00010000
10000000
00010000
10000000
00000000
10010000
00000000
,
00100000
01000000
00010000
00000000
00100000
01000000
10000000
00000000
,
00010000
01000000
00010000
10000000
01000000
01000000
10010000
00000000
,
00100000
00001000
00100000
00000000
00000010
00010000
00000010
00000000
,
00001000
00000000
00000100
00000000
00000010
00000000
00000001
00000100
00000000
00000010
00001000
00000000
00001010
00000000
00000000
00000000
,
00000001
00000100
00000001
00000100
00000001
00000100
00000000
00000100
,
00001000
00010000
00001000
00010000
00001000
00010000
00000000
00010000
,
01000000
10000000
01000000
10000000
01000000
10000000
00000000
00000000
,
00010000
10000000
00010000
10000000
00010000
00000000
10010000
00000000
,
10000000
00100000
10000000
00100000
10000000
00100000
00000000
00100000
,
00010000
00001000
00010000
00001000
00010000
00001000
00000000
00001000
,
00000010
00000001
00000010
00000001
00000010
00000001
00000000
00000000
,
00001000
00000001
00001000
00000001
00001000
00000000
00001001
00000000
,
00000010
00000000
00000100
00000000
00000001
00000000
00000100
00000010
00000100
00000000
00001000
00000000
00000000
00000000
00011000
00000000
,
00100000
00000000
01000000
00000000
00010000
00000000
00100000
00000000
00000000
00010000
01000000
00000000
00010000
00000000
10000000
01000000
,
10000000
00000000
11000000
00000000
00100000
01000000
00010000
00000000
,
00100000
00000000
00001000
00000000
00101000
00000000
00010000
00000000
00000000
00000100
00001000
00000000
00001010
00000000
00000000
00000000
,
00001000
00000100
00010000
01000000
00100000
00010000
01000000
00000000
,
02020000
00000000
00000000
00000000
00000000
00000000
00000000
03030000
;

//---------------dance-double - ----------------
#NOTEDATA:;
#CHARTNAME:;
#STEPSTYPE:dance-double;
#DESCRIPTION:;
#CHARTSTYLE:;
#DIFFICULTY:Easy;
#METER:4;
#RADARVALUES:0.275138,0.280909,0.103345,0.028185,0.000000,191.000000,11.000000,3.000000,0.000000,0.000000,0.000000,0.000000,0.000000,0.275138,0.280909,0.103345,0.028185,0.000000,191.000000,11.000000,3.000000,0.000000,0.000000,0.000000,0.000000,0.000000;
#CREDIT:;
#NOTES:
// measure 0
00000000
00000000
00000000
00000000
,  // measure 1
00000000
00000000
00000000
00000000
,  // measure 2
00000000
00000000
00000000
00000000
,  // measure 3
00000000
00000000
00000000
00000000
,  // measure 4
10000000
00000000
10000000
00000000
00100000
10000000
00100000
00000000
,  // measure 5
10000000
00000000
01000000
00000000
00100000
00010000
00100000
00010000
,  // measure 6
01000000
00000000
00010000
00000000
00100000
00010000
01000000
00000000
,  // measure 7
00001000
00000000
00010000
00000000
00000100
00001000
00000010
00000000
,  // measure 8
00001000
00001000
00000001
00000001
,  // measure 9
00000100
00000000
00000010
00000000
00001000
00000100
00001000
00000000
,  // measure 10
00000001
00000001
00001000
00001000
,  // measure 11
00000100
00000000
00010000
00000000
00001000
01000000
00010000
00000000
,  // measure 12
10000000
00100000
01000000
01010000
,  // measure 13
00001000
00010000
00001000
00010000
00001000
00000000
00011000
00000000
,  // measure 14
00000100
00001000
00000010
00000000
00000010
00001000
00000100
00000000
,  // measure 15
00010000
00000000
00001000
00100000
00010000
01000000
00100000
00000000
,  // measure 16
10000000
00000000
00010000
00000000
01000000
01000000
00000000
00000000
,  // measure 17
00001000
00010000
00000100
00001000
00000001
00000000
00000101
00000000
,  // measure 18
00000001
00000000
00001000
00000000
00000100
00000100
00000000
00000000
,  // measure 19
00010000
00001000
01000000
00010000
10000000
00000000
11000000
00000000
,  // measure 20
00010000
00000000
00010000
00000000
00100000
00010000
00000000
00000000
,  // measure 21
01000000
00000000
01000000
00000000
00100000
10000000
00000000
00000000
,  // measure 22
01000000
00000000
01000000
00000000
00100000
00010000
00000000
00000000
,  // measure 23
00100000
00001000
00010000
00000100
00000010
00000000
00000000
00000000
,  // measure 24
00000001
00000000
00000001
00000000
00000001
00000010
00000000
00000000
,  // measure 25
00000100
00000000
00000100
00000000
00000100
00001000
00000000
00000000
,  // measure 26
00000010
00000000
00000010
00000000
00000010
00000100
00000000
00000000
,  // measure 27
00001000
00010000
00001000
00010000
00001000
00000000
00000000
00000000
,  // measure 28
00010000
00000000
00100000
00000000
01000000
00010000
00100000
00000000
,  // measure 29
01000000
10000000
00010000
01010000
,  // measure 30
00001000
00010000
00001000
00000000
00010000
00001000
00010000
00000000
,  // measure 31
00011000
00000000
00011000
00000000
00000100
00001000
00000010
00000000
,  // measure 32
00001000
00000000
00000100
00000000
00001000
00000100
00000000
00000000
,  // measure 33
00010000
00000000
00001000
00000000
00010000
00001000
00000000
00000000
,  // measure 34
01000000
00000000
00010000
00000000
01000000
00010000
00000000
00000000
,  // measure 35
10000000
00100000
10000000
01000000
10000000
00000000
00000000
00000000
,  // measure 36
00010000
00000000
00100000
00000000
00010000
00100000
00000000
00000000
,  // measure 37
00001000
00000000
00010000
00000000
00001000
00010000
00000000
00000000
,  // measure 38
00000010
00000000
00001000
00000000
00000010
00001000
00000000
00000000
,  // measure 39
00000001
00000100
00000001
00000100
00000001
00000000
00000000
00000000
,  // measure 40
00001000
00000100
00010000
00011000
,  // measure 41
02000000
00010000
00100000
03010000
,  // measure 42
00001000
00000000
00011000
00000000
00000100
00001000
00000010
00000000
,  // measure 43
00001000
00001100
00000001
00000101
,  // measure 44
00000010
00000100
00001000
00000002
,  // measure 45
00000200
00000000
00000000
00000000
,  // measure 46
00000303
00000000
00000000
00000000
;
