#TITLE:北のブルーバーズ;
#SUBTITLE:;
#ARTIST:Nintendo;
#TITLETRANSLIT:Kita no Blue Birds;
#SUBTITLETRANSLIT:;
#ARTISTTRANSLIT:;
#GENRE:;
#CREDIT:;
#BANNER:[Other Rhythm Games] - Kita no Blue Birds.png;
#BACKGROUND:[Other Rhythm Games] - Kita no Blue Birds-bg.png;
#LYRICSPATH:;
#CDTITLE:cdtitle.png;
#MUSIC:[Other Rhythm Games] - Kita no Blue Birds.mp3;
#OFFSET:-0.196;
#SAMPLESTART:54.433;
#SAMPLELENGTH:14.795;
#SELECTABLE:YES;
#BPMS:0.000=146.000
;
#STOPS:
;
#BGCHANGES:;
#KEYSOUNDS:;
#ATTACKS:;

//---------------dance-single - ----------------
#NOTES:
     dance-single:
     :
     Hard:
     9:
     0.691,0.754,0.479,0.442,0.396,426.000,52.000,48.000,0.000,0.000,0.000,0.691,0.754,0.479,0.442,0.396,426.000,52.000,48.000,0.000,0.000,0.000: // measure 0
0000
0000
0000
0000
,  // measure 1
0000
0000
0000
0000
,  // measure 2
0000
0000
0000
0000
,  // measure 3
0000
0000
0000
0000
,  // measure 4
1000
0000
0010
0000
0100
0000
0001
0100
0001
0000
1000
0000
0100
0000
1000
0100
,  // measure 5
1000
0000
0001
0000
1000
0000
0001
1000
0001
0000
1000
0000
0010
0000
0100
0000
,  // measure 6
0001
0000
0101
0000
0001
0100
1000
0100
,  // measure 7
0001
0000
1000
0001
1000
0000
0000
0000
0001
0000
0010
0100
0010
0000
0100
1000
,  // measure 8
0010
0000
0000
0000
0100
0000
0010
1000
0001
0000
0000
0000
0010
0000
0100
0010
,  // measure 9
0100
0000
1000
0001
1000
0000
0000
0000
0001
0000
0000
0000
1001
0000
0000
0000
,  // measure 10
1000
0000
1010
0000
0010
0100
0001
0100
,  // measure 11
0001
0000
1000
0001
1000
0000
0000
0000
0001
0000
0010
0100
0010
0000
0100
1000
,  // measure 12
0100
0000
0000
0000
1100
0000
1000
0001
1000
0000
0000
0000
1001
0000
0001
0100
,  // measure 13
0001
0000
0100
0010
0200
0000
0000
0000
0320
0000
0000
0000
1030
0000
0001
0000
,  // measure 14
0020
0230
2300
3002
,  // measure 15
0103
0000
0000
0100
0010
0000
0000
0000
1000
0000
0100
0000
0001
0000
0100
0000
,  // measure 16
1000
0000
0000
1000
0001
0000
0000
0000
1000
0000
0010
0000
0001
0000
0010
0000
,  // measure 17
1000
0000
0000
0000
0100
0000
0000
0100
0010
0000
0000
0000
0001
0000
1000
0000
,  // measure 18
0001
0100
0001
0100
0001
1000
0001
1000
0100
1000
0100
1000
0001
1000
0001
1000
,  // measure 19
0001
0000
0000
0001
1000
0000
0000
0000
0001
0000
0010
0000
1000
0000
0010
0000
,  // measure 20
0001
0000
0000
0001
1000
0000
0000
0000
0001
0000
0100
0000
1000
0000
0100
0000
,  // measure 21
0001
0000
0000
0000
1000
0000
0000
1000
0001
0000
0000
0000
0010
0000
0100
0000
,  // measure 22
1000
1100
0101
0110
,  // measure 23
1001
0000
0000
0000
1100
0000
0000
0000
1000
0000
0100
0010
0002
0000
0000
0000
,  // measure 24
0013
0001
2000
0000
0010
0000
0100
0000
,  // measure 25
3002
0000
0000
0203
0000
0000
0320
0000
1030
0000
0000
0000
1010
0000
0000
0000
,  // measure 26
1001
0000
0001
0010
0200
0000
0000
0000
1300
0000
0001
0000
0200
0000
0000
0000
,  // measure 27
0310
0000
1000
0000
0010
0000
0001
0000
0010
0000
1000
0001
2000
0000
0000
0000
,  // measure 28
3100
0010
0002
0000
1003
0010
0100
0001
,  // measure 29
0020
0000
0000
0230
0000
0000
2300
0000
3001
0000
0000
0000
1001
0000
0000
0000
,  // measure 30
1000
0100
1000
0100
0010
0100
0010
0100
0010
0001
0010
0001
1000
0001
1000
0001
,  // measure 31
1000
0000
0010
0000
0100
0000
0001
0100
0001
0000
1000
0000
0001
0000
1000
0100
,  // measure 32
1000
0000
0100
0000
0010
0000
0100
0010
0001
0000
1000
0000
0010
0000
0100
0000
,  // measure 33
0001
0000
0011
0000
0001
0100
1000
0100
,  // measure 34
0001
0000
0010
0100
1000
0000
0000
0000
0010
0000
0000
0000
1010
0000
0010
1000
,  // measure 35
0001
0000
1000
0000
1001
0000
0001
0010
0100
0000
1000
0000
1100
0000
0100
1000
,  // measure 36
0010
0000
0100
0001
1000
0000
0000
0000
1001
0000
0000
0000
1100
0000
0000
0000
,  // measure 37
0110
0000
0011
0000
0001
0100
0010
0100
,  // measure 38
0010
0000
1000
0010
1000
0000
0000
0000
0001
0000
0000
0000
1001
0000
1000
0001
,  // measure 39
0010
0000
0001
0000
0011
0000
0010
0100
1000
0000
0100
0000
1100
0000
1000
0001
,  // measure 40
0100
0000
0010
1000
0001
0000
0000
0000
1000
0000
0100
0000
0001
0000
0100
0000
,  // measure 41
2000
3020
0032
0203
,  // measure 42
1300
0000
0000
1000
0001
0000
0000
0000
0010
0000
1000
0000
0010
0000
0001
0000
,  // measure 43
1000
0000
0000
1000
0010
0000
0000
0000
0100
0000
0001
0000
0100
0000
1000
0000
,  // measure 44
0100
0000
0000
0000
0001
0000
0000
0001
1000
0000
0000
0000
0100
0000
0010
0000
,  // measure 45
0001
0100
0001
0100
0010
0100
0010
0100
0010
1000
0010
1000
0001
1000
0001
1000
,  // measure 46
0001
0000
0000
0001
0100
0000
0000
0000
0101
0000
0000
0000
1001
0000
0000
0000
,  // measure 47
1100
0000
0000
1000
0100
0000
0000
0000
0110
0000
0000
0000
0011
0000
0001
0000
,  // measure 48
1001
0000
0000
0000
1010
0000
0000
1000
0010
0000
0000
0000
0110
0000
0010
0000
,  // measure 49
0110
0200
0302
0023
,  // measure 50
2030
0000
0000
0000
3200
0000
0000
0000
0301
0000
0100
0001
0200
0000
0000
0000
,  // measure 51
0301
1000
0200
0000
0010
0000
1000
0000
,  // measure 52
0320
0000
0000
0032
0000
0000
2003
0000
3010
0000
0000
0000
0110
0000
0000
0000
,  // measure 53
0100
0000
0001
1000
0200
0000
0000
0000
1300
0000
0001
0000
0200
0000
0000
0000
,  // measure 54
0310
0100
0010
0100
0010
0100
0010
0100
0010
0000
1000
0010
2000
0000
0000
0000
,  // measure 55
3001
1000
0200
0000
0310
0001
1000
0001
,  // measure 56
2000
0000
0000
3020
0000
0000
0230
0000
0301
0000
0000
0000
0101
0000
0000
0000
,  // measure 57
0002
0000
0000
0023
0000
0000
0230
0000
1300
0000
0000
0000
1100
0000
0000
0000
,  // measure 58
2000
0000
0000
3200
0000
0000
0302
0000
0103
0000
0000
0000
1100
0000
0000
0000
,  // measure 59
2000
0000
0000
3020
0000
0000
0032
0000
0013
0000
0000
0000
1010
0000
0000
0000
,  // measure 60
1001
0000
0000
0011
0000
0000
0110
0000
0110
0000
0000
0000
1100
0000
0000
0000
,  // measure 61
1001
0000
0000
0101
0000
0000
0110
0000
0110
0000
0000
0000
1010
0000
0000
0000
,  // measure 62
1100
0000
0000
0011
0000
0000
1001
0000
1001
0000
0000
0000
1000
0010
0100
0001
,  // measure 63
1000
0000
0000
0000
;

//---------------dance-single - ----------------
#NOTES:
     dance-single:
     :
     Medium:
     7:
     0.479,0.435,0.322,0.166,0.046,311.000,35.000,18.000,0.000,0.000,0.000,0.479,0.435,0.322,0.166,0.046,311.000,35.000,18.000,0.000,0.000,0.000:
0000
0000
0000
0000
,
0000
0000
0000
0000
,
0000
0000
0000
0000
,
0000
0000
0000
0000
,
0001
0000
0010
0001
0010
0000
0100
1000
,
0100
0000
1000
0010
1000
0000
0001
0100
,
0001
0000
0101
0000
0100
0010
1000
0010
,
1000
1001
0001
1001
,
1000
0000
0000
0001
1000
0000
0000
0001
,
1000
0100
0010
0000
0001
0000
1001
0000
,
1000
0000
1010
0000
0010
0100
0001
0100
,
0001
0101
1000
1001
,
0001
0000
0000
1000
0001
0000
0000
1000
,
0001
0010
0100
0000
1000
0000
0001
1000
,
0002
0203
0320
1030
,
2020
3030
1000
0001
,
2002
0000
3003
0000
0001
0010
0100
0010
,
0100
0000
1000
0100
1000
0000
0001
1000
,
0001
0100
0010
1000
0100
0010
0001
1000
,
0001
0100
0010
0000
0110
0000
1001
0000
,
1000
0100
1000
0000
0100
0010
0001
1000
,
0010
0000
0100
0010
0100
0000
0001
0100
,
0001
0101
0110
1010
,
2002
0000
3003
0000
1000
0001
0010
0000
,
0100
0010
0200
0000
1000
0000
0001
0000
,
1300
0000
0000
0010
0000
0000
0100
0000
0001
0000
0000
0000
1000
0000
0000
0000
,
0001
0010
0001
0000
1000
0010
1000
0000
,
0001
1000
0001
1000
0001
0010
0100
0000
,
0010
0100
2000
0000
0000
0000
3000
0000
,
0001
0000
0000
0100
0000
0000
0010
0000
1000
0000
0000
0000
0001
0000
0000
0000
,
2002
0000
0000
3003
,
1000
0000
0010
1000
0010
0000
1000
0001
,
1000
0000
0001
0010
0001
0000
1000
0001
,
1000
0000
1001
0000
0001
0100
0010
1000
,
0001
0000
1001
0000
1000
0000
1001
0001
,
0010
0000
0100
1000
0001
0000
1000
0001
,
0100
0010
0100
0000
0010
0000
1010
0000
,
1000
0000
1001
0000
0001
0100
0001
1000
,
0100
0000
0110
0000
0010
0000
0011
0001
,
1000
0000
0001
0100
0010
0000
0100
0010
,
1000
0001
1000
0000
1001
0000
0001
0010
,
0100
0110
1100
1001
,
0001
0100
0001
0000
0101
0000
1010
0000
,
1000
0100
1000
0000
0100
0010
0001
1000
,
0001
0000
0100
0010
1000
0000
0100
0010
,
0001
0010
0001
1000
0010
1000
0001
0010
,
0100
1000
0001
0000
0101
0000
0110
0000
,
0100
0010
1000
0000
0001
1000
0001
1000
,
0100
0000
0010
0100
0010
0000
0001
0010
,
0001
0011
0110
1100
,
2002
0000
3003
0000
0001
0100
0010
0000
,
1000
0100
0020
0000
0001
0000
1000
0000
,
0031
0000
0000
0010
0000
0000
0100
0000
1000
0000
0000
0000
0001
0000
0000
0000
,
1000
0010
0100
0000
0001
1000
0100
0000
,
0010
0001
1000
0001
1000
0010
0200
0000
,
0301
1000
0200
0000
0000
0000
0300
0000
,
0010
0000
0000
0100
0000
0000
0010
0000
0100
0000
0000
0000
0010
0000
0000
0000
,
0001
0000
0000
1000
0000
0000
0001
0000
1000
0000
0000
0000
0001
0000
0000
0000
,
0100
0000
0000
0010
0000
0000
0100
0000
0010
0000
0000
0000
0100
0000
0000
0000
,
0001
0000
0000
1000
0000
0000
0001
0000
1000
0000
0000
0000
0001
0000
0000
0000
,
0010
0000
0000
0001
0000
0000
0010
0000
0001
0000
0000
0000
0010
0000
0000
0000
,
0001
0000
0000
1000
0000
0000
0001
0000
1000
0000
0000
0000
0001
0000
0000
0000
,
1000
0000
0000
0010
0000
0000
1000
0000
0010
0000
0000
0000
0100
0000
0010
0000
,
0100
0000
0000
0000
;

//---------------dance-single - ----------------
#NOTES:
     dance-single:
     :
     Easy:
     4:
     0.308,0.290,0.239,0.000,0.000,208.000,26.000,0.000,0.000,0.000,0.000,0.308,0.290,0.239,0.000,0.000,208.000,26.000,0.000,0.000,0.000,0.000:
0000
0000
0000
0000
,
0000
0000
0000
0000
,
0000
0000
0000
0000
,
0000
0000
0000
0000
,
1000
0100
1000
0001
,
0100
0001
0100
0010
,
1000
1000
0001
0010
,
0100
0100
1000
1000
,
0001
0000
1000
0000
,
0010
0100
0001
1000
,
0001
0001
0010
0100
,
0010
0010
0100
0100
,
1000
0000
0001
0000
,
0100
0100
0010
0010
,
1000
0100
0010
0001
,
0011
0000
0001
1000
,
1001
0000
1000
0010
,
0100
0101
0001
1001
,
1000
0100
0010
0001
,
1001
0000
1000
0010
,
0110
0000
0100
0010
,
1000
0001
0011
0010
,
0110
0100
1000
0001
,
0100
0000
0010
0100
,
0001
1000
0000
0000
,
0001
0010
0100
1000
,
0010
0010
0100
0100
,
0001
1000
0001
0001
,
0010
0010
0000
0000
,
0100
1000
0001
0100
,
0110
0000
0000
0000
,
0010
0100
0001
1000
,
0100
0010
0001
1000
,
0010
0010
0100
0001
,
1000
1000
0001
0001
,
1000
0000
0100
0000
,
0010
0010
0001
0001
,
1000
1000
0010
0100
,
0001
0001
1000
1000
,
0100
0000
0010
0000
,
0001
0010
0001
1000
,
0010
0100
0001
1000
,
1001
0000
0001
0010
,
0011
0000
0010
0100
,
1000
1010
0010
0110
,
0100
0001
1000
0001
,
1000
0000
0001
0010
,
0011
0000
0010
0100
,
1000
1100
1000
1001
,
0001
0100
0010
1000
,
1010
0000
0010
1000
,
0001
1001
0000
0000
,
0001
0010
0100
1000
,
0001
1001
1000
1001
,
0001
0100
0010
0010
,
0100
0100
0000
0000
,
0010
1000
0010
1010
,
1000
0001
1000
1001
,
0001
0010
0001
0011
,
0010
0100
0010
0110
,
1000
0001
1000
1001
,
0001
1000
0001
1001
,
1000
0010
0100
0001
,
1000
0000
0000
0000
;

//---------------dance-single - ----------------
#NOTES:
     dance-single:
     :
     Beginner:
     2:
     0.126,0.116,0.009,0.000,0.000,95.000,1.000,0.000,0.000,0.000,0.000,0.126,0.116,0.009,0.000,0.000,95.000,1.000,0.000,0.000,0.000,0.000:
0000
0000
0000
0000
,
0000
0000
0000
0000
,
0000
0000
0000
0000
,
0000
0000
0000
0000
,
1000
0000
1000
0000
,
0001
0000
0001
0000
,
0010
0000
0010
0000
,
0010
0000
0000
0000
,
0100
0000
0100
0000
,
0100
0000
0000
0000
,
1000
0000
1000
0000
,
1000
0000
0000
0000
,
0001
0000
0001
0000
,
0001
0000
0000
0000
,
0100
0000
0100
0000
,
0100
0000
0000
0000
,
0010
0000
0000
0000
,
1000
0000
0000
0000
,
0001
0000
0001
0000
,
0001
0000
0000
0000
,
0010
0000
0000
0000
,
0100
0000
0000
0000
,
1000
0000
1000
0000
,
1000
0000
1000
0000
,
0001
0000
0000
0000
,
0100
0000
0100
0000
,
0010
0000
0010
0000
,
1000
0000
0000
0000
,
0001
0000
0001
0000
,
0010
0000
0010
0000
,
0110
0000
0000
0000
,
0100
0000
0100
0000
,
0010
0000
0010
0000
,
0100
0000
1000
0000
,
0100
0000
0000
0000
,
1000
0000
0001
0000
,
1000
0000
0000
0000
,
0001
0000
0100
0000
,
0001
0000
0000
0000
,
1000
0000
0001
0000
,
1000
0000
0000
0000
,
0100
0000
0100
0000
,
0010
0000
0000
0000
,
0001
0000
0000
0000
,
1000
0000
0000
0000
,
0010
0000
0010
0000
,
0010
0000
0000
0000
,
0100
0000
0000
0000
,
0001
0000
0001
0000
,
1000
0000
1000
0000
,
0100
0000
0010
0000
,
0001
0000
0000
0000
,
1000
0000
0010
0000
,
0100
0000
0100
0000
,
0001
0000
0000
0000
,
1000
0000
0001
0000
,
0010
0000
0010
0000
,
0100
0000
0100
0000
,
1000
0000
1000
0000
,
0001
0000
0001
0000
,
0100
0000
0100
0000
,
0010
0000
0010
0000
,
1000
0000
0001
0000
,
1000
0000
0000
0000
;
