#VERSION:0.81;
#TITLE:CYCLES;
#SUBTITLE:;
#ARTIST:Masayoshi Minoshima feat. 綾倉盟;
#TITLETRANSLIT:;
#SUBTITLETRANSLIT:;
#ARTISTTRANSLIT:Masayoshi Minoshima feat. Mei Ayakura;
#GENRE:;
#ORIGIN:;
#CREDIT:;
#BANNER:[Other Rhythm Games] - CYCLES-bn.png;
#BACKGROUND:[Other Rhythm Games] - CYCLES-bg.png;
#PREVIEWVID:;
#JACKET:[Other Rhythm Games] - CYCLES-jacket.png;
#CDIMAGE:;
#DISCIMAGE:;
#LYRICSPATH:;
#CDTITLE:;
#MUSIC:[Other Rhythm Games] - CYCLES.mp3;
#OFFSET:-0.234000;
#SAMPLESTART:44.145996;
#SAMPLELENGTH:15.000000;
#SELECTABLE:YES;
#BPMS:0.000=135.000;
#STOPS:;
#DELAYS:;
#WARPS:;
#TIMESIGNATURES:0.000=4=4;
#TICKCOUNTS:0.000=4;
#COMBOS:0.000=1;
#SPEEDS:0.000=1.000=0.000=0;
#SCROLLS:0.000=1.000;
#FAKES:;
#LABELS:0.000=Song Start;
#BGCHANGES:;
#KEYSOUNDS:;
#ATTACKS:
;

//---------------dance-single - ----------------
#NOTEDATA:;
#CHARTNAME:;
#STEPSTYPE:dance-single;
#DESCRIPTION:;
#CHARTSTYLE:;
#DIFFICULTY:Hard;
#METER:8;
#RADARVALUES:0.499542,0.494547,0.099908,0.233120,0.154025,380.000000,12.000000,28.000000,0.000000,0.000000,0.000000,0.000000,0.000000,0.499542,0.494547,0.099908,0.233120,0.154025,380.000000,12.000000,28.000000,0.000000,0.000000,0.000000,0.000000,0.000000;
#CREDIT:;
#NOTES:
0000
0000
0000
0000
,
0000
0000
0000
0000
,
0000
0000
0000
0000
,
0000
0000
0000
0000
,
0000
0000
0000
0000
,
0000
0000
0000
0000
,
0000
0000
0000
0000
,
0000
0000
0000
0000
,
0010
0000
0001
0000
0100
0000
0010
0000
1000
0100
0000
1000
0000
0001
0010
0000
,
0100
0000
1000
0000
0010
0000
0100
0000
0001
0010
0000
0001
0000
1000
0100
0000
,
0010
0100
1000
0100
0010
0100
1000
0010
,
0100
0000
0001
0000
0010
0000
0100
0000
1000
0001
0000
0100
0000
0001
1000
0000
,
0100
0000
1000
0000
0010
0000
0100
0000
0001
0010
0000
0001
0000
1000
0100
0000
,
0010
0000
0001
0000
0100
0000
0010
0000
1000
0100
0000
1000
0000
0001
0010
0000
,
0100
0010
0001
0010
0100
0010
0001
0100
,
0010
0000
1000
0000
0100
0000
1000
0000
0010
0100
0000
0001
0000
0000
1000
0000
,
0002
0000
1003
0010
0200
0000
0301
0010
,
1000
0001
0100
1000
0001
0000
1001
0000
,
2000
0000
3010
0100
0002
0000
1003
0010
,
0001
1000
0100
0001
1000
0000
1001
0000
,
2000
0000
3010
0100
0002
0000
0103
0010
,
0001
1000
0100
0001
1000
0000
1001
0000
,
2000
0000
3010
0100
0002
0000
0013
0100
,
1000
0001
0010
1000
0001
0000
0100
0000
,
1001
0000
1000
0001
1000
0000
1001
0000
,
0001
0100
1000
0100
0001
0100
1000
0100
,
0001
0100
1000
0010
0001
0000
0001
0000
,
0001
0010
1000
0010
0001
0010
1000
0010
,
0001
0010
1000
0100
0001
0000
0001
0000
,
0001
0100
1000
0100
0001
0010
1000
0010
,
0001
0100
1000
0010
0001
0000
0001
0000
,
0001
0010
1000
0010
0001
0100
1000
0100
,
0001
0010
1000
0100
0001
0000
1000
0000
,
0001
0010
1000
0100
1000
0010
0001
0100
,
0001
0010
0100
1000
0001
0000
0001
0000
,
1000
0100
0001
0010
0001
0100
1000
0010
,
1000
0100
0010
0001
1000
0000
1000
0001
,
0100
0000
0010
1000
0001
0000
0100
0010
,
1000
0000
0010
0100
0001
0000
0100
0010
,
2000
3001
0002
1003
,
2000
3010
0020
0130
,
0200
0000
0000
0300
0010
0100
0000
0020
0000
0000
0030
0000
0100
0010
0000
2000
,
0000
0000
3000
0000
0100
0010
0000
0002
0000
0000
0003
0000
0020
0000
0000
0030
,
0200
0000
0000
0300
0010
0100
0000
0020
0000
0000
0030
0000
0100
1000
0000
0002
,
0000
0000
0003
0000
0100
0010
0000
2000
0000
0000
3000
0000
0020
0000
0030
0000
,
1000
0000
0000
0000
0001
0010
0000
0100
1000
0000
0000
0000
0001
0100
0000
0010
,
1000
0000
0000
0000
0001
0010
0000
0100
1000
0000
0000
0000
1001
0000
0000
0000
,
1000
0000
0000
0000
1000
0010
0000
0100
0001
0000
0000
0000
1000
0000
0000
0000
,
0001
1000
0001
1000
0001
0000
1001
0000
,
0001
0010
1000
0100
0001
0010
1000
0100
,
0001
0100
0001
0010
0001
0000
1000
0000
,
1000
0100
0001
0010
1000
0100
0001
0010
,
1000
0010
1000
0100
1000
0000
0001
0000
,
1000
0100
0001
0100
1000
0010
0001
0010
,
1000
0100
0010
0001
1000
0000
1000
0000
,
0001
0100
1000
0100
0001
0010
1000
0010
,
0001
0010
0100
1000
0001
0000
1000
0000
,
1000
0100
0001
0010
1000
0100
0001
0010
,
0001
0100
1000
0010
1000
0000
1000
0000
,
0001
0010
1000
0100
0001
0010
1000
0100
,
1000
0010
0001
0100
0001
0000
0001
0000
,
1001
0010
0101
1000
,
0110
0000
0001
0000
1010
0000
1000
0100
,
2000
0000
3010
0100
0002
0000
0103
0010
,
2000
0000
3010
0100
0002
0000
1003
0000
,
2002
0000
0000
0000
,
3003
0000
0000
0000
;

//---------------dance-single - ----------------
#NOTEDATA:;
#CHARTNAME:;
#STEPSTYPE:dance-single;
#DESCRIPTION:;
#CHARTSTYLE:;
#DIFFICULTY:Medium;
#METER:6;
#RADARVALUES:0.455535,0.384647,0.074931,0.549496,0.024977,308.000000,9.000000,66.000000,0.000000,0.000000,0.000000,0.000000,0.000000,0.455535,0.384647,0.074931,0.549496,0.024977,308.000000,9.000000,66.000000,0.000000,0.000000,0.000000,0.000000,0.000000;
#CREDIT:;
#NOTES:
// measure 0
0000
0000
0000
0000
,  // measure 1
0000
0000
0000
0000
,  // measure 2
0000
0000
0000
0000
,  // measure 3
0000
0000
0000
0000
,  // measure 4
0000
0000
0000
0000
,  // measure 5
0000
0000
0000
0000
,  // measure 6
0000
0000
0000
0000
,  // measure 7
0000
0000
0000
0000
,  // measure 8
0010
0000
0001
0000
0100
0000
0001
0000
0010
0000
0000
0010
0000
0000
0010
0000
,  // measure 9
0100
0000
1000
0000
0010
0000
1000
0000
0100
0000
0000
0100
0000
0000
0100
0000
,  // measure 10
1000
0001
0100
0000
0010
1000
0001
0000
,  // measure 11
0100
0000
0001
0000
0010
0000
0100
0000
1000
0000
0000
0001
0000
0000
1000
0000
,  // measure 12
0100
0000
1000
0000
0001
0000
1000
0000
0100
0000
0000
0100
0000
0000
0100
0000
,  // measure 13
1000
0000
0010
0000
0100
0000
0010
0000
1000
0000
0000
1000
0000
0000
1000
0000
,  // measure 14
0001
1000
0010
0000
1000
0001
0100
0000
,  // measure 15
0010
0000
0100
0000
1000
0000
0001
0000
0010
0000
0000
0100
0000
0000
0010
0000
,  // measure 16
0002
0000
1003
0010
0200
0000
0301
0010
,  // measure 17
0200
1300
1100
1000
,  // measure 18
0002
0000
0103
0010
0002
0000
0013
1000
,  // measure 19
0002
0013
0011
0001
,  // measure 20
2000
0000
3010
0100
0002
0000
0103
0010
,  // measure 21
0002
0013
0011
0001
,  // measure 22
2000
0000
3010
0100
0002
0000
0013
0100
,  // measure 23
2000
3010
1001
0100
,  // measure 24
1001
0000
0000
0101
0000
0000
1001
0000
,  // measure 25
0001
0100
1000
0000
1000
0100
0001
0000
,  // measure 26
0001
0010
1000
0010
0002
0000
0003
0000
,  // measure 27
0001
0010
1000
0000
1000
0010
0001
0000
,  // measure 28
0001
0100
1000
0100
0002
0000
0003
0000
,  // measure 29
0001
0100
1000
0000
0001
0010
1000
0000
,  // measure 30
0001
0100
1000
0100
0002
0000
0003
0000
,  // measure 31
0001
0010
1000
0000
0001
0100
1000
0000
,  // measure 32
0001
0010
1000
0010
0002
0000
0003
0000
,  // measure 33
0001
0010
1000
0000
1000
0010
0001
0000
,  // measure 34
0001
0010
0100
1000
0002
0000
0003
0000
,  // measure 35
1000
0100
0001
0000
0001
0100
1000
0000
,  // measure 36
1000
0100
0010
0001
2000
0000
3001
0010
,  // measure 37
0200
0310
0002
0103
,  // measure 38
2000
3010
0002
0103
,  // measure 39
2000
3200
0302
0023
,  // measure 40
2030
3200
0302
0023
,  // measure 41
2030
3010
0020
0130
,  // measure 42
0200
0302
2003
3200
,  // measure 43
0320
0130
0200
0310
,  // measure 44
0002
0023
0230
2300
,  // measure 45
3002
1000
1000
1003
,  // measure 46
2000
0001
0001
3001
,  // measure 47
0002
1000
1000
1003
,  // measure 48
0001
1000
0001
1000
0001
0000
1001
0000
,  // measure 49
0001
0010
1000
0000
0001
0100
1000
0000
,  // measure 50
0001
0010
1000
0100
0002
0000
2003
0000
,  // measure 51
3010
0100
0001
0000
1000
0010
0100
0000
,  // measure 52
0001
0100
0010
1000
0002
0000
2003
0000
,  // measure 53
3001
0100
1000
0000
0001
0010
1000
0000
,  // measure 54
1000
0100
0001
0010
2000
0000
3002
0000
,  // measure 55
1003
0010
0100
0000
0001
0100
0010
0000
,  // measure 56
1000
0010
0100
0001
2000
0000
3002
0000
,  // measure 57
1003
0010
0001
0000
1000
0100
0001
0000
,  // measure 58
0001
0010
1000
0100
0002
0000
2003
0000
,  // measure 59
3100
0010
1000
0000
0010
0100
0001
0000
,  // measure 60
1000
0001
0010
0100
2000
0000
3002
0000
,  // measure 61
1003
0020
0130
0002
,  // measure 62
0013
0000
0002
0000
1003
0000
1000
0100
,  // measure 63
2000
0000
3010
0100
0002
0000
0103
0010
,  // measure 64
0200
0000
0310
0100
0020
0000
1030
0000
,  // measure 65
2002
0000
0000
0000
,  // measure 66
3003
0000
0000
0000
;

//---------------dance-single - ----------------
#NOTEDATA:;
#CHARTNAME:;
#STEPSTYPE:dance-single;
#DESCRIPTION:;
#CHARTSTYLE:;
#DIFFICULTY:Easy;
#METER:3;
#RADARVALUES:0.265233,0.274748,0.208143,0.274748,0.000000,165.000000,25.000000,33.000000,0.000000,0.000000,0.000000,0.000000,0.000000,0.265233,0.274748,0.208143,0.274748,0.000000,165.000000,25.000000,33.000000,0.000000,0.000000,0.000000,0.000000,0.000000;
#CREDIT:;
#NOTES:
0000
0000
0000
0000
,
0000
0000
0000
0000
,
0000
0000
0000
0000
,
0000
0000
0000
0000
,
0000
0000
0000
0000
,
0000
0000
0000
0000
,
0000
0000
0000
0000
,
0000
0000
0000
0000
,
0010
0100
0010
0000
,
0100
0010
0100
0000
,
1000
0100
0010
0001
,
0100
0010
1000
0000
,
0001
0100
0001
0000
,
0100
0001
0100
0000
,
0001
0100
0010
1000
,
0010
1000
0001
0000
,
0002
0003
0200
0300
,
0101
0101
0101
0000
,
0002
0003
2000
3000
,
1001
1001
1001
0000
,
2000
3000
0020
0030
,
1010
1010
1010
0000
,
0200
0300
0002
0003
,
0101
0101
0101
0000
,
0001
0010
0100
1000
,
0001
0001
1000
0000
,
0001
1000
0002
0003
,
1000
1000
0001
0000
,
1000
0001
2000
3000
,
0010
0010
1000
0000
,
0010
1000
0020
0030
,
1000
1000
0010
0000
,
1000
0010
2000
3000
,
0100
0100
0010
0000
,
0100
0010
0200
0300
,
0100
0100
0010
0000
,
0100
0010
0200
0300
,
0110
0000
1001
0000
,
0101
0000
1010
0000
,
2000
3000
0002
0003
,
2000
3000
0002
0003
,
2000
0000
0001
3000
,
0002
0000
1000
0003
,
0020
0000
0100
0030
,
0200
0000
0010
0300
,
0002
1000
0000
1003
,
2000
0001
0000
3001
,
0002
1000
0000
1003
,
0001
1000
1001
0000
,
0001
1000
0001
1000
,
0001
0001
0012
0003
,
0001
0100
1000
0100
,
0001
0100
2000
3000
,
0001
1000
0001
1000
,
0001
1000
2001
3000
,
0001
0010
1000
0010
,
0001
0010
2000
3000
,
0001
0100
0001
0100
,
0001
0100
0201
0300
,
0001
0100
1000
0100
,
0001
0100
2000
3000
,
0001
0000
0010
0000
,
1000
0000
0100
0000
,
1100
0000
0101
0000
,
1010
0000
0101
0000
,
2002
0000
0000
0000
,
3003
0000
0000
0000
;

//---------------dance-single - ----------------
#NOTEDATA:;
#CHARTNAME:;
#STEPSTYPE:dance-single;
#DESCRIPTION:;
#CHARTSTYLE:;
#DIFFICULTY:Beginner;
#METER:2;
#RADARVALUES:0.178408,0.192324,0.066606,0.091583,0.000000,131.000000,8.000000,11.000000,0.000000,0.000000,0.000000,0.000000,0.000000,0.178408,0.192324,0.066606,0.091583,0.000000,131.000000,8.000000,11.000000,0.000000,0.000000,0.000000,0.000000,0.000000;
#CREDIT:;
#NOTES:
0000
0000
0000
0000
,
0000
0000
0000
0000
,
0000
0000
0000
0000
,
0000
0000
0000
0000
,
0000
0000
0000
0000
,
0000
0000
0000
0000
,
0000
0000
0000
0000
,
0000
0000
0000
0000
,
0010
0000
0010
0000
,
0100
0000
0100
0000
,
0001
0000
0010
0000
,
0100
0000
1000
0000
,
0001
0000
0001
0000
,
0100
0000
0100
0000
,
0001
0000
0100
0000
,
0010
0000
1000
0000
,
0001
0000
0100
0000
,
0001
0001
0001
0000
,
0001
0000
1000
0000
,
0001
0001
0001
0000
,
1000
0000
0010
0000
,
1000
1000
1000
0000
,
0100
0000
0001
0000
,
0100
0100
0100
0000
,
1001
0000
1001
0000
,
0001
0001
1000
0000
,
0001
1000
0001
0000
,
1000
1000
0001
0000
,
1000
0001
1000
0000
,
0010
0010
1000
0000
,
0010
1000
0010
0000
,
1000
1000
0010
0000
,
1000
0010
1000
0000
,
0100
0100
0010
0000
,
0100
0010
0100
0000
,
0100
0100
0010
0000
,
0100
0010
0100
0000
,
0010
0000
1001
0000
,
0100
0000
1010
0000
,
1000
0000
0001
0000
,
1000
0000
0001
0000
,
2000
0000
0000
0000
,
3002
0000
0000
0000
,
0203
0000
0000
0000
,
0320
0000
0000
0000
,
2030
0000
0001
3000
,
0002
0000
1000
0003
,
2000
0000
0001
3000
,
0001
0001
0001
0000
,
1000
0000
1000
0000
,
1000
1000
1100
0000
,
1000
0000
0001
0000
,
1000
0000
0001
0000
,
1000
0000
1000
0000
,
1000
0001
1001
0000
,
1000
0000
0001
0000
,
1000
0000
0001
0000
,
1000
0000
1000
0000
,
1000
0010
1020
0030
,
1000
0000
0001
0000
,
1000
0000
0002
0003
,
1000
0000
0001
0000
,
0100
0000
0010
0000
,
1000
0000
0010
0000
,
0100
0000
0001
0000
,
2002
0000
0000
0000
,
3003
0000
0000
0000
;
