#TITLE:Built to Scale 2;
#SUBTITLE:;
#ARTIST:Tsunku;
#TITLETRANSLIT:;
#SUBTITLETRANSLIT:;
#ARTISTTRANSLIT:;
#GENRE:;
#CREDIT:;
#BANNER:Built to Scale 2-bn.png;
#BACKGROUND:Built to Scale 2-bg.png;
#LYRICSPATH:;
#CDTITLE:;
#MUSIC:Built to Scale 2.ogg;
#OFFSET:-0.300755;
#SAMPLESTART:41.816891;
#SAMPLELENGTH:12.000000;
#SELECTABLE:YES;
#DISPLAYBPM:98.000000:132.000000;
#BPMS:0.000000=97.942001
,72.000000=99.165001
,73.000000=101.939003
,74.000000=107.232002
,75.000000=112.780998
,76.000000=117.385002
,77.000000=119.924004
,78.000000=123.071991
,79.000000=127.557991
,80.000000=131.923996
;
#STOPS:143.000000=0.455000,
146.000000=0.227000
;
#BGCHANGES:;
#KEYSOUNDS:;
#ATTACKS:;

//---------------dance-single - ----------------
#NOTES:
     dance-single:
     :
     Hard:
     9:
     0.569454,0.533444,0.244676,0.081559,0.718735,359.000000,24.000000,8.000000,0.000000,0.000000,0.000000,0.569454,0.533444,0.244676,0.081559,0.718735,359.000000,24.000000,8.000000,0.000000,0.000000,0.000000:
// measure 0
0000
0000
0000
0000
,  // measure 1
0000
0000
0000
0000
,  // measure 2
1000
0000
0000
1000
0010
0000
0000
1000
0000
0001
1000
0000
0001
0000
0000
0000
,  // measure 3
0001
0000
0000
0001
0100
0000
0000
0010
0000
1000
0001
0000
0001
1000
0000
1000
,  // measure 4
0100
0000
0000
0100
0010
0000
0000
0010
0000
0001
1000
0000
0001
0000
0000
0100
,  // measure 5
0010
0000
0000
0010
1000
0000
0000
0001
0000
1000
0001
0000
0100
0010
0000
0010
,  // measure 6
1000
0000
0000
1000
0001
0000
0000
1000
0000
0001
0100
0000
0001
0000
0000
1000
,  // measure 7
0100
0000
0000
0100
0010
0000
0000
0001
0000
1000
0001
0000
0100
0010
0000
0010
,  // measure 8
1000
0000
0000
0100
0010
0000
0000
0001
0000
1000
0001
0000
0100
0000
0000
0010
,  // measure 9
0000
0000
1000
0001
1000
0000
0000
0001
0000
0100
0010
0000
0010
0100
0000
0100
,  // measure 10
0010
0000
0000
1000
0001
0000
0000
0010
0000
0001
1000
0000
0001
0000
0000
0001
,  // measure 11
0010
0000
0000
0001
1000
0000
0000
0010
0000
1000
0001
0000
0100
0010
0000
0010
,  // measure 12
1000
0000
0000
0100
0010
0000
0000
1000
0000
0010
0100
0000
1000
0000
0000
1000
,  // measure 13
0001
0000
0000
0100
0010
0000
0000
0001
0000
0010
0100
0000
0001
1000
0000
1000
,  // measure 14
0100
0000
0000
1000
0001
0000
0000
0100
0000
0001
1000
0000
0001
0000
0000
0001
,  // measure 15
0100
0000
0000
0001
1000
0000
0000
0100
0000
1000
0001
0000
0100
0010
0000
0010
,  // measure 16
1000
0000
0000
1000
0001
0000
0000
0010
0000
0001
0100
0000
0010
0000
0000
1000
,  // measure 17
0000
0000
0100
1000
0001
0000
0000
1000
0000
0001
0100
0000
0010
0100
0000
0100
,  // measure 18
0000
0000
0000
0000
,  // measure 19
0000
0000
0000
0000
0000
0000
0000
0000
0000
0100
0001
0010
0100
0000
0000
0000
,  // measure 20
1100
1000
1001
0000
0000
0100
0101
0000
,  // measure 21
0011
0001
1001
0000
0000
0100
1100
0000
,  // measure 22
1010
0010
0110
0000
0000
0001
0101
0000
,  // measure 23
0011
0000
0010
0000
0110
0000
0000
0000
0000
0000
1000
0000
0100
1000
0100
1000
,  // measure 24
0001
0000
0100
0010
0100
0000
0100
0001
0000
1000
0001
0000
0010
0000
0000
0100
,  // measure 25
1000
0000
0010
0100
0010
0000
0010
1000
0000
0001
1000
0000
0100
1000
0000
1000
,  // measure 26
0010
0000
1000
0001
1000
0000
1000
0010
0000
0100
0010
0000
1000
0000
0000
1000
,  // measure 27
0100
0000
1000
0001
1000
0000
1000
0100
0000
0010
0100
0000
1000
0001
1000
0001
,  // measure 28
0100
0000
0010
1000
0010
0000
0010
0100
0000
0001
1000
0000
0001
1000
0000
0100
,  // measure 29
1000
0000
0001
0100
0001
0000
0001
0100
0000
0010
1000
0000
0001
0010
0001
0010
,  // measure 30
0100
0000
1000
0001
1000
0000
1000
0010
0000
0100
0010
0000
1000
0001
0000
0100
,  // measure 31
0010
0000
1000
0001
1000
0000
1000
0100
0000
1000
0001
0000
0100
0010
0100
0010
,  // measure 32
1000
0000
0001
1000
0001
0000
0001
0010
0000
0100
0010
0000
0001
1000
0000
0001
,  // measure 33
0100
0000
0010
1000
0010
0000
0010
0100
0000
0001
0010
0000
0001
1000
0001
1000
,  // measure 34
0100
0000
1000
0001
0100
0000
0100
0010
0000
1000
0001
0000
0100
0000
0000
0010
,  // measure 35
1000
0000
0001
1000
0001
0000
0001
0100
0000
0010
0100
0000
0001
0000
0000
0000
,  // measure 36
0001
0100
0010
1000
1001
0000
0000
0000
0100
0000
0010
0000
0000
0000
1001
0000
,  // measure 37
0000
0100
0001
0000
0002
0000
0000
0000
0013
0000
0100
0000
0000
0000
1100
0000
,  // measure 38
0000
1000
0001
0000
0002
0000
0000
0000
0103
0000
0010
0000
0000
0000
0110
0000
,  // measure 39
0000
0010
1000
0000
2000
0000
0000
0000
3001
0000
1000
0000
0000
0000
1100
0000
,  // measure 40
0000
0100
0010
0000
0010
0000
0001
0000
1000
0000
2010
0000
0000
0000
3001
0000
,  // measure 41
0000
0010
0001
0000
0002
0000
0100
0000
0103
0000
0210
0000
0000
0000
0301
0000
,  // measure 42
0000
1000
0100
0000
0200
0000
1000
0000
1300
0000
1020
0000
0000
0000
0130
0000
,  // measure 43
0000
0001
0100
0000
0100
0000
0010
0000
0110
0000
0000
0000
1000
0000
0010
0000
,  // measure 44
0101
0000
0001
0010
1100
0000
1000
0100
,  // measure 45
0011
0000
0000
0000
0000
0000
1000
0001
1000
0001
0000
0000
1001
0000
0000
0000
0000
0000
0000
0000
0000
0000
0000
0000
;

//---------------dance-single - ----------------
#NOTES:
     dance-single:
     :
     Challenge:
     8:
     0.403424,0.440671,0.448572,0.163117,0.412890,217.000000,44.000000,16.000000,132.000000,0.000000,0.000000,0.403424,0.440671,0.448572,0.163117,0.412890,217.000000,44.000000,16.000000,132.000000,0.000000,0.000000:
// measure 0
0000
0000
0000
0000
,  // measure 1
0000
0000
0000
0000
,  // measure 2
1000
0000
0000
0100
0000
0000
0010
0000
0000
0001
0000
0000
1001
0000
0000
0000
,  // measure 3
MMMM
0000
0000
0000
1000
0100
0010
0001
1001
0000
0000
0000
MMMM
0000
0000
0000
,  // measure 4
0200
2300
3020
0130
,  // measure 5
1001
1000
0100
0010
1001
0000
MMMM
0000
,  // measure 6
0100
0000
0000
1000
0000
0000
0010
0000
0000
0100
0000
0000
0101
0000
0000
0000
,  // measure 7
MMMM
0000
0000
0000
1000
0010
0100
0001
0101
0000
0000
0000
MMMM
0000
0000
0000
,  // measure 8
0100
0000
0000
0001
0000
0000
0010
0000
0000
0100
0000
0000
1100
0000
0000
1000
,  // measure 9
0000
0100
0000
0010
0000
0001
0000
1001
0000
0000
0001
0100
0010
1000
1001
0000
,  // measure 10
0001
0000
0000
0010
0000
0000
0100
0000
0000
1000
0000
0000
1001
0000
0000
0000
,  // measure 11
MMMM
0000
0000
0000
0001
0010
0100
1000
1001
0000
0000
0000
MMMM
0000
0000
0000
,  // measure 12
0020
0032
0203
0310
,  // measure 13
1001
0001
0010
0100
1001
0000
MMMM
0000
,  // measure 14
0010
0000
0000
0001
0000
0000
0100
0000
0000
0010
0000
0000
1010
0000
0000
0000
,  // measure 15
MMMM
0000
0000
0000
0001
0100
0010
1000
1010
0000
0000
0000
MMMM
0000
0000
0000
,  // measure 16
0010
0000
0000
1000
0000
0000
0100
0000
0000
0010
0000
0000
0011
0000
0000
0001
,  // measure 17
0000
0010
0000
0100
0000
1000
0000
1001
0000
0000
0000
0000
MMMM
0000
0000
0000
,  // measure 18
MMMM
MMMM
MMMM
MMMM
,  // measure 19
MMMM
MMMM
MMMM
MMMM
,  // measure 20
MMMM
0000
1000
0000
0000
0100
0000
0000
0010
0000
0000
0001
0000
0000
0011
0000
,  // measure 21
MMMM
0000
0001
0000
0000
0100
0000
0000
0010
0000
0000
1000
0000
0000
1010
0000
,  // measure 22
MMMM
0000
1000
0000
0000
0100
0000
0000
0010
0000
0000
0001
0000
0000
1001
0000
,  // measure 23
0001
0000
0000
0100
0000
0000
0010
0000
0000
1000
0000
0000
1001
0000
0000
0000
,  // measure 24
MMMM
0000
1000
0000
0000
0100
0000
0000
0001
0000
0000
0100
0000
0000
1100
0000
,  // measure 25
MMMM
0000
0001
0000
0000
0100
0000
0000
1000
0000
0000
0100
0000
0000
0101
0000
,  // measure 26
MMMM
0000
1000
0000
0000
0010
0000
0000
0001
0000
0000
0010
0000
0000
1010
0000
,  // measure 27
1000
0100
0010
0001
1001
0000
MMMM
0000
,  // measure 28
1000
0000
0000
0010
0000
0000
0100
0000
0000
0001
0000
0000
0011
0000
0000
0000
,  // measure 29
MMMM
0000
0000
0000
1000
0100
0010
0001
0011
0000
0000
0000
MMMM
0000
0000
0000
,  // measure 30
0200
2300
3002
0103
,  // measure 31
0110
1000
0100
0010
0011
0000
MMMM
0000
,  // measure 32
0001
0000
0000
0100
0000
0000
0010
0000
0000
1000
0000
0000
1001
0000
0000
0000
,  // measure 33
MMMM
0000
0000
0000
0001
0010
0100
1000
1001
0000
0000
0000
MMMM
0000
0000
0000
,  // measure 34
1000
0000
0000
0100
0000
0000
0010
0000
0000
0001
0000
0000
1001
0000
0000
1000
,  // measure 35
0000
0010
0000
0100
0000
0001
0000
1001
0000
0000
0000
0000
MMMM
0000
0000
0000
,  // measure 36
0001
0100
0010
1000
1001
0000
0000
0000
MMMM
0000
0010
0000
0000
1000
0000
0000
,  // measure 37
0001
0000
0000
0100
0000
0000
0110
0000
1000
0000
0100
0000
0010
0000
0001
0000
,  // measure 38
1001
0000
0000
0000
0000
0001
0000
0100
0000
0010
0000
1000
0000
1001
0000
0002
0000
0000
0000
0000
0000
0203
0000
0000
,  // measure 39
0000
0000
0000
0320
0000
0000
0000
0000
0000
1030
0000
0000
0000
0000
0000
1100
0000
0000
0000
0100
0000
0000
0000
0010
,  // measure 40
0000
0000
0000
0000
0000
0000
0001
0000
0000
0000
0000
0000
0000
0000
1000
0000
0000
0000
0000
0000
0000
0000
1001
0000
0000
0000
0000
0000
0000
0000
0010
0000
0000
0000
0000
0000
0000
0000
0000
0001
0000
0000
0000
0000
0000
0000
0000
0000
,  // measure 41
1000
0000
0000
0010
0000
0000
0110
0000
0001
0000
0010
0000
0100
0000
1000
0000
,  // measure 42
1001
0000
0000
0000
0000
0000
0000
0000
0000
0000
1000
0000
0000
0000
0010
0000
0000
0000
0100
0000
0000
0000
0001
0000
0000
0000
1001
0000
0000
0000
1000
0000
0000
0000
0000
0000
0000
0000
0000
0010
0000
0000
0000
0000
0000
0000
0000
0000
,  // measure 43
0100
0000
0000
0001
0000
0000
0011
0000
0200
0000
0000
0000
0000
0000
0000
0000
,  // measure 44
2300
0000
3020
0000
,  // measure 45
0230
0000
0000
0300
1001
0000
0000
0000
;

//---------------dance-single - ----------------
#NOTES:
     dance-single:
     :
     Medium:
     7:
     0.359732,0.371092,0.244676,0.040779,0.224286,219.000000,24.000000,4.000000,0.000000,0.000000,0.000000,0.359732,0.371092,0.244676,0.040779,0.224286,219.000000,24.000000,4.000000,0.000000,0.000000,0.000000:
// measure 0
0000
0000
0000
0000
,  // measure 1
0000
0000
0000
0000
,  // measure 2
1000
0000
0001
0000
1000
0001
1001
0000
,  // measure 3
0000
0000
0001
1000
1001
0000
0000
0000
,  // measure 4
0001
0010
0100
0000
0100
1000
0010
0000
,  // measure 5
0110
0100
0010
0100
0110
0000
0000
0000
,  // measure 6
1000
0000
0001
0000
1000
0001
1001
0000
,  // measure 7
0000
0000
0001
1000
1001
0000
0000
0000
,  // measure 8
0001
0000
0000
0000
1000
0000
0000
0000
0001
0000
1000
0000
1001
0000
0000
0100
,  // measure 9
0000
0010
0000
0100
0000
0010
0000
0110
0000
0000
0001
0000
1000
0000
1001
0000
,  // measure 10
0001
0000
1000
0000
0001
1000
1001
0000
,  // measure 11
0000
0000
1000
0001
1001
0000
0000
0000
,  // measure 12
1000
0010
0100
0000
0100
0001
0010
0000
,  // measure 13
0110
0010
0100
0010
0110
0000
0000
0000
,  // measure 14
0001
0000
1000
0000
0001
1000
1001
0000
,  // measure 15
0000
0000
1000
0001
1001
0000
0000
0000
,  // measure 16
1000
0000
0000
0000
0001
0000
0000
0000
1000
0000
0001
0000
1001
0000
0000
0010
,  // measure 17
0000
0100
0000
0010
0000
0100
0000
1000
0000
0000
0000
0000
0000
0000
0000
0000
,  // measure 18
0000
0000
0000
0000
,  // measure 19
0000
0000
0000
0000
,  // measure 20
0001
0010
0001
0000
1000
0001
0100
0000
,  // measure 21
0010
1000
0010
0000
0100
0001
0010
0000
,  // measure 22
0100
1000
0010
0000
0100
0001
1000
0000
,  // measure 23
0010
0000
0000
1000
0000
0000
0100
0000
0000
0010
0000
0000
1001
0000
0000
0000
,  // measure 24
0001
0000
0100
0000
0010
0000
0000
0000
1000
0000
0000
1000
0000
0000
1000
0000
,  // measure 25
0100
0000
1000
0000
0010
0000
0000
0000
0100
0000
0000
0001
0000
0000
0010
0000
,  // measure 26
0100
0000
1000
0000
0001
0000
0000
0000
0010
0000
0000
0010
0000
0000
0010
0000
,  // measure 27
0100
1000
0010
0100
0001
0000
1001
0000
,  // measure 28
1000
0000
0000
0100
0000
0000
0010
0000
0000
0001
0000
0000
1001
0000
0000
0000
,  // measure 29
0100
0000
0001
1000
1001
0000
0010
0000
,  // measure 30
1000
0010
0100
0000
0001
0010
0100
0000
,  // measure 31
1000
0010
0100
0001
0101
0000
0001
0000
,  // measure 32
0100
0000
0000
0100
0000
0000
0010
0000
0000
0010
0000
0000
1000
0000
0000
0000
,  // measure 33
0100
0000
1000
0001
1001
0000
0100
0000
,  // measure 34
0010
0000
0000
0010
0000
0000
1000
0000
0000
1000
0000
0000
0001
0000
0000
0100
,  // measure 35
0000
0010
0000
0100
0000
0010
0000
1000
0000
0000
0000
0000
0000
0000
0000
0000
,  // measure 36
0100
0000
1000
0000
1001
0000
0000
0000
0000
0000
0010
0000
0000
1000
0000
0000
,  // measure 37
0001
0000
0000
0100
0000
0000
0010
0000
1000
0000
0100
0000
0010
0000
0001
0000
,  // measure 38
1000
0000
0000
0000
0000
0001
0000
1000
0000
0001
0000
1000
0000
0001
0000
0100
0000
0000
0000
0000
0000
0010
0000
0000
,  // measure 39
0000
0000
0000
1000
0000
0000
0000
0000
0000
0100
0000
0000
0000
0000
0000
0010
0000
0000
0000
0001
0000
0000
0000
1000
,  // measure 40
0000
0000
0000
0000
0000
0000
0010
0000
0000
0000
0000
0000
0000
0000
0100
0000
0000
0000
0000
0000
0000
0000
0001
0000
0000
0000
0000
0000
0000
0000
1000
0000
0000
0000
0000
0000
0000
0000
0000
0100
0000
0000
0000
0000
0000
0000
0000
0000
,  // measure 41
0010
0000
0000
0001
0000
0000
0100
0000
0010
0000
1000
0000
0001
0000
0100
0000
,  // measure 42
0010
0000
0000
0000
0000
0000
0000
0000
0000
0000
1000
0000
0000
0000
0001
0000
0000
0000
1000
0000
0000
0000
0001
0000
0000
0000
1000
0000
0000
0000
0100
0000
0000
0000
0000
0000
0000
0000
0000
0010
0000
0000
0000
0000
0000
0000
0000
0000
,  // measure 43
0001
0000
0000
0100
0000
0000
0010
0000
0200
0000
0000
0000
0000
0000
0000
0000
,  // measure 44
0302
0000
2003
0000
,  // measure 45
3200
0300
0110
0000
;

//---------------dance-single - ----------------
#NOTES:
     dance-single:
     :
     Easy:
     3:
     0.241763,0.231932,0.275260,0.040779,0.000000,135.000000,27.000000,4.000000,0.000000,0.000000,0.000000,0.241763,0.231932,0.275260,0.040779,0.000000,135.000000,27.000000,4.000000,0.000000,0.000000,0.000000:
// measure 0
0000
0000
0000
0000
,  // measure 1
0000
0000
0000
0000
,  // measure 2
1000
0001
1000
1001
,  // measure 3
0000
0001
1001
0000
,  // measure 4
0100
0010
0100
0010
,  // measure 5
0110
0010
1001
0000
,  // measure 6
0100
0010
1000
1001
,  // measure 7
0000
0001
1001
0000
,  // measure 8
0001
0010
0100
1001
,  // measure 9
1000
0001
1000
0001
,  // measure 10
0010
0100
0010
0110
,  // measure 11
0000
0100
0110
0000
,  // measure 12
1000
0001
1000
0001
,  // measure 13
1001
0001
0110
0000
,  // measure 14
1000
0001
0010
0110
,  // measure 15
0000
0100
0110
0000
,  // measure 16
0100
0001
1000
0110
,  // measure 17
0010
0100
0110
0000
,  // measure 18
0000
0000
0000
0000
,  // measure 19
0000
0000
0000
0000
,  // measure 20
0001
0010
0100
0000
,  // measure 21
1000
0010
0100
0000
,  // measure 22
0001
1000
0100
0010
,  // measure 23
0001
0100
0010
0110
,  // measure 24
0000
0001
1000
0100
,  // measure 25
0000
1000
0001
0100
,  // measure 26
0000
0001
0010
0100
,  // measure 27
1000
0001
1001
0000
,  // measure 28
0001
0100
0010
0110
,  // measure 29
0000
1000
1001
0000
,  // measure 30
0001
0100
0010
1000
,  // measure 31
1001
0000
0110
0000
,  // measure 32
0010
1000
0001
1001
,  // measure 33
0000
0100
0110
0000
,  // measure 34
0001
1000
0010
0110
,  // measure 35
1000
0001
1001
0000
,  // measure 36
0001
0000
1001
0000
0000
0200
0000
0010
,  // measure 37
0000
0000
0000
0310
0000
0002
0000
1000
,  // measure 38
0000
0000
0000
1003
0000
0200
0000
0010
,  // measure 39
0000
0000
0000
0310
0000
2000
0000
0001
,  // measure 40
0000
0000
0000
3001
0000
0100
0000
0010
,  // measure 41
0000
1000
0000
0001
0000
0010
0000
0100
,  // measure 42
0000
0010
0000
0001
0000
1000
0000
0010
,  // measure 43
0000
0100
0000
0001
0000
1000
0000
0000
,  // measure 44
0000
0100
0000
0000
0000
0010
0000
0000
,  // measure 45
0000
0001
0000
0000
1001
0000
0000
0000
;
