#TITLE:Pokémon;
#SUBTITLE:(Techno Remix);
#ARTIST:Billy Crawford;
#TITLETRANSLIT:Pokémon;
#SUBTITLETRANSLIT:(Dance Mix);
#ARTISTTRANSLIT:;
#GENRE:;
#CREDIT:;
#BANNER:;
#BACKGROUND:;
#LYRICSPATH:;
#CDTITLE:;
#MUSIC:Pokemon Theme (Techno Remix).mp3;
#OFFSET:-0.040000;
#SAMPLESTART:61.166500;
#SAMPLELENGTH:12.229301;
#SELECTABLE:YES;
#BPMS:0.000000=157.000000
;
#STOPS:
;
#BGCHANGES:;
#KEYSOUNDS:;
#ATTACKS:;

//---------------dance-single - ----------------
#NOTES:
     dance-single:
     :
     Easy:
     4:
     0.286437,0.248453,0.043588,0.043588,0.000000,176.000000,4.000000,4.000000,0.000000,0.000000,0.000000,0.286437,0.248453,0.043588,0.043588,0.000000,176.000000,4.000000,4.000000,0.000000,0.000000,0.000000:
0000
0000
0000
0000
,
0000
0000
0000
0000
,
0000
0000
0000
0000
,
0000
0000
0000
0000
,
1000
0001
1001
1001
,
1001
0000
0000
0000
,
0200
0000
0000
0000
,
0300
0000
0000
0000
,
1000
0001
1000
1000
,
0001
0000
0010
0000
,
0100
0001
0100
0100
,
0001
0000
0100
0000
,
0010
0001
0010
0010
,
0001
0000
0010
0000
,
0100
1000
0100
0100
,
1000
0000
0001
0000
,
0100
0010
0100
0100
,
0001
1000
0100
0000
,
0010
0001
0010
0010
,
0001
0100
1000
0100
,
0010
1000
0010
0010
,
0100
0001
1000
0000
,
0100
0010
0100
0100
,
1000
0010
0100
0001
,
1000
0100
1000
0100
,
0010
0001
0010
0001
,
1000
0010
1000
0100
,
0010
0001
0100
0001
,
0010
0100
0010
0100
,
1000
0001
1000
0001
,
0100
0010
0100
0001
,
1000
0100
0010
0100
,
1000
0010
1000
0010
,
0100
1000
0100
0001
,
1000
0100
1000
0100
,
0010
0001
0010
0100
,
1000
1000
0001
0001
,
0100
0100
0010
0010
,
0220
0000
0000
0330
,
0000
0100
0000
0100
0010
0000
0010
0000
,
1000
0100
1000
1000
,
0001
0000
0010
0000
,
0001
0100
0001
0001
,
0100
0000
0010
0000
,
0100
1000
0100
0100
,
0010
0000
1000
0000
,
0001
0010
0001
0001
,
1000
0000
0010
0000
,
0100
0001
1000
1000
,
0100
0010
0001
0000
,
0010
0001
0100
0100
,
0001
1000
0100
1000
,
0010
0100
1000
1000
,
0100
0010
0001
0000
,
0010
1000
0001
0001
,
0010
0100
1000
0001
,
0200
0000
0000
0000
,
0300
0000
0000
0000
;

//---------------dance-single - ----------------
#NOTES:
     dance-single:
     :
     Medium:
     5:
     0.370500,0.341622,0.076279,0.087176,0.000000,223.000000,7.000000,8.000000,0.000000,0.000000,0.000000,0.370500,0.341622,0.076279,0.087176,0.000000,223.000000,7.000000,8.000000,0.000000,0.000000,0.000000:
0000
0000
0000
0000
,
0000
0000
0000
0000
,
0000
0000
0000
0000
,
0000
0000
0000
0000
,
0010
0100
1001
1001
,
0210
0000
0000
0010
0000
0000
0310
0000
,
0020
0000
0000
0000
,
0200
0000
0000
0330
,
0110
0000
0001
0100
0001
0000
0100
0000
,
0010
1000
0100
1000
,
0010
0000
0100
1000
0100
0000
0010
0000
,
0001
0010
1000
0100
,
0010
0000
0001
0010
0001
0000
0010
0000
,
0100
1000
0010
1000
,
0100
0000
1000
0001
1000
0000
0100
0000
,
0010
0010
0100
0100
,
0010
0000
0001
0010
0001
0000
0010
0000
,
0100
1000
0010
0100
,
0001
0000
1000
0100
1000
0000
0100
0000
,
0010
0001
0010
1000
,
0001
0000
0100
0010
0100
0000
0010
0000
,
0001
1000
0010
0100
,
0001
0000
1000
0100
1000
0000
0001
0000
,
0010
0000
0100
0010
0000
0010
0000
0000
,
0100
0000
1000
0000
0010
0000
0100
0001
,
0000
0101
0000
0000
0100
0000
0010
1000
,
0000
0010
0000
0100
0000
0100
0000
0001
,
0100
0010
0100
0001
,
1000
0000
0100
0000
0010
0000
0001
0010
,
0000
0001
0000
0100
0010
0000
0100
0000
,
0002
1000
0010
0100
,
2003
0100
0001
0010
,
3100
0000
0010
0000
0100
1000
0100
0000
,
0010
0000
0001
0000
0100
0010
0100
0000
,
0001
0000
0010
0000
0100
1000
0100
0000
,
0010
0001
1000
0010
,
0100
0000
0001
0100
0000
0010
0000
1000
,
0000
0100
0000
0001
0000
0010
0000
2000
,
0000
0100
0001
3010
,
0000
0010
0000
0010
0100
0000
0110
0000
,
0010
0000
1000
0100
1000
0000
0010
0000
,
0100
0001
0100
0010
,
1000
0000
0001
0010
0001
0000
0010
0000
,
0100
1000
0100
0010
,
0001
0000
0100
0010
0100
0000
0001
0000
,
0010
0100
0010
0001
,
1000
0000
0010
0100
0010
0000
1000
0000
,
0001
0010
0100
1000
,
0001
0000
0100
0010
0100
0000
1000
0000
,
0100
0001
0010
0100
,
1000
0000
0001
0010
0001
0000
0100
0000
,
0010
0100
0001
0010
,
0100
0000
1000
0100
1000
0000
0001
0000
,
1000
0100
0010
0001
,
1000
0000
0001
0010
0001
0000
1000
0000
,
0010
0000
0100
0001
0000
2001
0000
0000
,
0002
0000
0000
0000
,
3003
0000
0000
0000
;

//---------------dance-single - ----------------
#NOTES:
     dance-single:
     :
     Hard:
     7:
     0.484140,0.465849,0.501264,0.076279,0.010897,258.000000,46.000000,7.000000,0.000000,0.000000,0.000000,0.484140,0.465849,0.501264,0.076279,0.010897,258.000000,46.000000,7.000000,0.000000,0.000000,0.000000:
0000
0000
0000
0000
,
0000
0000
0000
0000
,
0000
0000
0000
0000
,
0000
0000
0000
0000
,
1001
0000
0100
0010
0100
0000
1001
0000
,
0210
0000
0000
0010
0000
0000
0310
0000
,
2000
0000
0000
0000
,
0002
0000
0000
3003
,
0001
0000
1000
0100
1000
0000
1100
0000
,
0011
0000
0001
0010
0100
0010
0001
0000
,
0100
0000
0010
0100
0001
0000
1001
0000
,
1100
0000
0100
1000
0001
1000
0100
0000
,
0010
0000
0001
0010
0001
0000
0011
0000
,
1100
0000
0010
1000
0100
1000
0001
0000
,
0100
0000
0010
0100
0010
0000
1001
0000
,
0010
0100
0010
0000
1000
0001
1000
0001
,
1000
0000
0100
0010
0100
0000
1100
0000
,
0011
0000
0001
1000
0000
1000
0010
0000
,
0100
0000
0001
0100
0010
0000
0110
0000
,
1001
0000
0100
0010
0000
0001
0000
0010
,
0100
0000
1000
0001
0100
0000
0110
0000
,
1010
0000
1000
0100
0000
0100
1000
0000
,
0001
0000
0100
0010
0100
0000
0001
0100
,
0001
0000
0001
2000
0000
0001
0000
0000
,
3001
0000
0100
0000
0010
0000
1000
0010
,
0000
0100
0000
0001
0000
1000
0100
1000
,
0000
0010
0000
0100
0000
0001
0000
1000
,
0100
0000
0000
1000
0000
0000
0100
0000
0000
0000
1000
0000
0001
0000
0000
0000
,
0010
0000
0100
1000
0100
0000
0010
0001
,
0000
1000
0000
1000
0001
0000
0001
0100
,
0000
0100
0010
0000
1000
0010
1000
0000
,
0001
0000
0010
0000
0001
0100
1000
0100
,
0001
0000
0010
0000
0100
0000
1000
0100
,
0000
0110
0000
0010
0000
0001
0010
0001
,
1000
0000
1000
0010
0000
0010
0100
0001
,
0100
0000
0000
0010
0000
0000
0100
0000
0000
0000
0100
0000
0001
0000
0000
0000
,
1000
0000
0100
0010
0000
0001
0000
0011
,
0000
1100
0000
1001
0000
0110
0000
2001
,
0000
0100
0001
3010
,
0100
0110
0000
1001
0110
0000
1001
0000
,
1100
0000
1000
0001
0100
0000
0110
0000
,
1010
0000
1000
0100
1000
0001
0100
0000
,
0010
0000
0100
0001
0010
0000
0011
0000
,
1100
0000
1000
0010
1000
0001
0010
0000
,
0100
0000
0010
0001
1000
0000
1001
0000
,
0110
0000
0010
0100
0001
1000
0100
0000
,
0010
0000
0100
1000
0010
0000
1010
0000
,
0101
0000
0001
0000
0100
0010
0100
0001
,
1000
0000
0100
0010
0100
0000
1100
0000
,
1001
0000
0001
0100
0000
0100
0010
0000
,
1000
0000
0001
1000
0100
0000
0011
0000
,
0110
0000
0100
1000
0000
0001
0000
0100
,
0010
0000
0100
0001
1000
0000
1100
0000
,
0011
0001
0000
1001
0000
0010
0100
0000
,
0001
0000
1000
0100
0110
0000
1001
0000
,
0110
0000
0100
0001
0000
1002
0000
0000
,
2000
0000
0000
0000
,
3003
0000
0000
0000
;

//---------------dance-single - ----------------
#NOTES:
     dance-single:
     :
     Beginner:
     1:
     0.119867,0.244094,0.065382,0.000000,0.000000,71.000000,6.000000,0.000000,0.000000,0.000000,0.000000,0.119867,0.244094,0.065382,0.000000,0.000000,71.000000,6.000000,0.000000,0.000000,0.000000,0.000000:
// measure 0
0000
0000
0000
0000
,  // measure 1
0000
0000
0000
0000
,  // measure 2
0000
0000
0000
0000
,  // measure 3
0000
0000
0000
0000
,  // measure 4
1000
0000
1000
0000
,  // measure 5
0001
0000
0000
0000
,  // measure 6
0000
0000
0000
0000
,  // measure 7
0000
0000
0000
0000
,  // measure 8
1000
0000
0001
0000
,  // measure 9
1000
0000
0000
0000
,  // measure 10
0010
0000
0100
0000
,  // measure 11
0010
0000
0000
0000
,  // measure 12
1000
0000
0100
0000
,  // measure 13
1000
0000
0000
0000
,  // measure 14
0001
0000
0010
0000
,  // measure 15
0001
0000
0000
0000
,  // measure 16
0100
0000
0010
0000
,  // measure 17
0100
0000
0000
0000
,  // measure 18
0001
0000
1000
0000
,  // measure 19
0001
0000
0000
0000
,  // measure 20
1000
0000
0010
0000
,  // measure 21
1000
0000
0000
0000
,  // measure 22
0001
0000
0100
0000
,  // measure 23
0001
0000
0000
0000
,  // measure 24
1001
0000
0000
0000
,  // measure 25
0100
0000
0000
0000
,  // measure 26
0010
0000
0000
0000
,  // measure 27
0001
0000
0000
0000
,  // measure 28
0100
0000
0000
0000
,  // measure 29
0010
0000
0000
0000
,  // measure 30
1000
0000
0000
0000
,  // measure 31
0001
0000
0000
0000
,  // measure 32
0110
0000
0000
0000
,  // measure 33
0100
0000
0000
0000
,  // measure 34
1000
0000
0000
0000
,  // measure 35
0001
0000
0000
0000
,  // measure 36
0100
0000
0000
0000
,  // measure 37
0010
0000
0000
0000
,  // measure 38
1000
0000
0001
0000
,  // measure 39
1001
1001
1001
0000
,  // measure 40
0001
0000
1000
0000
,  // measure 41
0001
0000
0000
0000
,  // measure 42
0100
0000
0010
0000
,  // measure 43
0100
0000
0000
0000
,  // measure 44
0001
0000
0100
0000
,  // measure 45
0001
0000
0000
0000
,  // measure 46
1000
0000
0010
0000
,  // measure 47
1000
0000
0000
0000
,  // measure 48
0100
0000
0010
0000
,  // measure 49
0100
0000
0000
0000
,  // measure 50
1000
0000
0001
0000
,  // measure 51
1000
0000
0000
0000
,  // measure 52
0001
0000
0010
0000
,  // measure 53
0001
0000
0000
0000
,  // measure 54
1000
0000
0100
0000
,  // measure 55
1000
0000
0000
0000
,  // measure 56
1001
0000
0000
0000
;
