#TITLE:calling for destiny;
#SUBTITLE:;
#ARTIST:NM feat. NAPPO;
#TITLETRANSLIT:;
#SUBTITLETRANSLIT:;
#ARTISTTRANSLIT:;
#GENRE:;
#CREDIT:;
#BANNER:[Nostalgia Is Lost] - calling for destiny.png;
#BACKGROUND:[Nostalgia Is Lost] - calling for destiny-bg.png;
#LYRICSPATH:;
#CDTITLE:cdtitle.png;
#MUSIC:calling for destiny.ogg;
#OFFSET:0.000000;
#SAMPLESTART:45.890148;
#SAMPLELENGTH:14.117649;
#SELECTABLE:YES;
#BPMS:0.000000=102.000000
;
#STOPS:
;
#BGCHANGES:;
#KEYSOUNDS:;
#ATTACKS:;

//---------------dance-single - S-CHALLENGE----------------
#NOTES:
     dance-single:
     xRGTMx-CSP:
     Challenge:
     9:
     0.594967,0.585962,0.702741,0.134347,0.630400,322.000000,68.000000,13.000000,0.000000,0.000000,0.000000,0.594967,0.585962,0.702741,0.134347,0.630400,322.000000,68.000000,13.000000,0.000000,0.000000,0.000000:
0000
0000
0000
0000
,
0000
0000
0000
0000
,
0001
0000
0000
0010
0001
0000
0000
1010
0000
1000
0001
0000
0010
0000
0110
0000
,
1100
0000
0000
1000
0010
1000
0010
0000
0000
0100
0110
0000
0000
0001
1001
0000
,
2000
0000
0000
0000
0000
0000
0000
0010
0000
0010
0010
0000
3001
0000
0000
0000
,
0002
0000
0000
0000
0000
0000
0000
0010
0000
0010
0010
0000
0000
1003
0000
0000
,
2000
0000
0000
0000
0001
0000
0000
0100
0000
0100
3100
1000
0000
0000
0000
0000
,
0002
0000
0000
0000
0000
0000
0000
0100
0000
0100
0103
0001
1000
0000
0000
0000
,
1010
0000
0000
0000
0100
0000
0001
0100
0000
0001
1000
0000
0100
0000
0000
0000
,
0010
0000
0000
0010
0001
0000
0000
1000
0000
0100
1000
0010
0100
0000
0001
0010
,
0011
0000
0000
0000
0100
0000
1000
0001
0000
0100
0001
0000
0010
0000
0000
0000
,
0001
0000
0000
0000
0001
0000
0000
1010
0000
0010
0100
0001
1000
0100
0010
0001
,
1000
0000
0000
0101
0000
1100
0000
0000
0001
0000
1000
0000
0010
0000
0000
0000
,
1000
0000
0001
1100
0000
0101
1000
0010
1000
0000
0001
0000
0010
0000
0000
0000
,
0100
0000
0000
0011
0000
1010
0000
0000
0100
0001
0000
0001
0010
0000
0000
0000
,
0100
1000
0000
0001
0100
1000
0000
1000
0100
0000
0101
0000
0012
0000
0100
0000
,
1003
0000
0000
0101
1000
0101
0000
1000
0010
0000
0010
0000
1000
0000
0000
0000
,
0001
1100
0000
1100
0001
1100
0000
0001
0010
0000
0010
0000
0001
0000
0000
0000
,
1010
0000
1000
1001
0000
0000
0001
1000
0010
0110
0000
0000
0101
0000
0000
0000
,
1001
0000
1001
0000
0000
0000
0000
0100
1001
0000
0220
0000
0000
0000
0330
0000
,
1001
0000
1000
0100
0000
0100
0010
0001
0200
0000
0000
0000
0000
0000
0300
0000
,
1001
0000
0001
0100
0000
0100
0010
1000
0100
0001
0200
0000
0000
0000
0300
0000
,
1001
0000
1000
0010
0000
0100
0001
0100
0010
0000
0010
0000
1000
0000
1100
0000
,
1001
0000
0001
0010
0000
0100
1000
0100
0010
0000
0001
1000
0001
0000
0000
0000
,
1100
0000
0010
0000
0100
1000
0001
0000
0101
0000
1000
0100
0010
0000
0000
0010
,
0001
0000
1010
0000
0010
0100
0000
0100
0001
0000
1100
0000
0101
0000
0000
0000
,
1001
0000
1100
0000
0010
0100
0010
0100
1001
0000
0101
0000
0010
0000
0100
0000
,
0010
0000
1001
0000
1000
0100
0010
0100
1000
0001
0100
0001
0010
0000
0000
0000
,
1001
0000
0000
0010
1000
0000
0000
0011
0000
0001
1000
0000
0010
0000
0000
0000
,
0100
0000
0000
0000
0001
0000
0000
0011
0000
0010
0100
1000
0010
0100
0001
1000
,
0001
0000
0000
0010
0001
0000
0000
1010
0000
1000
0001
0000
0010
0000
0110
0000
,
1100
0000
0000
1000
0010
1000
0010
0000
0000
0100
0110
0000
0000
0001
1001
0000
,
1001
0000
0001
0010
0000
0010
0100
1000
0020
0000
0000
0000
0000
0000
0030
0000
,
1001
0000
1000
0010
0000
0010
0100
0001
0010
1000
0020
0000
0000
0000
0030
0000
,
1001
0000
0001
0100
0000
0010
1000
0010
0100
0000
0100
0000
0001
0000
0011
0000
,
1001
0000
1000
0100
0000
0010
0001
0010
0100
0000
1000
0001
1000
0000
0000
0000
,
0011
0000
0100
0000
0010
0001
1000
0000
1010
0000
0001
0010
0100
0000
0000
0100
,
1000
0000
0101
0000
0100
0010
0000
0010
1000
0000
0011
0000
1010
0000
0000
0000
,
1001
0000
0011
0000
0100
0010
0100
0010
1001
0000
1010
0000
0100
0000
0010
0000
,
0100
0000
1001
0000
0001
0010
0100
0010
0001
1000
0010
1000
0100
0010
0001
0000
,
2002
0000
3003
0000
;

//---------------dance-single - S-EXPERT----------------
#NOTES:
     dance-single:
     xRGTMx-ESP:
     Hard:
     6:
     0.302651,0.313908,0.072341,0.155016,0.211856,183.000000,7.000000,15.000000,0.000000,0.000000,0.000000,0.302651,0.313908,0.072341,0.155016,0.211856,183.000000,7.000000,15.000000,0.000000,0.000000,0.000000:
0000
0000
0000
0000
,
0000
0000
0000
0000
,
0001
0000
0000
0000
0000
0000
0000
0100
0000
0000
0100
0000
0000
0000
0010
0000
,
0010
0000
0000
1000
0000
0001
0000
0010
,
0010
0000
0000
0000
0000
0000
0000
0100
0000
0000
0100
0000
0000
0000
0000
0000
,
0010
0000
0000
0000
0000
0000
0000
0100
0000
0000
0100
0000
0000
0000
0000
0000
,
1000
0000
0000
0000
0000
0000
0000
0001
0000
0000
0001
0000
0000
0000
0000
0000
,
0001
0000
0000
0000
0000
0000
0000
1000
0000
0000
1000
0000
0000
0000
0000
0000
,
0010
0000
0000
0000
1000
0000
0000
0010
0000
0000
0100
0000
0100
0000
0000
0000
,
0001
0000
0000
0000
1000
0000
0000
0001
0000
0000
0010
0000
0100
0000
0000
0000
,
1000
0000
0000
0000
0100
0000
0000
1000
0000
0000
0100
0000
1000
0000
0000
0000
,
0001
0000
0000
0000
0100
0000
0000
0001
0000
0000
0100
0000
0001
0000
0000
0000
,
2000
0000
0000
0020
3000
0030
0000
0000
0020
0000
0000
0000
0031
0000
0000
0000
,
0002
0000
0000
0200
0003
0300
0000
0000
0200
0000
0000
0000
1300
0000
0000
0000
,
2000
0000
0000
0200
3000
0300
0000
0000
0200
0000
0000
0000
0301
0000
0000
0000
,
0002
0010
0000
0000
0003
0010
0000
0020
0000
0000
1000
0000
1030
0000
0000
0000
,
1000
0000
0000
1000
0000
0000
0100
0000
0000
0000
0000
0000
0010
0000
0000
0000
,
0001
0000
0000
0001
0000
0000
0100
0000
0000
0000
0000
0000
0010
0000
0000
0000
,
1010
0000
0000
1000
0000
0000
0000
0000
0000
0011
0000
0000
0001
0000
0000
0000
,
1001
1001
0000
0000
0110
0110
0000
0000
,
1000
0000
0000
0001
0000
0000
0100
0000
0001
0000
0000
1000
0000
0000
0100
0000
,
1000
0000
0000
0010
0000
0000
0100
0000
0001
0000
1000
0000
0000
0000
0000
0000
,
0001
0000
0000
1000
0000
0000
0100
0000
1000
0000
0000
0001
0000
0000
0100
0000
,
0001
0000
0000
0010
0000
0000
0100
0000
1000
0000
0000
0000
0001
0000
0100
0000
,
0001
0000
1000
0100
1000
0000
0001
0010
,
0001
0000
0000
0010
0000
0010
0000
0100
0000
0000
0000
0000
1000
0000
0010
0000
,
1000
0000
0100
0100
0100
0000
0010
0001
,
1000
0000
0010
0010
0020
0000
0130
0000
,
0010
0000
0000
0000
0000
0000
0000
1000
0000
0000
1000
0000
0000
0000
0000
0000
,
0000
0000
0000
0000
0001
0000
0000
0010
0000
0010
0100
0000
1000
0000
0000
0000
,
0001
0000
0000
0000
0000
0000
0000
0010
0000
0000
0010
0000
0000
0000
0100
0000
,
0100
0000
0000
1000
0000
0001
0000
0010
,
0001
0000
0000
1000
0000
0000
0010
0000
1000
0000
0000
0001
0000
0000
0010
0000
,
0001
0000
0000
0100
0000
0000
0010
0000
1000
0000
0001
0000
0000
0000
0000
0000
,
1000
0000
0000
0001
0000
0000
0010
0000
0001
0000
0000
1000
0000
0000
0010
0000
,
1000
0000
0000
0100
0000
0000
0010
0000
0001
0000
0000
0000
1000
0000
0010
0000
,
1000
0000
0001
0010
0001
0000
1000
0100
,
1000
0000
0000
0100
0000
0100
0000
0010
0000
0000
0000
0000
0001
0000
0100
0000
,
0001
0000
0010
0010
0010
0000
0100
1000
,
0001
0000
0100
0100
0200
0000
0310
0000
,
2002
0000
3003
0000
;

//---------------dance-single - S-DIFFICULT----------------
#NOTES:
     dance-single:
     xRGTMx-DSP:
     Medium:
     4:
     0.215547,0.209272,0.093010,0.217023,0.000000,116.000000,9.000000,21.000000,0.000000,0.000000,0.000000,0.215547,0.209272,0.093010,0.217023,0.000000,116.000000,9.000000,21.000000,0.000000,0.000000,0.000000:
0000
0000
0000
0000
,
0000
0000
0000
0000
,
1000
0000
0000
0100
0000
0100
0000
0000
,
0001
0000
0000
0100
0000
0100
0000
0000
,
2000
0000
3010
1000
,
0002
0000
0013
0001
,
1000
0000
0010
0100
,
0010
1000
0002
0013
,
0001
0000
0101
1100
,
1000
0000
1100
0101
,
0001
0000
0011
1010
,
1000
0000
1010
0011
,
0002
0003
0200
0300
,
0020
0030
2000
3000
,
0002
0003
0020
0030
,
0200
0300
2000
3000
,
0001
0100
1000
0000
,
1000
0100
0001
0000
,
0010
0100
0010
0100
,
1000
1000
0000
0000
0001
0001
0000
0000
,
2000
0010
3001
0000
,
0002
0010
1003
0000
,
2000
0100
3001
0000
,
0002
0100
1003
0000
,
1000
0010
1000
0010
,
0100
0001
0100
0000
,
0001
0010
0001
0010
,
0100
1000
0100
0000
,
1000
0000
0010
0000
,
0001
0000
0010
0000
,
1000
0000
0000
0100
0000
0100
0000
0000
,
0001
0000
0000
0100
0000
0100
0000
0000
,
0002
0100
1003
0000
,
2000
0100
3001
0000
,
0002
0010
1003
0000
,
2000
0010
3001
0000
,
0001
0100
0001
0100
,
0010
1000
0010
0000
,
1000
0100
1000
0100
,
0010
0001
0010
0000
,
2002
0000
3003
0000
;

//---------------dance-single - S-BASIC----------------
#NOTES:
     dance-single:
     xRGTMx-BSP:
     Easy:
     2:
     0.146158,0.167418,0.051672,0.041338,0.000000,90.000000,5.000000,4.000000,0.000000,0.000000,0.000000,0.146158,0.167418,0.051672,0.041338,0.000000,90.000000,5.000000,4.000000,0.000000,0.000000,0.000000:
0000
0000
0000
0000
,
0000
0000
0000
0000
,
0001
0000
0000
0000
,
1000
0000
0000
0000
,
0001
0001
0001
0000
,
1000
1000
1000
0000
,
0010
0000
0100
0000
,
0001
1000
0001
0000
,
1000
1000
1000
0000
,
0001
0001
0001
0000
,
0100
0000
0010
0000
,
1000
0001
1000
0001
,
0001
0000
0010
0000
,
1000
0000
0001
0000
,
0100
0000
1000
0000
,
0001
0001
0001
0000
,
1000
0000
0010
0000
,
0001
0000
1000
0000
,
0100
0000
0001
0000
,
2000
3000
0000
0000
0002
0003
0000
0000
,
1001
0000
0100
0000
,
1001
0000
0010
0000
,
1000
1000
0100
0000
,
0001
0001
0100
0000
,
1000
0000
1000
0000
,
0001
0000
0001
0000
,
0010
0010
0010
0010
,
0100
0100
0100
0000
,
1000
0000
0000
0000
,
0001
0000
0000
0000
,
1000
0000
0000
0000
,
0001
0000
0000
0000
,
1001
0000
0010
0000
,
1001
0000
0100
0000
,
0001
0001
0010
0000
,
1000
1000
0010
0000
,
0001
0000
0001
0000
,
1000
0000
1000
0000
,
0100
0100
0100
0100
,
0010
0010
0010
0010
,
2002
0000
3003
0000
;

//---------------dance-single - BEGINNER----------------
#NOTES:
     dance-single:
     xRGTMx-BEG:
     Beginner:
     1:
     0.104821,0.124013,0.010334,0.010334,0.000000,69.000000,1.000000,1.000000,0.000000,0.000000,0.000000,0.104821,0.124013,0.010334,0.010334,0.000000,69.000000,1.000000,1.000000,0.000000,0.000000,0.000000:
// measure 0
0000
0000
0000
0000
,  // measure 1
0000
0000
0000
0000
,  // measure 2
0010
0000
0000
0000
,  // measure 3
0010
0000
0000
0000
,  // measure 4
1000
0000
1000
0000
,  // measure 5
1000
0000
0000
0000
,  // measure 6
0001
0000
0001
0000
,  // measure 7
0001
0000
0000
0000
,  // measure 8
1000
0000
0100
0000
,  // measure 9
0010
0000
0000
0000
,  // measure 10
0100
0000
0010
0000
,  // measure 11
0001
0000
0000
0000
,  // measure 12
1000
0000
0000
0000
,  // measure 13
0010
0000
0000
0000
,  // measure 14
0001
0000
0000
0000
,  // measure 15
0100
0000
0000
0000
,  // measure 16
1000
0000
0001
0000
,  // measure 17
1000
0000
0000
0000
,  // measure 18
0001
0000
1000
0000
,  // measure 19
0020
0000
0030
0000
,  // measure 20
1000
0000
1000
0000
,  // measure 21
0001
0000
0001
0000
,  // measure 22
1000
0000
1000
0000
,  // measure 23
0001
0000
0001
0000
,  // measure 24
0100
0100
0100
0000
,  // measure 25
0010
0010
0010
0000
,  // measure 26
0100
0100
0100
0000
,  // measure 27
0010
0010
0010
0000
,  // measure 28
1000
0000
0000
0000
,  // measure 29
0001
0000
0000
0000
,  // measure 30
0100
0000
0000
0000
,  // measure 31
0100
0000
0000
0000
,  // measure 32
1000
0000
1000
0000
,  // measure 33
0001
0000
0001
0000
,  // measure 34
1000
0000
1000
0000
,  // measure 35
0001
0000
0001
0000
,  // measure 36
0100
0100
0100
0000
,  // measure 37
0010
0010
0010
0000
,  // measure 38
0100
0100
0100
0000
,  // measure 39
0010
0010
0010
0000
,  // measure 40
1001
0000
0000
0000
;
