#TITLE:The Jellyfish Song;
#SUBTITLE:By The Jellyfish Band;
#ARTIST:Plus-Tech Squeeze Box Feat. Spongebob;
#TITLETRANSLIT:;
#SUBTITLETRANSLIT:;
#ARTISTTRANSLIT:;
#GENRE:;
#CREDIT:Mew;
#BANNER:sc14-bn.png;
#BACKGROUND:sc14-bg.png;
#LYRICSPATH:;
#CDTITLE:sc14-cdtitle.png;
#MUSIC:jellyfish.mp3;
#OFFSET:-4.682990;
#SAMPLESTART:6.905000;
#SAMPLELENGTH:8.889000;
#SELECTABLE:YES;
#BPMS:0.000000=216.000000
;
#STOPS:
;
#BGCHANGES:;
#KEYSOUNDS:;
#ATTACKS:;

//---------------dance-single - ----------------
#NOTES:
     dance-single:
     :
     Easy:
     4:
     0.377420,0.344773,0.211355,0.013210,0.000000,183.000000,16.000000,1.000000,0.000000,0.000000,0.000000,0.377420,0.344773,0.211355,0.013210,0.000000,183.000000,16.000000,1.000000,0.000000,0.000000,0.000000:
1000
0000
0010
0000
,
1000
0100
0010
0001
,
1000
0000
0001
0000
,
0010
0100
0010
0100
,
0010
0000
0001
0000
,
0100
1000
0100
0001
,
0010
0000
0100
0000
,
0001
0010
1000
0100
,
0001
0000
1000
0000
,
0100
0010
0001
0100
,
0010
0000
1000
0000
,
0001
0010
1000
0010
,
0001
0000
0100
0000
,
1000
0100
0001
0100
,
1000
0000
0100
0000
,
0001
0010
1000
0001
,
0100
0000
1000
0000
,
0010
0100
0001
0100
,
0010
0100
0001
1000
,
0100
0001
0100
0010
,
0000
1000
0100
1000
,
0001
0100
0001
0010
,
0000
0001
0010
1000
,
0010
0001
0100
1000
,
0100
0100
0100
0100
,
0010
0010
0010
0010
,
0000
0001
1000
0001
,
0010
1000
0100
0010
,
0001
0100
0010
1000
,
0001
0010
0010
0001
,
1000
0010
0100
0001
,
0100
1000
0100
1000
,
0100
0001
0001
0001
,
1000
1000
1000
1000
,
0011
0000
0011
0000
,
1100
0000
1001
0000
,
0110
0000
0101
0000
,
1100
0000
0110
0000
,
0011
0000
1001
0000
,
1010
0000
0110
0000
,
1001
0000
0110
0000
,
2001
0000
3001
0001
,
0001
0000
1000
0000
,
0010
0100
0001
0100
,
0001
0000
0010
0000
,
1000
0010
0001
0100
,
0010
0000
1000
0000
,
0010
1000
0010
1000
,
0001
0000
0010
0000
,
0100
0010
0100
0001
,
0100
0000
1000
0000
,
0010
1000
0001
0100
,
0010
0000
0100
0000
,
0001
1000
0010
0001
,
0010
0000
0100
0000
,
0001
1000
0100
0010
,
0001
0001
0001
0001
,
1000
1000
1000
1000
,
0110
0000
0000
0000
,
0000
0000
0000
0000
,
0000
0000
0000
0000
,
0000
0000
0000
0000
,
0000
0000
0000
0000
,
0000
0000
0000
0000
;

//---------------dance-single - ----------------
#NOTES:
     dance-single:
     :
     Medium:
     7:
     0.477436,0.467623,0.303823,0.039629,0.000000,227.000000,23.000000,3.000000,0.000000,0.000000,0.000000,0.477436,0.467623,0.303823,0.039629,0.000000,227.000000,23.000000,3.000000,0.000000,0.000000,0.000000:
0100
0000
0001
0000
,
0100
1000
0100
0001
,
0100
1000
0100
0010
,
0001
0000
0000
0001
0000
1000
0000
0100
,
0010
1000
0010
0001
,
0100
0000
0000
0010
0000
0010
0000
0010
,
0100
0001
1000
0100
,
0001
0000
0000
0100
0000
1000
0000
0001
,
0010
0100
0010
0001
,
0010
0000
0000
0010
0000
0100
0000
1000
,
0100
0010
1000
0010
,
0001
0000
0000
0100
0000
0010
0000
1000
,
0001
0100
0010
1000
,
0001
0000
0000
1000
0000
1000
0000
0001
,
1000
0100
0010
0001
,
0100
0000
0100
0010
0000
0100
0000
0010
,
0100
0001
0010
0100
,
1000
0000
0001
1000
0100
0010
0001
0010
,
0100
0010
0001
1000
,
0100
0001
0100
0010
,
0001
1000
0100
1000
,
0001
0100
0001
0010
,
1000
0001
0100
1000
,
0010
0001
0100
1000
,
0100
0100
0100
0100
,
0010
0010
0010
0010
,
0100
0001
1000
0001
,
0010
1000
0100
0010
,
0001
0100
0010
1000
,
0001
0010
0010
0001
,
1000
0010
0100
0001
,
0100
1000
0100
1000
,
0100
0001
0001
0001
,
1000
1000
1000
1000
,
0011
0000
0011
1001
,
1100
0000
1001
1100
,
0110
0000
0101
0110
,
1001
0000
0110
1010
,
0011
0000
1001
0101
,
1010
0000
0110
0110
,
1001
0000
0110
1100
,
2001
0000
3001
0001
,
0001
0100
0010
1000
,
0100
0000
0000
0100
0000
0010
0000
0001
,
0100
0010
0001
0010
,
1000
0000
0000
0100
0000
0010
0000
0100
,
0001
0100
1000
0010
,
0001
0000
0000
0010
0000
1000
0000
0100
,
0010
1000
0010
0100
,
0001
0000
0000
0100
0000
1000
0000
0100
,
0001
0010
0100
1000
,
0001
0000
0000
1000
0000
0100
0000
0001
,
0100
0010
0001
1000
,
0100
0000
0000
0010
0000
1000
0000
0010
,
1000
0010
0001
0100
,
1000
0000
0000
0100
0000
0010
0000
0001
,
0010
1000
0100
0001
,
0100
1000
0010
0001
,
0220
0000
0000
0000
,
0330
0000
0000
0000
,
0000
0000
0000
0000
,
0000
0000
0000
0000
,
0000
0000
0000
0000
,
0000
0000
0000
0000
;

//---------------dance-single - ----------------
#NOTES:
     dance-single:
     :
     Hard:
     9:
     0.681243,0.648596,0.475549,0.092468,0.000000,318.000000,36.000000,7.000000,0.000000,0.000000,0.000000,0.681243,0.648596,0.475549,0.092468,0.000000,318.000000,36.000000,7.000000,0.000000,0.000000,0.000000:
1000
0001
0100
0010
0100
0010
1000
0100
,
0010
0001
0010
0100
1000
0001
1000
0010
,
0100
0001
0100
0001
,
1000
0000
0100
0001
0000
0100
1000
0100
,
0010
0001
1000
0010
,
0100
0000
1000
0100
0010
0100
0001
1000
,
0100
0010
0100
0001
,
0100
0000
1000
0100
0000
0010
0001
0100
,
0010
1000
0010
0001
,
0010
0000
1000
0010
0100
0001
0100
0001
,
0100
0010
1000
0100
,
0001
0000
0100
1000
0000
0001
0100
0001
,
0010
1000
0010
0100
,
1000
0000
0001
0010
1000
0001
0100
0010
,
0001
0000
0100
0000
1000
0100
1000
0000
,
0100
0000
0100
0001
0100
0010
1000
0001
,
0100
0000
0010
0000
0001
0010
1000
0000
,
0100
0000
0010
0000
0001
0010
0100
1000
,
0100
0000
0100
0010
0100
0000
1000
0000
,
0001
0100
0000
0010
0000
1000
0000
0100
,
0010
0001
0001
0010
,
0100
1000
0000
0010
0000
0100
0000
0001
,
0010
1000
0010
0001
,
0100
0010
0000
1000
0000
0001
0000
0010
,
0100
0010
0100
1000
0001
0100
1000
0100
,
0001
0010
1000
0010
0100
1000
0001
0100
,
0010
0000
1000
0100
1000
0000
0010
0000
,
0001
0010
0000
1000
0000
0100
0000
0010
,
0100
0001
0100
1000
,
0010
0010
0000
0010
0000
0100
0010
0100
,
0001
0010
0010
0100
,
0001
0100
0000
1000
0000
0010
0000
0100
,
0002
0003
2000
0000
3100
0010
0001
0010
,
0100
1000
0100
0010
0001
0000
0100
0000
,
1100
0110
1001
0101
,
0011
1010
0011
1100
,
1010
1001
0101
0110
,
1100
0011
1001
0110
,
1100
1010
0110
1001
,
0011
1100
0101
1100
,
0110
0101
1010
0011
,
0210
0000
0000
0010
0000
0010
0000
0310
,
1000
0100
0010
0100
0010
0000
0001
0000
,
1000
0100
0010
0000
0100
0010
0001
0000
,
0010
1000
0001
0100
1000
0000
0001
0000
,
0100
0010
1000
0100
0001
0100
1000
0010
,
0100
0000
0001
0000
0010
0100
1000
0001
,
0100
0000
0010
0100
0000
0100
0010
0100
,
1000
0000
0100
0001
0010
0100
1000
0001
,
0100
0000
0100
0001
1000
0000
0100
1000
,
0010
0000
0100
0010
0001
0000
0010
1000
,
0100
0000
0010
0100
0010
0100
0010
0100
,
0010
0000
0001
0000
0010
0100
1000
0000
,
0001
0000
0100
1000
0100
0001
0010
0100
,
1000
0000
0010
0000
1000
0001
0010
0100
,
0010
0000
0001
1000
0000
1000
0001
0000
,
0110
0101
1100
1010
,
0011
0000
0110
0000
1000
0100
0001
0000
,
2002
0000
0000
0000
,
0000
3003
0000
0000
0000
0000
0000
0000
,
0020
0000
0000
0000
0030
0000
0000
0020
,
0000
0000
0000
0030
0000
0000
0000
0000
,
0000
0000
0000
0000
,
0000
0000
0000
0000
;
