#TITLE:Something For The Weekend;
#SUBTITLE:;
#ARTIST:The Divine Comedy;
#TITLETRANSLIT:;
#SUBTITLETRANSLIT:;
#ARTISTTRANSLIT:;
#CREDIT:;
#BANNER:Something For The Weekend.PNG;
#BACKGROUND:Something For The Weekend-bg.PNG;
#LYRICSPATH:Something For The Weekend.lrc;
#CDTITLE:;
#MUSIC:Something For The Weekend.mp3;
#OFFSET:-0.020;
#SAMPLESTART:37.510;
#SAMPLELENGTH:14.990;
#SELECTABLE:YES;
#DISPLAYBPM:128.000;
#BPMS:0.000=128.040;
#STOPS:;
#BGCHANGES:0.000=Something For The Weekend.avi=1.000=1=0=0,
275.000=Something For The Weekend-bg.PNG=1.000=1=0=1,
99999=-nosongbg-=1.000=0=0=0 // don't automatically add -songbackground-
;

//---------------dance-single - ----------------
#NOTES:
     dance-single:
     :
     Beginner:
     1:
     0.118,0.184,0.023,0.000,0.000:
0000
0000
0000
0000
,
0000
0000
0000
0000
,
0000
0000
0000
0000
,
0000
0000
0000
0000
,
0010
0000
0000
0000
,
0100
0000
0001
0000
,
1000
0000
0000
0000
,
0001
0000
0010
0000
,
0100
0000
0000
0000
,
0010
0000
0001
0000
,
1000
0000
0001
0000
,
0100
0000
0010
0000
,
1000
0000
0000
0000
,
0001
0000
0100
0000
,
0001
0000
0000
0000
,
1000
0000
0100
0000
,
1000
0000
0000
0000
,
0001
0000
0010
0000
,
0100
0000
1000
0000
,
0001
0000
0100
0000
,
0001
0000
0000
0000
,
1000
0000
0000
0000
,
0010
0000
0000
0000
,
0100
0000
0000
0000
,
0001
0000
0000
0000
,
1000
0000
0100
0000
,
0010
0000
0001
0000
,
1000
0000
0001
0000
,
1000
0000
0000
0000
,
0001
0000
0010
0000
,
0001
0000
0000
0000
,
1000
0000
0100
0000
,
1000
0000
0000
0000
,
0001
0000
1000
0000
,
0001
0000
0100
0000
,
0010
0000
1000
0000
,
1001
0000
0000
0000
,
0000
0000
0000
0000
,
0001
0000
0000
0000
,
1000
0000
0000
0000
,
0001
0000
0010
0000
,
0001
0000
0000
0000
,
1000
0000
0100
0000
,
1000
0000
0000
0000
,
0001
0000
0100
0000
,
0010
0000
1000
0000
,
0100
0000
0010
0000
,
0001
0000
1000
0000
,
0001
0000
0000
0000
,
1000
0000
0010
0000
,
0100
0000
0000
0000
,
0010
0010
0100
0100
,
0110
0000
0000
0000
,
0001
0000
0100
0000
,
0001
0000
0000
0000
,
1000
0000
0100
0000
,
1000
0000
0000
0000
,
0001
0000
1000
0000
,
0010
0000
0000
0000
,
1000
0000
0001
0000
,
0100
0000
0100
0000
,
0010
0000
0010
0000
,
1000
0000
1000
0000
,
0001
0000
0001
0000
,
1000
0000
0100
0000
,
0010
0000
0001
0000
,
0100
0000
0010
0000
,
1000
0000
0001
0000
,
1001
0000
0000
0000
;

//---------------dance-single - ----------------
#NOTES:
     dance-single:
     :
     Easy:
     3:
     0.217,0.263,0.046,0.209,0.000:
0000
0000
0000
0000
,
0000
0000
0000
0000
,
0000
0000
0000
0000
,
0000
0000
0000
0000
,
1001
0000
0001
0000
,
0100
0001
0100
0010
,
1000
0000
0100
0000
,
0010
0100
0010
0001
,
0100
0000
0010
0000
,
1000
0010
0100
0001
,
0100
0000
0001
0000
,
1000
0100
0010
0001
,
1000
0000
0001
0000
,
1000
0001
0100
1000
,
0100
0000
0001
0000
,
1000
0100
0001
0100
,
1000
0000
0001
0000
,
0010
0001
0100
0010
,
1000
0000
0010
0000
,
0100
0010
1000
0001
,
1002
0000
0103
0001
,
0010
0000
0100
0000
,
0020
0000
0130
0010
,
0001
0000
1000
0000
,
0020
0000
1030
0001
,
0100
0000
0010
0000
,
2000
0000
3100
1000
,
0001
0000
0010
0100
,
0020
0000
0031
1000
,
0001
0000
0100
0000
,
0020
0000
0130
0001
,
1000
0000
0100
0000
,
2000
0000
3001
0010
,
0100
0000
0010
0000
,
0002
0000
1003
0001
,
0100
1000
0100
0010
,
0210
0000
0000
0000
,
0302
0000
0000
0000
,
0023
0000
0000
0000
,
0230
0000
1000
1000
,
1300
0000
0001
0100
,
0001
0000
1000
0000
,
0100
0000
1000
0001
,
0100
0000
0010
1000
,
0002
0000
2003
0000
,
3200
0000
2300
0000
,
3002
0000
0203
0000
,
0302
0000
1003
0001
,
0100
0000
0001
1000
,
0100
0000
0010
0001
,
0100
0000
0001
0100
,
0010
1000
0001
1000
,
2002
0000
0000
0000
,
0000
0000
0000
3000
,
0200
0000
0000
0000
,
0000
0000
0303
0001
,
2002
0000
0000
0000
,
0000
0000
0000
0003
,
0200
0000
0000
0000
,
0000
0000
0000
3300
,
1000
0001
1000
0001
,
0100
0010
0100
0000
,
0010
0100
0001
0100
,
0001
1000
0100
0000
,
0010
0001
1000
0100
,
0010
0001
0100
0010
,
2000
0000
3002
0000
,
0103
0010
1000
0001
,
1001
0000
0000
0000
;

//---------------dance-single - ----------------
#NOTES:
     dance-single:
     :
     Medium:
     5:
     0.363,0.447,0.070,0.247,0.000:
0000
0000
0000
0000
,
0000
0000
0000
0000
,
0000
0000
0000
0000
,
0000
0000
0000
0000
,
1000
0001
0200
0300
,
0001
1000
0000
0100
0000
0010
0100
0000
,
0010
0001
0200
0300
,
0010
1000
0000
0001
0000
1000
0100
0000
,
0010
0000
0001
1000
0002
0000
0003
0000
,
1000
0010
0000
0100
0000
0010
1000
0000
,
0001
0000
0010
0100
0020
0000
0031
0000
,
0100
0000
0010
1000
0001
0000
1000
0000
,
0100
0000
2002
3003
,
0001
0100
0000
0010
0000
0100
0001
0000
,
1000
0000
0220
0330
,
0001
1000
0000
0001
0000
0100
0010
0000
,
1000
0000
0100
0010
0200
0000
0300
0000
,
0010
0001
0000
1000
0000
0001
0100
0000
,
0010
0000
1000
0001
1000
0000
0001
0000
,
0100
0000
0010
1000
0100
0000
0010
0000
,
1001
0000
0001
0000
0100
0001
0000
0100
,
0000
0010
0000
1000
0000
0100
0000
1000
,
0100
0000
1000
0000
0100
0010
0000
0100
,
0000
0010
0000
0001
0000
0100
0000
0010
,
1000
0100
1000
0001
,
0010
0000
1000
0100
0010
0000
0100
0000
,
0010
0000
0001
0100
0010
0000
1000
0001
,
0100
0010
0100
1001
,
0110
0000
0010
0000
1000
0001
0000
1000
,
0000
0100
0000
0010
0000
0001
0000
0100
,
0010
0000
1000
0000
0100
1000
0000
0001
,
0000
0010
0000
0100
0000
0010
0000
0001
,
1000
0000
0001
0000
0100
0010
1000
0000
,
0100
0000
0010
0001
0100
0000
0001
1000
,
0010
0100
0010
1000
,
1002
0010
0100
1003
,
0201
0010
0001
0010
,
0302
0010
1000
0010
,
2003
0100
0010
0001
,
3200
0000
0010
0000
1300
0001
1000
0000
,
0001
0000
0100
0010
0000
1000
0000
0100
,
0020
0000
0001
0000
0100
0000
0031
1000
,
0001
0000
1000
0010
0000
0100
0000
0010
,
1000
0001
0100
0010
,
2000
0000
3200
0000
,
0320
0000
0032
0010
,
0203
0000
0320
0000
,
2030
0000
3001
1000
,
0010
0000
1000
0001
0000
0100
0000
0010
,
0200
1000
0010
0301
,
0100
0000
0001
1000
0000
0001
0010
0100
,
0010
0001
0100
0010
,
1001
0001
0100
0010
,
1000
0100
0000
1000
0000
0001
0100
0000
,
0001
0100
0010
1000
,
0001
0010
0000
0001
0000
1000
0010
0100
,
0020
0000
1000
0000
0100
0000
1030
0010
,
0000
1000
0000
0100
0000
0010
0001
0000
,
0020
0000
0001
0000
0100
0000
0031
0010
,
0000
0001
0100
0000
0010
1000
0010
0000
,
1000
0100
1000
0000
0100
0010
0100
0000
,
0010
0001
0000
0010
0000
0001
0010
0000
,
0001
0100
0001
0000
1000
0010
1000
0000
,
0010
0100
0000
0010
0000
1000
0001
0000
,
1000
0100
0010
0000
0001
0100
0010
0000
,
1000
0001
0010
0000
0001
1000
0010
0000
,
2000
3200
0302
0023
,
2030
3200
0302
0013
,
1100
0000
0000
0000
;

//---------------dance-single - ----------------
#NOTES:
     dance-single:
     :
     Hard:
     7:
     0.449,0.473,0.093,0.131,0.031: // measure 1
0000
0000
0000
0000
,  // measure 2
0000
0000
0000
0000
,  // measure 3
0000
0000
0000
0000
,  // measure 4
0000
0000
0000
0000
,  // measure 5
1001
0010
0200
0000
,  // measure 6
0301
0010
0000
0100
0000
0010
0001
1000
,  // measure 7
0010
0100
0002
0000
,  // measure 8
1003
0001
0000
0010
0000
0100
0010
0001
,  // measure 9
1000
0000
0001
0100
0010
0000
1000
0000
,  // measure 10
0001
1000
0000
0001
0010
0100
1000
1000
,  // measure 11
0001
0000
0100
0010
1000
0000
0001
0000
,  // measure 12
2000
0000
0001
3001
,  // measure 13
1001
0000
0001
1000
0010
0000
0100
0000
,  // measure 14
0001
0010
0000
0001
0000
0100
0010
1000
,  // measure 15
0100
0000
0010
0001
1000
0000
0001
0000
,  // measure 16
1000
0010
0000
0100
0000
0001
0100
0010
,  // measure 17
1000
0000
0001
1000
0100
0000
0010
0001
,  // measure 18
0100
0001
0000
1100
0000
0010
0001
0100
,  // measure 19
0010
0000
1000
0001
0010
0000
0100
0000
,  // measure 20
0020
0000
0000
0001
0001
0000
0031
0000
,  // measure 21
1002
0000
0010
0000
1000
1000
0000
0103
,  // measure 22
0100
0010
0000
1000
0000
0100
0000
0010
,  // measure 23
0200
0000
0010
0000
1000
1000
0000
0310
,  // measure 24
0010
0001
0000
0100
0000
1000
0000
0100
,  // measure 25
0002
0000
0010
0000
1000
0000
0103
0001
,  // measure 26
1000
0000
0100
0010
0001
0100
0010
1000
,  // measure 27
0001
0000
0010
0000
0001
0000
0100
0010
,  // measure 28
1000
0000
0001
0010
0100
0010
0001
1000
,  // measure 29
2001
0000
0010
0000
0001
0001
0000
3100
,  // measure 30
0100
0010
0000
0001
0000
0100
0010
1000
,  // measure 31
0020
0000
0100
0000
1000
1000
0000
0130
,  // measure 32
0100
0010
0000
1000
0000
0001
0000
0010
,  // measure 33
0001
0000
1000
0000
0010
0100
0001
0000
,  // measure 34
0010
0000
0100
0000
0001
0000
0100
0010
,  // measure 35
0001
0000
0100
0001
1000
0001
0010
0100
,  // measure 36
1000
0000
0001
0010
0100
1000
0010
0100
,  // measure 37
1001
0000
0001
0100
0010
1000
0000
1000
,  // measure 38
0100
0000
0010
0001
0100
0001
0000
0001
,  // measure 39
1000
0000
0001
0100
0010
1000
0000
0001
,  // measure 40
0010
0000
0100
0010
0001
0100
0010
0000
,  // measure 41
1001
0000
1000
0020
0000
0001
0000
0130
,  // measure 42
0000
1000
0001
0000
1000
0100
0010
0001
,  // measure 43
0200
0000
1000
1000
0000
0010
0000
0301
,  // measure 44
1000
0000
0001
0010
0100
0000
0010
0001
,  // measure 45
1000
0000
1000
0000
0000
0001
0000
0000
0100
0000
0100
0000
0000
0010
0000
0000
,  // measure 46
1000
0000
1000
0000
0000
0100
0000
0000
0010
0000
0010
0000
0000
0001
0000
0001
,  // measure 47
0100
0000
0010
0000
0000
1000
0000
0000
0100
0000
0010
0000
0000
0001
0000
0000
,  // measure 48
1000
0000
0010
0000
0000
0100
0000
0000
0001
0000
0010
0000
0100
0000
0010
0000
,  // measure 49
0001
0000
1000
0020
0000
0001
0000
0200
,  // measure 50
0000
0000
0330
0000
1000
0100
0010
0001
,  // measure 51
1000
0000
0100
0010
0001
1000
0000
0001
,  // measure 52
0100
0000
0110
0000
1010
0000
0001
1000
,  // measure 53
1002
0000
0010
0000
1000
0000
0103
0001
,  // measure 54
0010
1000
0010
0100
0010
0001
1000
0010
,  // measure 55
0200
0000
1000
0000
0010
0000
0301
0100
,  // measure 56
0001
1000
0100
1000
0010
1000
0100
0010
,  // measure 57
1002
0000
0010
0000
1000
0000
0103
0010
,  // measure 58
1000
0100
0001
0100
1000
0010
0001
0010
,  // measure 59
0200
0000
1000
0000
0010
0000
0301
1000
,  // measure 60
0001
0010
0000
0001
0010
0100
1000
0100
,  // measure 61
0010
0001
1000
0001
0100
0001
0010
0001
,  // measure 62
0100
0100
0010
0010
1000
0100
0010
0001
,  // measure 63
0100
1000
0100
0010
0100
0001
0100
0010
,  // measure 64
1000
1000
0001
0001
1000
0100
0010
0001
,  // measure 65
1000
0010
1000
0100
0001
0100
0010
0001
,  // measure 66
0100
1000
0100
0010
1000
0001
1000
0100
,  // measure 67
0010
0100
0001
1000
0010
0001
1000
0100
,  // measure 68
0001
0100
0010
0001
0100
1000
0001
1000
,  // measure 69
1001
0000
0000
0000
;
