#VERSION:0.81;
#TITLE:Robot Snares Got No Cadence Or Balance;
#SUBTITLE:;
#ARTIST:Prefuse 73;
#TITLETRANSLIT:;
#SUBTITLETRANSLIT:;
#ARTISTTRANSLIT:;
#GENRE:;
#ORIGIN:;
#CREDIT:;
#BANNER:[Nostalgia Is Lost] - Robot Snares Got No Cadence Or Balance.bn.png;
#BACKGROUND:[Nostalgia Is Lost] - Robot Snares Got No Cadence Or Balance.bg.png;
#PREVIEWVID:;
#JACKET:[Nostalgia Is Lost] - Robot Snares Got No Cadence Or Balance.jacket.png;
#CDIMAGE:;
#DISCIMAGE:;
#LYRICSPATH:;
#CDTITLE:cdtitle.png;
#MUSIC:[Nostalgia Is Lost] - Robot Snares Got No Cadence Or Balance.ogg;
#OFFSET:-0.051000;
#SAMPLESTART:42.983002;
#SAMPLELENGTH:13.000000;
#SELECTABLE:YES;
#DISPLAYBPM:95.000000;
#BPMS:0.000=95.000,
16.000=380.000,
32.000=95.000,
34.000=190.000,
34.500=95.000,
67.000=190.000,
75.000=95.000,
188.500=380.000,
188.750=95.000;
#STOPS:34.000=0.158,
34.500=0.632,
67.000=0.316,
68.000=0.315,
69.000=0.316,
70.000=0.316,
71.000=0.316,
72.000=0.315,
73.000=0.316,
74.000=0.316,
76.500=1.250,
188.500=0.020,
188.542=0.019,
188.583=0.020,
188.625=0.020,
188.667=0.020,
188.708=0.019;
#DELAYS:;
#WARPS:;
#TIMESIGNATURES:0.000=4=4;
#TICKCOUNTS:0.000=4;
#COMBOS:0.000=1;
#SPEEDS:0.000=1.000=0.000=0;
#SCROLLS:0.000=1.000;
#FAKES:;
#LABELS:0.000=Song Start;
#BGCHANGES:;
#KEYSOUNDS:;
#ATTACKS:
;

//---------------dance-single - ----------------
#NOTEDATA:;
#CHARTNAME:;
#STEPSTYPE:dance-single;
#DESCRIPTION:;
#CHARTSTYLE:;
#DIFFICULTY:Hard;
#METER:7;
#RADARVALUES:0.361240,0.455761,0.111057,0.290457,0.055529,249.000000,13.000000,34.000000,2.000000,0.000000,0.000000,0.000000,0.000000,0.361240,0.455761,0.111057,0.290457,0.055529,249.000000,13.000000,34.000000,2.000000,0.000000,0.000000,0.000000,0.000000;
#CREDIT:;
#DISPLAYBPM:95.000000;
#NOTES:
// measure 0
0000
0000
0000
0000
,  // measure 1
0000
0000
0000
0000
,  // measure 2
2000
0000
3001
1000
0100
0010
0001
0000
,  // measure 3
0200
0000
0310
0100
0001
1000
0000
0000
,  // measure 4
2002
0000
0000
0000
,  // measure 5
0000
0000
0000
0000
,  // measure 6
0000
0000
0000
0000
,  // measure 7
0000
0000
0000
3003
,  // measure 8
0020
0000
0000
0000
0230
0302
0003
0000
,  // measure 9
1000
0100
0100
0010
0001
0000
0101
0000
,  // measure 10
1100
1000
0010
0100
0001
0000
1001
0000
,  // measure 11
0010
0100
0100
0001
1000
0000
1100
0000
,  // measure 12
0011
1010
0101
1000
,  // measure 13
0001
0010
0010
0001
0100
0000
0010
0000
,  // measure 14
1000
0001
0001
0010
0100
0000
1100
0000
,  // measure 15
0010
0100
0100
0001
1000
0000
0100
0000
,  // measure 16
1000
0000
0001
0000
0001
0000
0100
0000
0010
0000
1000
0000
0200
0000
0000
0300
,  // measure 17
0200
0000
0000
0300
0200
0000
0000
0300
0200
0000
0000
0300
0200
0000
0000
0300
,  // measure 18
0200
0000
0000
0300
0200
0000
0000
0300
0200
0000
0000
0300
0020
0000
0000
0000
,  // measure 19
0030
1001
1000
0001
0100
0100
0001
1000
,  // measure 20
0100
0100
0010
0001
0010
0100
1000
1000
,  // measure 21
0010
0010
0200
0000
0301
1000
0200
0000
,  // measure 22
0310
0001
2000
0000
0010
0000
3002
0000
,  // measure 23
0100
0000
1003
0001
0010
0010
0001
1000
,  // measure 24
0010
0010
0100
0001
0100
0010
1000
1000
,  // measure 25
0100
0100
0020
0000
0031
1000
0020
0000
,  // measure 26
0130
0001
2000
0000
0100
0000
3002
0000
,  // measure 27
0010
0000
1003
0000
0010
0100
0100
0000
,  // measure 28
0001
0000
0011
0000
1100
0000
1000
0010
,  // measure 29
0200
0000
0302
0000
1003
0100
0100
0000
,  // measure 30
0011
0000
0001
0100
0001
1000
0100
0010
,  // measure 31
0100
1000
0001
0010
0001
0100
0000
0010
,  // measure 32
0000
1000
0001
0100
0000
0100
0000
0010
,  // measure 33
1000
0100
0010
0100
0000
1000
0000
0001
,  // measure 34
0100
0010
1000
0001
0000
0001
0000
1000
,  // measure 35
0010
0100
0010
1000
0000
1000
0000
0100
,  // measure 36
0000
0001
0000
0010
0000
1000
0000
0001
,  // measure 37
1000
0100
1000
0001
0000
0100
0000
0001
,  // measure 38
0010
0100
0000
1000
0010
0100
0000
0100
,  // measure 39
0000
0010
0000
1000
0000
0001
0000
0010
,  // measure 40
0000
1000
0000
0100
0000
0001
0000
1000
,  // measure 41
0100
0010
0100
1000
0010
0100
0000
0001
,  // measure 42
0000
0010
0000
0001
0000
0100
0000
0010
,  // measure 43
1000
0000
0001
0000
1000
0100
1000
0100
0020
0000
0000
0000
0031
0100
0001
0100
,  // measure 44
0020
0000
0000
0000
1030
0001
1000
0001
0020
0000
0000
0000
0130
0000
0010
0000
,  // measure 45
0001
0000
0100
0000
0010
1000
0010
1000
0200
0000
0000
0000
0310
0001
0010
0001
,  // measure 46
0200
0000
0000
0000
0301
1000
0001
1000
0200
0000
0000
0000
0320
0000
0000
0000
,  // measure 47
0031
0100
0002
0003
0000
0000
0000
0000
0000
0000
0000
0000
0000
0000
0000
0000
,  // measure 48
0000
0000
M00M
0000
;

//---------------dance-single - ----------------
#NOTEDATA:;
#CHARTNAME:;
#STEPSTYPE:dance-single;
#DESCRIPTION:;
#CHARTSTYLE:;
#DIFFICULTY:Medium;
#METER:5;
#RADARVALUES:0.294118,0.310746,0.059800,0.333171,0.000000,195.000000,7.000000,39.000000,2.000000,0.000000,0.000000,0.000000,0.000000,0.294118,0.310746,0.059800,0.333171,0.000000,195.000000,7.000000,39.000000,2.000000,0.000000,0.000000,0.000000,0.000000;
#CREDIT:;
#DISPLAYBPM:95.000000;
#NOTES:
// measure 0
0000
0000
0000
0000
,  // measure 1
0000
0000
0000
0000
,  // measure 2
2000
0000
3020
0000
0130
0001
0100
0000
,  // measure 3
0002
0000
2003
0000
3100
1000
0000
0000
,  // measure 4
2002
0000
0000
0000
,  // measure 5
0000
0000
0000
0000
,  // measure 6
0000
0000
0000
0000
,  // measure 7
0000
0000
0000
3003
,  // measure 8
0020
0000
0230
0300
,  // measure 9
0101
0000
0001
1000
0001
0000
0010
0000
,  // measure 10
0100
0000
1000
0010
1000
0000
0002
0000
,  // measure 11
0003
0200
0300
0020
,  // measure 12
1030
0000
0001
0100
0001
0000
0010
0000
,  // measure 13
0100
0000
1000
0001
1000
0000
0001
0000
,  // measure 14
0100
0000
0010
1000
0010
0000
2000
0000
,  // measure 15
3000
0200
0300
0020
,  // measure 16
0031
0000
0001
0100
0001
0000
2000
3000
,  // measure 17
2000
3000
2000
3000
2000
3000
2000
3000
,  // measure 18
2000
3000
2000
3000
2000
0000
0002
0000
,  // measure 19
3003
1001
0001
0010
0001
0000
1000
0100
,  // measure 20
1000
0000
0010
0000
0100
0000
0001
1000
,  // measure 21
0001
2000
3100
0200
,  // measure 22
0310
0020
0001
0230
,  // measure 23
1000
0000
1300
0010
1000
0000
0001
0100
,  // measure 24
0001
0000
0010
0000
0100
0000
1000
0001
,  // measure 25
1000
0002
0103
0200
,  // measure 26
0310
0020
1000
0230
,  // measure 27
0001
0000
0301
0000
1000
0100
0010
0000
,  // measure 28
0001
0100
0100
0010
,  // measure 29
1000
0000
0001
0000
0010
0100
1000
0000
,  // measure 30
0001
0101
1010
1100
,  // measure 31
0011
0000
1000
0010
0100
0010
0000
1000
,  // measure 32
0001
1000
0000
0100
0000
0010
0000
0001
,  // measure 33
0100
0000
0010
1000
0001
1000
0000
0001
,  // measure 34
0010
0001
0000
0100
0000
0010
0000
1000
,  // measure 35
0100
0000
0010
0001
0000
0001
0000
0100
,  // measure 36
0000
0010
0000
1000
0000
1000
0000
0001
,  // measure 37
0010
0000
0100
1000
0000
1000
0000
0010
,  // measure 38
0100
0010
0000
0100
0001
0100
0000
0001
,  // measure 39
0000
1000
0000
0100
0000
0100
0000
0010
,  // measure 40
0000
0001
0000
1000
0000
1000
0000
0010
,  // measure 41
0100
0000
0001
1000
0000
1000
0000
0001
,  // measure 42
0000
0010
0000
0100
0000
0100
0000
1000
,  // measure 43
0010
1000
0001
0001
0020
0000
0031
0001
,  // measure 44
0200
0000
0310
0010
2000
0000
3001
0000
,  // measure 45
0010
0100
1000
1000
0020
0000
1030
1000
,  // measure 46
0002
0000
0013
0010
0200
0000
2300
0000
,  // measure 47
3001
0000
2000
3000
0000
0000
0000
0000
0000
0000
0000
0000
0000
0000
0000
0000
,  // measure 48
0000
0000
M00M
0000
;

//---------------dance-single - ----------------
#NOTEDATA:;
#CHARTNAME:;
#STEPSTYPE:dance-single;
#DESCRIPTION:;
#CHARTSTYLE:;
#DIFFICULTY:Easy;
#METER:3;
#RADARVALUES:0.184281,0.207164,0.076886,0.136686,0.000000,126.000000,9.000000,16.000000,2.000000,0.000000,0.000000,0.000000,0.000000,0.184281,0.207164,0.076886,0.136686,0.000000,126.000000,9.000000,16.000000,2.000000,0.000000,0.000000,0.000000,0.000000;
#CREDIT:;
#DISPLAYBPM:95.000000;
#NOTES:
// measure 0
0000
0000
0000
0000
,  // measure 1
0000
0000
0000
0000
,  // measure 2
1000
0010
0100
0000
,  // measure 3
0001
0010
0100
0000
,  // measure 4
1001
0000
0000
0000
,  // measure 5
0000
0000
0000
0000
,  // measure 6
0000
0000
0000
0000
,  // measure 7
0000
0000
0000
0000
,  // measure 8
0002
0000
2003
3000
,  // measure 9
0101
0001
1000
0000
,  // measure 10
1000
0100
1000
0020
,  // measure 11
0030
0200
0300
0002
,  // measure 12
1003
1000
0100
0000
,  // measure 13
1000
0010
1000
0000
,  // measure 14
0001
0100
0010
2000
,  // measure 15
3000
0200
0300
0020
,  // measure 16
0031
1000
1000
0001
,  // measure 17
0001
0001
0001
0001
,  // measure 18
0001
0001
0001
2002
,  // measure 19
0000
3003
1000
0000
1000
0000
0010
0000
,  // measure 20
0010
1000
0100
0010
,  // measure 21
0010
0002
0003
0200
,  // measure 22
0300
0001
0010
1000
,  // measure 23
0100
0001
0001
0010
,  // measure 24
0010
0001
0100
0010
,  // measure 25
0010
2000
3000
0200
,  // measure 26
0300
1000
0010
0001
,  // measure 27
0100
1000
0000
0010
,  // measure 28
0010
1010
0000
1000
,  // measure 29
1000
0001
0000
0010
,  // measure 30
0010
0011
0000
1100
,  // measure 31
0000
1000
0000
0001
,  // measure 32
0100
0101
0000
0001
,  // measure 33
0001
0010
0000
0100
,  // measure 34
1000
1010
0000
0101
,  // measure 35
0000
1000
0000
0100
,  // measure 36
0000
0010
0000
0001
,  // measure 37
0001
0001
0000
0100
,  // measure 38
0000
0010
0000
1000
,  // measure 39
1000
0001
0000
0010
,  // measure 40
0000
0100
0000
1000
,  // measure 41
1000
1000
0000
0001
,  // measure 42
0000
0100
0000
0010
,  // measure 43
0100
0001
0001
0010
,  // measure 44
0010
0100
0100
2000
,  // measure 45
0000
3001
0001
0100
,  // measure 46
0100
0010
0010
2000
,  // measure 47
0000
0000
0000
3000
0000
0000
0000
0000
0000
0000
0000
0000
0000
0000
0000
0000
,  // measure 48
0000
0000
M00M
0000
;
