#TITLE:Ridge Racer;
#SUBTITLE:;
#ARTIST:Shinji Hosoe;
#TITLETRANSLIT:;
#SUBTITLETRANSLIT:;
#ARTISTTRANSLIT:;
#GENRE:;
#CREDIT:;
#BANNER:;
#BACKGROUND:;
#LYRICSPATH:;
#CDTITLE:;
#MUSIC:Ridge Racer.mp3;
#OFFSET:-0.569337;
#SAMPLESTART:22.535311;
#SAMPLELENGTH:10.659988;
#SELECTABLE:YES;
#BPMS:0.000000=139.649994
;
#STOPS:
;
#BGCHANGES:;
#KEYSOUNDS:;
#ATTACKS:;

//---------------dance-single - ----------------
#NOTES:
     dance-single:
     :
     Hard:
     9:
     0.681656,0.652955,0.125568,0.167424,0.853864,535.000000,15.000000,20.000000,0.000000,0.000000,0.000000,0.681656,0.652955,0.125568,0.167424,0.853864,535.000000,15.000000,20.000000,0.000000,0.000000,0.000000:
0000
0000
0000
0000
,
0100
0000
0001
0000
0100
0010
0000
0100
0000
0100
0001
0000
1000
0000
0001
0000
,
0010
0000
0100
0000
1000
0000
0100
0010
0000
0010
0100
0000
1000
0000
0010
0000
,
0100
0000
0001
0000
0100
0000
0010
0100
0000
0100
0001
0000
0010
0000
0001
0000
,
1000
0000
0100
0000
0010
0000
0100
1000
0000
1000
0001
0000
1000
0001
1000
0001
,
0010
0000
0001
0000
0010
0100
0000
0010
0000
0010
0001
0000
1000
0000
0001
0000
,
0100
0000
0010
0000
1000
0000
0010
0100
0000
0100
0010
0000
1000
0000
0100
0000
,
0010
0000
0001
0000
0010
0000
0100
0010
0000
0010
0001
0000
0100
0000
0001
0000
,
0001
1000
0000
0001
0000
1000
0001
0000
0100
0000
0010
0000
0100
0001
0100
0001
,
2000
0000
0000
0000
3020
0000
0000
0130
0000
0100
0001
0000
1000
0000
0001
0000
,
0010
0000
0000
0000
0100
0000
0100
1000
0000
0000
0001
0000
0100
0010
0100
0000
,
0002
0000
0000
0000
0023
0000
0000
0130
0000
0100
1000
0000
0001
0000
1000
0000
,
0010
0000
0000
0000
0100
0000
0100
0001
0000
0000
0100
0000
0010
1000
0010
1000
,
0002
0000
0000
0000
0203
0000
0000
0310
0000
0010
1000
0000
0001
0000
1000
0000
,
0100
0000
0000
0000
0010
0000
0010
0001
0000
0000
1000
0000
0010
0100
0010
0000
,
2000
0000
0000
0000
3200
0000
0000
0310
0000
0010
0001
0000
1000
0000
0001
0000
,
0100
0010
0000
0100
0000
0010
0000
0100
0001
0000
0001
0000
1000
0001
1000
0001
,
1000
0000
0000
1000
0001
0000
0000
0000
0000
0000
0000
1000
0001
0000
1000
0000
,
0100
0000
0000
0100
0010
0000
0000
0000
0000
0000
0000
0010
0001
0000
1000
0000
,
0010
0000
0000
0010
0100
0000
0000
0000
0000
0000
0000
0100
0010
0000
1000
0000
,
0100
0000
0000
0100
1000
0100
0000
0000
0000
0000
0000
0000
1000
0000
0001
0000
,
0001
0000
0000
0001
1000
0000
0000
0000
0000
0000
0000
0001
1000
0000
0001
0000
,
0100
0000
0000
0100
0010
0000
0000
0000
0000
0000
0000
0010
1000
0000
0001
0000
,
0010
0000
0000
0010
0100
0000
0000
0000
0000
0000
0000
0100
0010
0000
0001
0000
,
0100
0000
0000
0100
0001
0000
0000
0000
1000
0100
0000
1000
0001
1000
0001
1000
,
0001
0000
0100
0000
0001
1000
0000
0010
0000
1000
0000
0001
0100
0000
0001
0000
,
1000
0100
0000
0010
0000
0001
0000
1000
0010
1000
0010
1000
0001
0100
0001
0100
,
0010
0000
1000
0020
0000
0000
0130
0000
0001
0000
0010
0200
0000
0000
1300
0000
,
0010
0000
0100
0002
0000
0000
1003
0000
0100
0000
0010
0002
0000
0000
2003
0000
,
0001
0000
0000
0001
0000
0000
3002
0000
1000
0000
0000
1003
0000
0000
0000
0000
,
0010
0100
0000
0010
0100
0000
0001
0000
0010
0000
0000
0010
0000
0000
0100
0000
,
1000
0100
0000
1000
0100
0000
0010
0000
0100
0000
0000
0100
0000
0000
1000
0000
,
0010
0100
0000
0010
0100
0000
0001
0000
0010
0000
0000
0010
0001
1000
0001
0000
,
0000
0101
0000
1010
0000
0000
1000
0000
0100
0000
0000
0100
0000
0000
0000
0000
,
0000
0010
0001
1000
0001
1000
0001
0100
0001
0100
0000
0010
0000
0100
0001
0000
,
0000
1000
0100
1000
0010
0100
0000
0001
0000
0010
0100
0000
0010
0100
1000
0100
,
0010
0000
0000
0010
0000
0000
0100
0000
1000
0000
0000
0001
0000
0000
0100
0000
,
0000
0010
1000
0010
0100
0010
1000
0010
0000
1000
0000
0001
1000
0000
0100
0000
,
0000
0100
0000
1000
0000
0001
1000
0000
0100
0000
0100
0000
0010
0001
0000
1000
,
0001
0000
0100
0000
0010
0100
0000
0001
0100
0000
0010
0000
1000
0001
0000
1000
,
0100
0000
0010
0001
0000
1000
0000
0001
0100
0000
0010
1000
0000
0001
0000
1000
,
0200
0000
0010
0000
0010
0000
0000
1000
0000
0000
0001
0000
0001
0000
0000
0000
,
1300
0000
0010
0000
0010
0000
1000
0100
0020
0000
0000
0001
0000
0000
0130
0000
,
2100
0000
0000
0100
0000
0000
0100
0000
0000
0000
0010
0000
0010
0000
3010
0000
,
0100
0001
0100
0000
0010
0000
1000
0100
0000
0100
1000
0000
0100
1000
0100
0010
,
0002
0000
1000
0000
1000
0000
0000
0010
0000
0000
0100
0000
0100
0000
0000
0000
,
0013
0000
0100
0000
1000
0000
0010
0100
0002
0000
0000
0010
0000
0000
1003
0000
,
2010
0000
0000
0010
0000
0000
0010
0000
0000
0000
0100
0000
3100
0000
0010
0000
,
0001
1000
0001
1000
0001
0000
0100
0010
0000
0010
0100
0000
0001
1000
0000
1000
,
0001
0000
0010
0000
0000
0010
0000
0100
0000
1000
0001
0000
0100
0000
0010
0000
,
0100
0000
0001
0000
0010
0001
0000
1000
0000
0100
1000
0000
0010
0000
0010
0000
,
0000
0000
0110
0000
0000
0001
0000
1000
0000
0100
1000
0000
0010
0000
0100
0000
,
0001
0000
0010
0000
0000
0100
0000
1000
0000
0001
0100
0000
0010
0000
0010
0000
,
0000
0000
1100
0000
0000
1001
0000
0100
0000
0010
0100
0000
0001
0000
1000
0000
,
0100
0000
0010
0000
0000
0001
0000
1000
0000
0010
0100
0000
0010
0000
0010
0000
,
1000
0000
0001
0000
0000
0100
0000
0010
0000
1000
0100
0000
0010
0000
0001
0000
,
0010
0100
1000
0100
1000
0000
0100
1000
0000
1000
0001
0000
0010
0001
1000
0001
,
0000
0000
0110
0000
0000
1010
0000
1000
0000
0100
1000
0000
0001
0000
0100
0000
,
0001
0000
0010
0000
0100
0010
0000
0001
0000
0100
0010
0000
0100
0000
0100
0000
,
0000
0000
0110
0000
0000
0101
0000
0001
0000
0010
0001
0000
1000
0000
0010
0000
,
1000
0000
0100
0000
0010
0100
0000
1000
0000
0010
0100
0000
0010
0000
0010
0000
,
0000
0000
1001
0000
0000
0101
0000
0010
0000
0100
0010
0000
1000
0000
1000
0000
,
0100
0000
1000
0000
0001
0010
0000
0001
0000
0100
0010
0000
0100
0000
0100
0000
,
0000
0000
1001
0000
0000
1100
0000
0010
0000
0100
0010
0000
0001
0100
0001
0100
,
0010
0000
0000
0000
0000
0000
0000
0000
0100
0010
0100
0010
1000
0001
1000
0001
,
0010
0000
0000
0000
;

//---------------dance-single - ----------------
#NOTES:
     dance-single:
     :
     Medium:
     8:
     0.498685,0.435303,0.041856,0.234394,0.343220,384.000000,5.000000,28.000000,0.000000,0.000000,0.000000,0.498685,0.435303,0.041856,0.234394,0.343220,384.000000,5.000000,28.000000,0.000000,0.000000,0.000000:
0000
0000
0000
0000
,
1000
0001
1000
0001
1000
0001
1000
1000
,
0010
1000
0010
1000
0010
1000
0010
0010
,
0100
0001
0100
0001
0100
0001
0100
0100
,
0001
1000
0001
1000
0001
1000
0001
0001
,
0100
0001
1000
0001
0100
0001
1000
1000
,
0001
1000
0100
1000
0001
1000
0001
0001
,
0010
0100
0010
0001
0010
0100
0010
0010
,
0001
1000
0100
1000
0001
1000
0100
0100
,
0020
0000
0000
0000
0032
0000
0000
1003
0000
0000
0000
0000
0001
0000
0000
0000
,
1000
0000
0000
0000
0020
0000
0000
0130
0000
0000
0000
0000
0100
0000
0000
0000
,
0020
0000
0000
0000
2030
0000
0000
3001
0000
0000
0000
0000
0010
0000
0000
0000
,
0100
0000
0000
0000
0020
0000
0000
0130
0000
0000
0000
0000
1000
0000
0100
0000
,
0020
0000
0000
0000
1000
0000
0000
0031
0000
0000
0000
0000
0010
0000
0000
0000
,
0001
0000
0000
0000
0200
0000
0000
1300
0000
0000
0000
0000
0100
0000
0000
0000
,
0020
0000
0000
0000
0001
0000
0000
1030
0000
0000
0000
0000
0100
0000
0000
0000
,
0001
0000
0000
0000
0200
0000
0000
0320
0000
0000
0000
0000
0000
0000
0000
0000
,
0032
0000
0010
0000
0000
0000
0003
1000
,
0002
0010
2003
3200
,
0320
0000
0001
0000
0000
0000
0000
0031
,
2000
0000
0100
0000
0000
0000
3100
1000
,
0020
0100
0000
0000
,
0230
0000
0000
0320
0000
0000
0230
0000
0302
0000
0000
0023
0000
0000
0230
0000
,
2300
0010
0000
0100
,
3010
0000
0000
0010
0100
0000
0000
0000
0001
0000
0000
0000
1000
0000
1000
0000
,
0010
1000
0010
1000
0001
0100
0001
0100
,
0010
1000
0100
0010
0001
1000
0100
0000
,
0010
0001
0010
0001
1000
0100
1000
0100
,
0010
0001
0100
0010
1000
0001
0100
0000
,
0010
0000
0000
0010
0000
0000
0020
0000
0000
0000
0000
0000
0000
0000
0030
0000
,
1000
0000
0100
0000
1000
0000
0100
0000
0010
0000
0000
0010
0000
0000
0010
0000
,
0001
0000
0100
0000
0001
0000
0100
0000
0010
0000
0000
0010
0000
0000
0010
0000
,
1000
0000
0100
0000
1000
0000
0100
0000
0010
0000
0000
0010
0000
0000
0000
0000
,
0000
0010
0000
0110
0000
0000
1000
0000
0001
0000
0000
0001
0000
0000
0000
0000
,
0000
0000
1000
0000
0100
0000
1000
0000
0001
0000
0000
0100
0000
0000
0100
0000
,
0000
0000
0010
0000
1000
0000
0000
0100
0000
0000
0010
0000
0001
0000
0100
0000
,
0010
0000
0000
0010
0000
0000
1000
0000
0001
0000
0000
0001
0000
0000
0010
0000
,
0000
0000
0100
0000
1000
0000
0001
0000
0000
1000
0000
0001
1000
0000
0100
0000
,
0000
0010
0000
0001
0000
1000
0001
0000
1000
0000
1000
0000
0001
1000
0000
0000
,
0001
0000
1000
0000
0001
1000
0000
0000
0010
0000
0100
0000
0010
0100
0000
0000
,
0001
0000
0100
0000
0001
0100
0000
0000
0010
0000
1000
0000
0010
1000
0000
1000
,
0100
1000
0010
0000
0100
0001
0010
0100
,
1000
0000
0100
0000
0010
0000
0001
0000
0100
0000
0000
0100
0000
0000
0100
0000
,
0010
0000
0000
1000
0000
0000
2010
0000
0000
0000
0000
0000
0100
0000
0000
0000
,
3001
0010
0001
1000
0100
1000
0001
0100
,
0010
1000
0100
0000
0010
0001
0100
0010
,
1000
0000
0010
0000
0100
0000
0001
0000
0010
0000
0000
0100
0000
0000
1000
0000
,
0010
0000
0000
0100
0000
0000
0210
0000
0000
0000
0000
0000
1000
0000
0000
0000
,
0310
1000
0010
1000
0100
1000
0001
0010
,
0100
0000
1000
0000
0000
0001
0000
0100
0000
0100
0000
0000
0010
0000
1000
0000
,
0000
0000
0100
0000
0000
0010
0000
0001
0000
0001
0000
0000
1000
0000
1000
0000
,
0000
0000
0010
0000
0000
0100
0000
0010
0000
0010
0000
0000
1000
0000
1000
0000
,
0000
0000
0001
0000
0000
0010
0000
0100
0000
0100
0000
0000
1000
0000
0001
0000
,
0000
0000
0100
0000
0000
0010
0000
1000
0000
1000
0000
0000
0100
0000
1000
0000
,
0000
0000
0001
0000
0000
0010
0000
0100
0000
0100
0000
0000
0010
0000
0001
0000
,
0000
0000
1000
0000
0000
0010
0000
0100
0000
0100
0000
0000
0010
0000
1000
0000
,
0000
0000
0001
0000
0000
1000
0000
0100
0000
0100
0000
0000
1000
0000
0001
0000
,
0000
0000
0010
0000
0000
0100
0000
1000
0000
1000
0000
0000
0010
0000
0100
0000
,
0000
0000
0010
0000
0000
0100
0000
0001
0000
0001
0000
0000
0010
0000
0100
0000
,
0000
0000
1000
0000
0000
0100
0000
0010
0000
0010
0000
0000
0001
0000
0100
0000
,
0000
0000
0001
0000
0000
0100
0000
0010
0000
0010
0000
0000
1000
0000
0100
0000
,
0000
0000
0010
0000
0000
0001
0000
0100
0000
0100
0000
0000
0010
0000
1000
0000
,
0000
0000
0100
0000
0000
0010
0000
0001
0000
0001
0000
0000
0100
0000
0010
0000
,
0000
0000
1000
0000
0000
0100
0000
0010
0000
0010
0000
0000
0100
0000
1000
0000
,
1001
0000
0000
0000
0001
0010
0100
1000
,
1001
0000
0000
0000
;

//---------------dance-single - ----------------
#NOTES:
     dance-single:
     :
     Easy:
     4:
     0.283425,0.244858,0.041856,0.209280,0.020928,207.000000,5.000000,25.000000,0.000000,0.000000,0.000000,0.283425,0.244858,0.041856,0.209280,0.020928,207.000000,5.000000,25.000000,0.000000,0.000000,0.000000:
0000
0000
0000
0000
,
1000
0001
1000
0001
,
0100
0010
0100
0010
,
1000
0100
1000
0100
,
0010
0000
0001
0000
0010
0000
0001
0001
,
0100
0010
0100
0010
,
1000
0100
1000
0100
,
0010
0001
0010
0001
,
0100
0000
0010
0000
1000
0000
0100
0100
,
0010
0002
1003
0000
,
0010
2000
3001
0000
,
0010
0002
0103
0000
,
0010
2000
3100
0000
,
0010
0020
0031
0000
,
0100
0200
0310
0000
,
1000
2000
3100
0000
,
0010
0002
0103
0000
,
0020
0000
0000
0000
,
2030
0000
0000
0000
,
3002
0000
0000
0000
,
0203
0000
0000
0000
,
0302
0000
0000
0000
,
2003
0000
0000
0000
,
3200
0000
0000
0000
,
0320
0000
0031
1000
,
1000
0010
0100
0001
,
0010
0100
0010
0010
,
0001
0100
0010
1000
,
0100
0010
0100
0100
,
1000
0000
0000
0001
0000
0000
2000
0000
0000
0000
0000
0000
0000
0000
0000
0000
,
3010
0010
0100
0100
,
0001
0001
1000
1000
,
0010
0010
0100
0100
,
0000
0001
0000
1000
0000
0000
0000
0000
0100
0000
0000
0000
0100
0000
0000
0000
,
0000
0001
0100
0010
,
0000
1000
0100
1000
,
0010
0010
0100
0100
,
0001
1000
0100
0010
,
0000
0001
0100
1000
,
0100
0010
1000
0100
,
1000
0010
0100
0001
,
0020
0000
0001
0000
,
0230
0000
0000
0000
0000
0000
0000
0000
1300
0000
0000
1000
0000
0000
1000
0000
,
2000
0000
0000
0000
,
3020
0000
0000
0000
,
0230
0000
0010
0000
,
0302
0000
0000
0000
0000
0000
0000
0000
0013
0000
0000
0010
0000
0000
0010
0000
,
0200
0000
0000
0000
,
1300
1000
1000
0001
,
0100
0010
1000
0100
,
0010
0001
1000
0001
,
0100
0010
1000
0100
,
0010
0001
1000
0001
,
0010
0100
1000
0001
,
0100
0010
1000
1000
,
0100
0010
0001
1000
,
0010
0100
0001
0001
,
0000
0110
0000
0000
0100
0000
0100
0000
,
0010
1000
0001
0010
,
0000
0110
0000
0000
0010
0000
0010
0000
,
0100
1000
0001
0100
,
0000
1001
0000
0000
0001
0000
1000
0000
,
0010
0100
0001
1000
,
0000
1001
0000
0000
1000
0000
0001
0000
,
0020
0000
0100
0130
,
1001
0000
0000
0000
;

//---------------dance-single - ----------------
#NOTES:
     dance-single:
     :
     Beginner:
     1:
     0.139919,0.190445,0.058598,0.100455,0.000000,98.000000,7.000000,12.000000,0.000000,0.000000,0.000000,0.139919,0.190445,0.058598,0.100455,0.000000,98.000000,7.000000,12.000000,0.000000,0.000000,0.000000:
0000
0000
0000
0000
,
1000
0000
1000
0000
,
0001
0000
0001
0000
,
1000
0000
1000
0000
,
1001
0000
0000
0000
,
0100
0000
0100
0000
,
0010
0000
0010
0000
,
0100
0000
0100
0000
,
0110
0000
0000
0000
,
1000
0000
0000
0000
,
0001
0000
0000
0000
,
1000
0000
0000
0000
,
0001
0000
0000
0000
,
0010
0000
0000
0000
,
0100
0000
0000
0000
,
0010
0000
0000
0000
,
0100
0000
0000
0000
,
2000
0000
0000
0000
,
0000
0000
0000
3000
,
0002
0000
0000
0000
,
0000
0000
0000
0003
,
0200
0000
0000
0000
,
0000
0000
0000
0300
,
0020
0000
0000
0000
,
0000
0000
0000
0030
,
1000
0000
1000
0000
,
0010
0000
0010
0000
,
1000
0000
1000
0000
,
0001
0000
0001
0000
,
0010
0000
0010
0000
,
0100
0000
0100
0000
,
1000
0000
1000
0000
,
0010
0000
0010
0000
,
0000
0000
0100
0000
,
0100
0000
0010
0000
,
0010
0000
1000
0000
,
0001
0000
0010
0000
,
0100
0000
1000
0000
,
0001
0000
1000
0000
,
0010
0000
0100
0000
,
0001
0000
1000
0000
,
0200
0000
0000
0000
,
0000
0000
0000
0300
,
0020
0000
0000
0030
,
0001
0001
0001
0001
,
2000
0000
0000
0000
,
0000
0000
0000
3000
,
0020
0000
0000
0030
,
1000
1000
1000
1000
,
0200
0000
0000
0300
,
0020
0000
0000
0030
,
0002
0000
0000
0003
,
2000
0000
0000
3000
,
0010
0000
0100
0000
,
0001
0000
0010
0000
,
0100
0000
1000
0000
,
0001
0000
0100
0000
,
0110
0000
0000
0000
,
0100
0100
0100
0000
,
1001
0000
0000
0000
,
0001
0001
0001
0000
,
0110
0000
0000
0000
,
0100
0100
0100
0000
,
1001
0000
0010
0100
,
0010
0000
0000
0000
,
1001
0000
0000
0000
;

//---------------dance-double - ----------------
#NOTES:
     dance-double:
     :
     Hard:
     9:
     0.710357,0.652955,0.184167,0.209280,0.874792,547.000000,22.000000,25.000000,0.000000,0.000000,0.000000,0.710357,0.652955,0.184167,0.209280,0.874792,547.000000,22.000000,25.000000,0.000000,0.000000,0.000000:
00000000
00000000
00000000
00000000
,
00100000
00000000
10000000
00000000
00010000
10000000
00000000
01000000
00000000
01000000
00100000
00000000
00010000
00000000
01000000
00000000
,
00100000
00000000
00010000
00000000
00001000
00000000
00000100
00001000
00000000
00001000
00010000
00000000
00001000
00000000
00000100
00000000
,
00000001
00000000
00000010
00000000
00001000
00000000
00000010
00000100
00000000
00000100
00010000
00000000
00100000
00000000
10000000
00000000
,
01000000
00000000
00010000
00000000
01000000
00000000
00100000
00001000
00000000
00001000
00010000
00000000
00001000
00010000
00000100
00001000
,
00000010
00000000
00001000
00000000
00000001
00000010
00000000
00000100
00000000
00000010
00000100
00000000
00001000
00000000
00000010
00000000
,
00000100
00000000
00001000
00000000
00010000
00000000
00100000
00010000
00000000
00010000
00001000
00000000
00010000
00000000
00100000
00000000
,
10000000
00000000
01000000
00000000
00010000
00000000
01000000
00100000
00000000
00100000
00001000
00000000
00000100
00000000
00000001
00000000
,
00000010
00001000
00000000
00000010
00000000
00000100
00000000
00010000
00001000
00000000
00001000
00000000
00010000
00001000
00100000
00010000
,
02000000
00000000
00000000
00000000
03200000
00000000
00000000
10300000
00000000
10000000
00010000
00000000
00100000
00000000
00001000
00000000
,
00010000
00000000
00000000
00000000
00000010
00000000
00000010
00001000
00000000
00000000
00000001
00000000
00000100
00000010
00000100
00000000
,
00000020
00000000
00000000
00000000
00000230
00000000
00000000
00000301
00000000
00000001
00001000
00000000
00000100
00000000
00010000
00000000
,
00001000
00000000
00000000
00000000
01000000
00000000
01000000
00010000
00000000
00000000
10000000
00000000
00100000
10000000
01000000
00100000
,
00020000
00000000
00000000
00030000
20000000
00000000
00000000
31000000
00000000
01000000
00010000
00000000
00001000
00000000
00000100
00000000
,
00000001
00000000
00000000
00000000
00000010
00000000
00000010
00000001
00000000
00000000
00001000
00000000
00000100
00000010
00000100
00000000
,
00002000
00000000
00000000
00000000
00003002
00000000
00000000
00000103
00000000
00000100
00001000
00000000
00010000
00000000
01000000
00000000
,
10000000
00010000
00000000
10000000
00000000
01000000
00000000
00010000
00001000
00000000
00001000
00000000
00010000
00001000
00000100
00000010
,
00001000
00000000
00000000
00001000
00000001
00000000
00000000
00000000
00000000
00000000
00000000
00001000
00000001
00000000
00010000
00000100
,
00000020
00000230
02000300
03200000
,
00310000
00000000
00000000
00010000
00001000
00000000
00000000
00000000
00000000
00000000
00000000
00010000
00001000
00000000
00100000
00000000
,
01000000
00000000
00000000
10000000
01000000
00100000
00000000
00000000
00000000
00000000
00000000
00000000
00001000
00010000
00001000
00010000
,
00000100
00000000
00000000
00000100
00000010
00000000
00000000
00000000
00000000
00000000
00000000
00000100
00001000
00000000
00000010
00000000
,
00002000
00000000
00000000
00003200
00000000
00000000
00020300
00000000
00032000
00000000
00000000
02003000
00000000
00000000
03100000
00000000
,
10000000
00000000
00000000
10000000
00010000
00000000
00000000
00000000
00000000
00000000
00000000
10000000
00010000
00000000
01000000
00000000
,
00001000
00000000
00000000
00001000
00010000
00000000
00000000
00000000
00000100
00001000
00000000
00001000
00000001
00000010
00000001
00000010
,
00000100
00000000
00010000
00000000
00001000
00010000
00000000
01000000
00000000
00010000
00000000
00001000
00010000
00000000
00001000
00000000
,
00000010
00000001
00000000
00000100
00000000
00001000
00000000
00010000
00001000
00100000
00010000
00000000
00100000
00010000
10000000
00000000
,
00100000
00000000
01000000
00010000
00000000
00100000
00001000
00000000
00010000
00000000
00000010
00001000
00000000
00000100
00010000
00000000
,
00001000
00000000
00100000
01000000
00000000
00010000
00001000
00000000
00000100
00000000
00000001
00000010
00000000
00000100
00002000
00000000
,
00000001
00000000
00000000
00000001
00000000
00000000
00003002
00000000
00000100
00000000
00000000
00000103
00000000
00000000
00000100
00000000
,
00000010
00001000
00000000
00000100
00001000
00000000
00000100
00000000
00010000
00000000
00000000
00010000
00000000
00000000
00001000
00000000
,
00100000
00010000
00000000
10000000
00010000
00000000
01000000
00000000
00100000
00000000
00000000
00100000
00000000
00000000
10000000
00000000
,
01000000
00010000
00000000
00001000
00010000
00000000
00001000
00000000
00000100
00000000
00000000
00000100
00000010
00001000
00000001
00000000
,
00000000
00001001
00000000
00010010
00000000
00000000
00010000
00000000
00001000
00000000
00000000
00001000
00000000
00000000
00100000
00000000
,
00000000
00010000
10000000
00000000
01000000
10000000
01000000
00100000
00010000
00100000
00000000
00002000
00000000
00013000
00001000
00000000
,
00000000
00010000
00001000
00010000
00000100
00000010
00000000
00000100
00000000
00000001
00000100
00000000
00001000
00000010
00000100
00001000
,
00020000
00000000
00000000
00130000
00000000
00000000
10000000
00000000
02000000
00000000
00000000
03010000
00000000
00000000
00001000
00000000
,
00000000
00000010
00000001
00000000
00001000
00000001
00000100
00000001
00000000
00001000
00000000
00000100
00010000
00000000
00001000
00000000
,
00000000
00100000
00000000
00001000
00000000
00010000
00000100
00000000
00010000
00000000
00001000
00000000
00100000
00001000
00000000
00010000
,
00000010
00000000
00000100
00000000
00000001
00000100
00000000
00000010
00001000
00000000
00000001
00000000
00000100
00001000
00000000
01000000
,
00100000
00000000
10000000
00010000
00000000
01000000
00000000
00001000
00010000
00000000
00000001
00000100
00000000
00000001
00000000
00001000
,
00000100
00000000
00000100
00000000
00000001
00000000
00000100
00001000
00000000
00001000
00010000
00000000
01000000
00000000
00100000
00000000
,
10000000
00000000
01000000
00000000
00010000
00000000
00001000
00010000
00001000
00000000
00000000
00000100
00000000
00000000
00000010
00000000
,
00000210
00000000
00000000
00000010
00000000
00000000
00000010
00000000
00000000
00000000
00001300
00000000
00010000
00000000
01000000
00000000
,
00100000
00001000
00010000
00000100
00001000
00000000
00000010
00000100
00000000
00000100
00000001
00000000
00000100
00000010
00001000
00000100
,
00010000
00000000
00100000
00000000
10000000
00000000
01000000
00100000
00000000
00100000
00010000
00000000
01000000
00000000
00001000
00000000
,
00010000
00000000
00001000
00000000
00000100
00000000
00000010
00001000
00000100
00000000
00000000
00000010
00000000
00000000
00000001
00000000
,
00000101
00000000
00000000
00001100
00000000
00000000
00022000
00000000
00000000
00000000
00000000
00000000
00000000
00000000
00033000
00000000
,
01000000
00010000
00001000
00010000
01000000
00000000
10000000
00100000
00000000
00100000
01000000
00000000
00001000
00010000
00000100
00000010
,
00000000
00000000
00001001
00000000
00000000
00010010
00000000
00001000
00000000
00010000
00100000
00000000
10000000
00000000
10000000
00000000
,
01000000
00000000
00100000
00000000
00010000
00100000
00000000
00001000
00000000
00010000
01000000
00000000
10000000
00000000
10000000
00000000
,
00000000
00000000
10010000
00000000
00000000
01001000
00000000
00010000
00000000
00001000
00000100
00000000
00000001
00000000
00000001
00000000
,
00000010
00000000
00000100
00000000
00001000
00000100
00000000
00010000
00000000
00001000
00000010
00000000
00000001
00000000
00000001
00000000
,
00000000
00000000
00010100
00000000
00000000
00011000
00000000
00100000
00000000
00010000
01000000
00000000
00100000
00000000
00100000
00000000
,
10000000
00000000
01000000
00000000
00010000
00001000
00000000
00000100
00000000
00000010
00001000
00000000
00000100
00000000
00000100
00000000
,
00010000
00000000
00101000
00000000
00000000
00011000
00000000
00000100
00000000
00001000
00000010
00000000
00000100
00000000
00000100
00000000
,
00000001
00000100
00000010
00010000
00001000
00000000
00100000
00010000
00000000
01000000
00010000
00000000
00100000
01000000
10000000
00010000
,
00000000
00000000
10010000
00000000
00000000
00011000
00000000
00001000
00000000
00000100
00000010
00000000
00001000
00000000
00000100
00000000
,
00010000
00000000
00001000
00000000
00100000
00010000
00000000
01000000
00000000
00100000
01000000
00000000
00010000
00000000
00010000
00000000
,
00000100
00000000
00001001
00000000
00000000
00011000
00000000
00010000
00000000
00100000
01000000
00000000
00010000
00000000
00100000
00000000
,
00001000
00000000
00010000
00000000
00000100
00001000
00000000
00000010
00000000
00000100
00000010
00000000
00001000
00000000
00001000
00000000
,
00000100
00000000
00011000
00000000
00000000
00011000
00000000
01000000
00000000
10000000
00100000
00000000
01000000
00000000
00010000
00000000
,
00100000
00000000
01000000
00000000
00010000
00001000
00000000
00000100
00000000
00000010
00001000
00000000
00000100
00000000
00000100
00000000
,
00010000
00000000
00011000
00000000
00000000
00011000
00000000
00000100
00000000
00000001
00000010
00000000
00000100
00010000
00001000
00100000
,
00010000
00000000
00000000
00000000
00000000
00000000
00000000
00000000
00100000
00010000
01000000
00001000
00010000
00000010
00001000
00000100
,
00010000
00000000
00000000
00000000
;

//---------------dance-double - ----------------
#NOTES:
     dance-double:
     :
     Medium:
     8:
     0.527386,0.489716,0.167424,0.309735,0.309735,384.000000,20.000000,37.000000,0.000000,0.000000,0.000000,0.527386,0.489716,0.167424,0.309735,0.309735,384.000000,20.000000,37.000000,0.000000,0.000000,0.000000:
// measure 0
00000000
00000000
00000000
00000000
,  // measure 1
10000000
01000000
00010000
01000000
00100000
00001000
00010000
00001000
,  // measure 2
00000100
00000001
00000010
00000001
00001000
00000010
00000100
00000010
,  // measure 3
00010000
00000100
00000010
00000100
00001000
00000001
00000010
00000001
,  // measure 4
00000100
00001000
00010000
00001000
00000100
00000001
00000010
00000010
,  // measure 5
00000001
00000010
00001000
00000010
00000100
00010000
00001000
00010000
,  // measure 6
00100000
10000000
01000000
10000000
00010000
01000000
00100000
01000000
,  // measure 7
00001000
00100000
01000000
00100000
00010000
10000000
01000000
10000000
,  // measure 8
00100000
00010000
00001000
00010000
00100000
10000000
01000000
01000000
,  // measure 9
00200000
00000000
00000000
00000000
00302000
00000000
00000000
00013000
00000000
00000000
00000100
00000000
00000010
00000000
00000001
00000000
,  // measure 10
00001000
00000000
00000000
00000000
00000020
00000000
00000000
00000130
00000000
00000000
00000001
00000000
00000100
00000000
00000000
00000000
,  // measure 11
00000020
00000000
00000000
00000000
00020030
00000000
00000000
00031000
00000000
00000000
01000000
00000000
00100000
00000000
10000000
00000000
,  // measure 12
00010000
00000000
00000000
00000000
00200000
00000000
00000000
01300000
00000000
00000000
10000000
00000000
00100000
00000000
00010000
00000000
,  // measure 13
00002000
00000000
00000000
00000000
00003200
00000000
00000000
00000310
00000000
00000000
00010000
00000000
01000000
00000000
10000000
00000000
,  // measure 14
00100000
00000000
00000000
00000000
02000000
00000000
00000000
13000000
00000000
00000000
01000000
00000000
00100000
00000000
10000000
00000000
,  // measure 15
00020000
00000000
00000000
00000000
02030000
00000000
00000000
03100000
00000000
00000000
00010000
00000000
00001000
00000000
00000100
00000000
,  // measure 16
00000010
00000000
00000000
00000000
00000200
00000000
00000000
00000302
00000000
00000000
00000013
00000000
00000100
00000000
00001000
00000000
,  // measure 17
00000020
00001000
00000000
00001000
,  // measure 18
00020030
00100000
10000000
01000000
,  // measure 19
00032000
00010000
00000000
00010000
,  // measure 20
02003000
00000000
00100000
00000000
00000000
00000000
03100000
10000000
,  // measure 21
02000000
00010000
00000000
00010000
,  // measure 22
03002000
00000000
00000000
00000010
00000000
00000000
00000100
00000000
00000001
00000000
00000000
00000010
00000000
00000000
00003100
00000000
,  // measure 23
00020000
00000000
00000100
00000000
00000000
00000000
00030100
00010000
,  // measure 24
00001000
00000000
00011000
00000000
01000000
00100000
00010000
00001000
,  // measure 25
00000100
00000000
00000010
00000000
00001000
00000000
00000000
00000100
00000000
00010000
00000000
00000000
00001000
00000000
00100000
00000000
,  // measure 26
00010000
00000000
00000000
01000000
00000000
00200000
00000000
00000000
10300000
00000000
10000000
00000000
01000000
00000000
01000000
00000000
,  // measure 27
00200000
00000000
00000000
00302000
00000000
00000000
00013000
00000000
00000200
00000000
00000000
00000320
00000000
00000000
00000031
00000000
,  // measure 28
00000200
00000000
00000000
00002300
00000000
00000000
00013000
00000000
00200000
00000000
00000000
20300000
00000000
00000000
31000000
00000000
,  // measure 29
00100000
00000000
00000000
00100000
00000000
00000000
00220000
00000000
00000000
00000000
00000000
00000000
00000000
00000000
00330000
00000000
,  // measure 30
00000000
00010000
00000000
00000000
00010000
00000000
00100000
00000000
00001000
00000000
00000000
00001000
00000000
00000000
00000000
00000000
,  // measure 31
00000000
00010000
00000000
00000000
00010000
00000000
00000100
00000000
00000010
00000000
00000000
00000010
00000000
00000000
00000000
00000000
,  // measure 32
00000000
00000001
00000000
00000000
00000001
00000000
00000100
00000000
00000010
00000000
00000000
00001010
00000000
00000000
00000000
00000000
,  // measure 33
00000000
00001100
00000000
00001100
00000000
00000000
00010000
00000000
00001000
00000000
00000000
00010000
00000000
00000000
00000000
00000000
,  // measure 34
00000000
00000000
00001000
00000000
00010000
00000000
01000000
00000000
10000000
00000000
00000000
00100000
00000000
00000000
01000000
00000000
,  // measure 35
00000000
00000000
00010000
00000000
01000000
00000000
00000000
00001000
00000000
00000000
00010000
00000000
00000010
00000000
00001000
00000000
,  // measure 36
00000100
00000000
00000000
00000100
00000000
00000000
00001000
00000000
00000001
00000000
00000000
00000010
00000000
00000000
00000110
00000000
,  // measure 37
00000000
00000000
00000100
00000000
00010000
00000000
00001000
00000000
00000000
01000000
00000000
00000000
01000000
00000000
00100000
00000000
,  // measure 38
00000000
10000000
00000000
00010000
00000000
00000000
00010000
00000000
10000000
00000000
01000000
00000000
00000000
00100000
00000000
00000000
,  // measure 39
00100000
00001000
00010000
00000000
00000100
00000010
00000001
00000000
,  // measure 40
00000100
00001000
00010000
01000000
10000000
00100000
00010000
00001000
,  // measure 41
00020000
00001000
00001000
00031000
,  // measure 42
00100000
00000000
00000000
00000000
01000000
00000000
00010000
00000000
00001000
00000000
00000000
00010000
00000000
00000000
00001000
00000000
,  // measure 43
00022000
00000000
00000000
00033000
,  // measure 44
00000010
00001000
00000010
00010000
00001000
00100000
00010000
10000000
,  // measure 45
02000000
00100000
00100000
03100000
,  // measure 46
00001000
00000000
00000000
00000000
00010000
00000000
00000010
00000000
00000100
00000000
00000000
00001000
00000000
00000000
00010000
00000000
,  // measure 47
00021000
00000000
00000000
00001000
00000000
00000000
00002000
00000000
00000000
00000000
00000000
00000000
00000000
00000000
00033000
00000000
,  // measure 48
01000000
00010000
01000000
00001000
00010000
00000100
00001000
00000001
,  // measure 49
00000010
00000000
00000100
00000000
00000000
00000100
00000000
00001000
00000000
00000100
00000000
00000000
00010000
00000000
00001000
00000000
,  // measure 50
01000000
00100000
10000000
01000000
00010000
00001000
00000100
00000001
,  // measure 51
00000000
00000000
00001000
00000000
00000000
00001000
00000000
00000100
00000000
00001000
00000000
00000000
00000010
00000000
00001000
00000000
,  // measure 52
01000000
00100000
00010000
10000000
00100000
00010000
00001000
00000100
,  // measure 53
00000000
00000000
00001000
00000000
00000000
00001000
00000000
00010000
00000000
00001000
00000000
00000000
00100000
00000000
01000000
00000000
,  // measure 54
10000000
00100000
00010000
00001000
00010000
01000000
00010000
00000100
,  // measure 55
00000000
00000000
00000010
00000000
00000000
00000010
00000000
00000001
00000000
00000100
00000000
00000000
00000010
00000000
00001000
00000000
,  // measure 56
00000100
00000000
00000100
00000000
00000100
00000000
00000000
00010000
00000000
00000000
00010000
00000000
00001000
00000000
00000000
00011000
,  // measure 57
00000000
00000000
01100000
00000000
00000000
00100000
00000000
01000000
00000000
01000000
00000000
00000000
00010000
00000000
00100000
00000000
,  // measure 58
00001000
00000000
00010000
00000000
00000000
00010000
00000000
00001000
00000000
00001000
00000000
00000000
00011000
00000000
00011000
00000000
,  // measure 59
00000000
00000000
00000110
00000000
00000000
00000100
00000000
00000010
00000000
00000010
00000000
00000000
00001000
00000000
00000100
00000000
,  // measure 60
00010000
00000000
00001000
00000000
00000000
00001000
00000000
00010000
00000000
00010000
00000000
00000000
00011000
00000000
00011000
00000000
,  // measure 61
00000000
00000000
00101000
00000000
00000000
00001000
00000000
00100000
00000000
01000000
00000000
00000000
10000000
00000000
00100000
00000000
,  // measure 62
00010000
00000000
00001000
00000000
00000000
00010000
00000000
00001000
00000000
00000100
00000000
00000000
00000110
00000000
00000110
00000000
,  // measure 63
00000000
00000000
00010100
00000000
00000000
00010000
00000000
00000100
00000000
00000010
00000000
00000000
00000001
00000000
00000100
00000000
,  // measure 64
00001000
00000000
00000000
00000000
00100000
00010000
00000010
00001000
,  // measure 65
00011000
00000000
00000000
00000000
;

//---------------dance-double - ----------------
#NOTES:
     dance-double:
     :
     Easy:
     5:
     0.345612,0.353684,0.083712,0.301364,0.033485,243.000000,10.000000,36.000000,0.000000,0.000000,0.000000,0.345612,0.353684,0.083712,0.301364,0.033485,243.000000,10.000000,36.000000,0.000000,0.000000,0.000000:
// measure 0
00000000
00000000
00000000
00000000
,  // measure 1
10000000
00100000
01000000
01000000
,  // measure 2
00010000
00100000
00001000
00001000
,  // measure 3
00000100
00000010
00001000
00001000
,  // measure 4
00000100
00000000
00010000
00000000
00000010
00000000
00000100
00000100
,  // measure 5
00000001
00000100
00000010
00000010
,  // measure 6
00001000
00000100
00010000
00010000
,  // measure 7
00100000
01000000
00010000
00010000
,  // measure 8
00100000
00000000
00001000
00000000
01000000
00000000
00100000
00100000
,  // measure 9
20000000
32000000
03100000
00000000
,  // measure 10
00001000
00020000
00030100
00000000
,  // measure 11
00000020
00000032
00000103
00000000
,  // measure 12
00000010
00002000
00003100
00000000
,  // measure 13
00000002
00000023
00000130
00000000
,  // measure 14
00010000
00002000
00103000
00000000
,  // measure 15
02000000
23000000
30100000
00000000
,  // measure 16
01000000
00020000
00130000
00000000
,  // measure 17
00002000
00010000
00000000
00010000
,  // measure 18
00203000
00010000
00000000
00010000
,  // measure 19
02300000
00010000
00000000
00010000
,  // measure 20
23000000
00100000
00000000
30100000
,  // measure 21
00020000
00001000
00000000
00001000
,  // measure 22
00030200
00001000
00000000
00001000
,  // measure 23
00000320
00001000
00000000
00001000
,  // measure 24
00000032
00000100
00000000
00000103
,  // measure 25
00000010
00000000
00001000
00000000
00000100
00010000
00000100
00000000
,  // measure 26
00010000
00000000
00001000
00000000
00100000
00010000
01000000
00000000
,  // measure 27
00200000
20300000
32000000
03020000
,  // measure 28
00032000
00003200
00000302
00000023
,  // measure 29
00000130
00000000
00000000
00020000
00000000
00000000
00002000
00000000
00000000
00000000
00000000
00000000
00000000
00000000
00033000
00000000
,  // measure 30
01000000
00000000
00100000
00000000
10000000
00000000
01000000
00100000
,  // measure 31
00010000
00000000
01000000
00000000
00010000
00000000
00100000
00001000
,  // measure 32
00010000
00000000
00000100
00000000
00000010
00000000
00000001
00001000
,  // measure 33
00000000
00000010
00000000
00000010
00000000
00000000
00000000
00000000
00000100
00000000
00000000
00000000
00000100
00000000
00000000
00000000
,  // measure 34
00000000
00000010
00001000
00000100
,  // measure 35
00000000
00010000
00001000
00100000
,  // measure 36
00010000
00010000
01000000
01000000
,  // measure 37
00000000
00100000
10000000
00010000
,  // measure 38
00000000
00100000
01000000
10000000
,  // measure 39
00010000
01000000
00001000
00010000
,  // measure 40
00000100
00000010
00000001
00001000
,  // measure 41
00000020
00001000
00000100
00001000
,  // measure 42
00000130
00000000
00000000
00000000
00000001
00000000
00000000
00000000
00000010
00000000
00000000
00000100
00000000
00000000
00001000
00000000
,  // measure 43
00002200
00000000
00000000
00000000
,  // measure 44
00000000
00000000
00000000
00003300
,  // measure 45
00000200
00010000
00001000
00010000
,  // measure 46
00001300
00000000
00000000
00000000
01000000
00000000
00000000
00000000
00010000
00000000
00000000
01000000
00000000
00000000
00100000
00000000
,  // measure 47
00010000
00000000
00000000
00100000
00000000
00000000
00220000
00000000
00000000
00000000
00000000
00000000
00000000
00000000
00000000
00000000
,  // measure 48
00000000
00000000
00000000
00330000
,  // measure 49
00100000
00000000
00001000
00000000
00010000
00000000
00000100
00000010
,  // measure 50
00000001
00000000
00000100
00000000
00000010
00000000
00001000
00000100
,  // measure 51
00010000
00000000
01000000
00000000
10000000
00000000
00100000
01000000
,  // measure 52
00100000
00000000
01000000
00000000
00001000
00000000
00010000
00000100
,  // measure 53
00001000
00000000
00000010
00000000
00000100
00000000
00000001
00000100
,  // measure 54
00001000
00000000
00000100
00000000
00000010
00000000
00001000
00000100
,  // measure 55
00010000
00000000
00001000
00000000
01000000
00000000
00100000
10000000
,  // measure 56
00010000
00000000
00100000
00000000
01000000
00000000
00010000
00001000
,  // measure 57
00000000
00000000
00011000
00000000
00000000
00011000
00000000
00000000
00000000
00000000
00000000
00000000
00000100
00000000
00000000
00000000
,  // measure 58
00000010
00000001
00000010
00000000
00000001
00000100
00000001
00000000
,  // measure 59
00000000
00000110
00000000
00000000
00000010
00000000
00001000
00000000
,  // measure 60
00000100
00001000
00000100
00000000
00010000
00000100
00010000
00000000
,  // measure 61
00000000
00000000
00011000
00000000
00000000
00011000
00000000
00000000
00000000
00000000
00000000
00000000
01000000
00000000
00000000
00000000
,  // measure 62
10000000
00100000
10000000
00000000
01000000
00100000
01000000
00000000
,  // measure 63
00000000
01100000
00000000
00000000
00100000
00001000
00010000
00000000
,  // measure 64
00011000
00000000
00001000
00010000
,  // measure 65
00011000
00000000
00000000
00000000
;
