#VERSION:0.81;
#TITLE:Quest (This Can't Be All);
#SUBTITLE:;
#ARTIST:BLACKGRYPH0N & Baasik;
#TITLETRANSLIT:;
#SUBTITLETRANSLIT:;
#ARTISTTRANSLIT:;
#GENRE:Pop;
#ORIGIN:;
#CREDIT:;
#BANNER:[Nostalgia Is Lost] - Quest (This Can't Be All).png;
#BACKGROUND:[Nostalgia Is Lost] - Quest (This Can't Be All)-bg.png;
#PREVIEWVID:;
#JACKET:[Nostalgia Is Lost] - Quest (This Can't Be All)-jacket.png;
#CDIMAGE:;
#DISCIMAGE:;
#LYRICSPATH:;
#CDTITLE:;
#MUSIC:[Nostalgia Is Lost] - Quest (This Can't Be All).mp3;
#OFFSET:-0.094931;
#SAMPLESTART:78.959991;
#SAMPLELENGTH:15.000000;
#SELECTABLE:YES;
#BPMS:0.000=127.000,
112.000=63.500,
128.000=127.000;
#STOPS:;
#DELAYS:;
#WARPS:;
#TIMESIGNATURES:0.000=4=4;
#TICKCOUNTS:0.000=4;
#COMBOS:0.000=1;
#SPEEDS:0.000=1.000=0.000=0;
#SCROLLS:0.000=1.000;
#FAKES:;
#LABELS:0.000=Song Start;
#BGCHANGES:;
#KEYSOUNDS:;
#ATTACKS:
;

//---------------dance-single - ----------------
#NOTEDATA:;
#CHARTNAME:;
#STEPSTYPE:dance-single;
#DESCRIPTION:;
#CHARTSTYLE:;
#DIFFICULTY:Beginner;
#METER:1;
#RADARVALUES:0.087533,0.098036,0.018853,0.179105,0.000000,44.000000,2.000000,19.000000,0.000000,0.000000,0.000000,0.000000,0.000000,0.087533,0.098036,0.018853,0.179105,0.000000,44.000000,2.000000,19.000000,0.000000,0.000000,0.000000,0.000000,0.000000;
#CREDIT:;
#NOTES:
0000
0000
0000
0000
,
0000
0000
0000
0000
,
0000
0000
0000
0000
,
0000
0000
0000
0000
,
0020
0000
0000
0000
,
0030
0000
0000
0000
,
0200
0000
0000
0000
,
0300
0000
0000
0000
,
0002
0000
0000
0000
,
0003
0000
0000
0000
,
2000
0000
0000
0000
,
3000
0000
0000
0000
,
0200
0000
0000
0000
,
0320
0000
0000
0000
,
0230
0000
0000
0000
,
0320
0000
0000
0000
,
0032
0000
0000
0000
,
2003
0000
0000
0000
,
3002
0000
0000
0000
,
2003
0000
0000
0000
,
3000
0020
0000
0000
,
0030
0000
0000
0000
,
0000
0020
0000
0000
,
0030
0000
0000
0000
,
0000
0200
0000
0000
,
0300
0000
0000
0000
,
0000
0200
0000
0000
,
0300
0000
0000
0000
,
0001
0000
0001
0000
,
0001
0000
0001
0000
,
1000
0000
1000
0000
,
1000
0000
1000
0000
,
0100
0000
0000
0000
,
1000
0000
0000
0000
,
0100
0000
0000
0000
,
1000
0000
0000
0000
,
0001
0000
0000
0000
,
0100
0000
0000
0000
,
0001
0000
0000
0000
,
0100
0000
0000
0110
,
0000
0000
0010
0000
,
0000
0000
0010
0000
,
0000
0000
1000
0000
,
0000
0000
1000
0000
,
0000
0000
0001
0000
,
0000
0000
0001
0000
,
0000
0000
0100
0000
,
0000
0000
0110
0000
,
0200
0000
0000
0000
,
0000
0000
0000
0000
,
0302
0000
0000
0000
,
2003
0000
0000
0000
,
3000
0000
0000
0000
;

//---------------dance-single - ----------------
#NOTEDATA:;
#CHARTNAME:;
#STEPSTYPE:dance-single;
#DESCRIPTION:;
#CHARTSTYLE:;
#DIFFICULTY:Easy;
#METER:4;
#RADARVALUES:0.206038,0.367637,0.113119,0.075413,0.009427,133.000000,12.000000,8.000000,0.000000,0.000000,0.000000,0.000000,0.000000,0.206038,0.367637,0.113119,0.075413,0.009427,133.000000,12.000000,8.000000,0.000000,0.000000,0.000000,0.000000,0.000000;
#CREDIT:;
#NOTES:
0000
0000
0000
0000
,
0000
0000
0000
0000
,
0000
0000
0000
0000
,
0000
0000
0000
0000
,
0000
0000
1000
0000
0100
0000
0000
1000
,
0000
1000
0000
0000
0001
0000
0000
0100
,
0000
0000
0000
0001
0000
0000
0000
0010
,
0000
0000
0000
0000
,
0000
0100
0100
0000
,
1000
0000
0000
0000
0001
0000
0000
0100
,
0000
0000
0010
0000
0000
0010
0000
1000
,
0000
0000
0000
0000
,
0000
0001
0001
0000
,
0010
0000
0100
0000
,
0010
0000
0000
0001
0000
0001
0000
0000
,
1000
0000
0000
0000
,
0000
0000
0010
0000
0010
0000
0000
0100
,
0000
0000
0000
0000
0010
0000
0000
1000
,
0000
0000
0000
0001
0000
0000
0000
0010
,
0000
0000
0000
0000
0000
0100
0000
0100
,
0000
2100
0000
0000
,
0001
0000
0000
0000
0000
0001
0000
3001
,
0000
0102
0000
0000
,
1000
0000
0000
0000
0000
1000
0000
1003
,
0000
2010
0000
0000
,
0001
0000
0000
0000
0000
0001
0000
3001
,
0000
0012
0000
0000
,
1000
0000
0000
0000
0000
1000
0000
1003
,
0000
0000
0001
0001
1000
1000
1000
0100
,
0010
0010
0001
0001
1000
1000
1000
0010
,
0100
0000
0100
0100
0002
0000
1003
1000
,
0001
0010
0100
1000
0010
0010
0100
0100
,
0101
0000
0001
0001
,
1001
0000
1000
1000
,
1100
0000
0100
0010
,
0110
0000
0010
0001
,
1001
0000
1000
1000
,
1010
0000
0010
0010
,
0110
0000
0100
0100
,
0001
0010
0100
1001
,
0000
1000
0100
0001
,
0100
0010
0100
0100
,
0000
1000
0010
0001
,
0010
0100
0010
0010
,
0000
0001
0100
1000
,
0100
0010
0100
0100
,
0000
0010
1000
0001
,
0010
0000
0000
0000
0000
0000
0100
0000
0100
0000
0100
0000
,
0200
0000
0000
0000
,
0000
0000
0000
0000
,
2300
0000
0000
0000
,
3002
0000
0000
0000
,
0003
0000
0000
0000
;

//---------------dance-single - ----------------
#NOTEDATA:;
#CHARTNAME:;
#STEPSTYPE:dance-single;
#DESCRIPTION:;
#CHARTSTYLE:;
#DIFFICULTY:Hard;
#METER:8;
#RADARVALUES:0.471329,0.808801,0.216811,0.188532,0.146112,307.000000,23.000000,20.000000,0.000000,0.000000,0.000000,0.000000,0.000000,0.471329,0.808801,0.216811,0.188532,0.146112,307.000000,23.000000,20.000000,0.000000,0.000000,0.000000,0.000000,0.000000;
#CREDIT:;
#NOTES:
0000
0000
0000
0000
,
0000
0000
0000
0000
,
0000
0000
0000
0000
,
0000
0000
0000
0000
,
0000
0000
1000
0000
0001
0000
0010
0001
,
0100
0020
0000
0000
1030
0010
0000
1000
,
0001
0000
0010
0002
0000
0010
1000
0103
,
0001
1000
0001
0000
1000
0001
1000
0000
,
0100
0100
0010
0000
0200
0000
1300
0000
,
0100
2000
0000
0000
3001
1000
0000
0010
,
0100
0000
0001
0100
0000
0001
0000
0010
,
0100
0010
0100
0000
1000
0100
1000
0000
,
0001
0000
0100
0000
0010
0000
0100
0010
,
1000
0000
0001
0000
0010
0000
0100
0010
,
0001
0000
1000
0001
0000
1000
0000
0100
,
0001
0100
0010
0000
0100
0010
0001
0000
,
1000
1000
0001
0000
0100
0001
0000
0010
,
0000
0200
0000
0000
1300
0100
0000
1000
,
0001
0000
0100
0010
0000
0100
0000
0001
,
1000
0100
1000
0000
0100
0010
0010
0100
,
1000
0000
1002
0000
0100
0013
0001
0100
,
0000
0010
0100
0010
0000
1000
0010
1000
,
0001
0000
2001
0000
3100
1000
0010
0100
,
0010
0000
1000
0010
0000
1000
0001
1000
,
0100
0000
0120
0000
0031
0010
0001
0100
,
0110
0000
0010
1000
0000
0001
1000
0001
,
0010
0000
0210
0000
1300
0100
0010
0001
,
0100
0000
0010
0100
0000
0001
0000
1000
,
0001
0000
0001
0000
0010
0001
0010
0100
1000
0000
1000
0000
1000
0000
0001
0010
,
0001
0000
0001
0000
0100
0010
1000
0001
1000
0000
1000
0000
1000
0000
0100
1000
,
0010
0000
0010
0000
0100
0010
1000
0001
1000
0000
1000
0000
1000
0000
0100
0010
,
0100
0000
1000
0000
0100
0000
1000
0000
0010
0000
0100
0000
0010
0000
0100
0000
0001
1000
0001
1000
0001
1000
0001
1000
0001
1000
0001
1000
0100
0000
0010
0000
,
0100
0000
0110
0000
0100
1000
0010
0100
,
0001
0000
0101
0000
0001
0000
1001
1000
,
0100
0000
0110
0000
0010
0001
0100
0001
,
1000
0000
1100
0000
0100
0000
0010
0100
,
0010
0000
0011
0000
0001
1000
0010
0001
,
0010
0000
0110
0000
0100
0000
0001
1000
,
0001
0001
0100
0100
0010
0010
1000
1000
,
0001
1000
0001
1000
0001
1000
0001
1000
0001
1000
0001
1000
0010
0000
0100
0000
,
0110
0100
0101
0000
0001
0000
1000
0001
,
0000
1000
0000
0200
0310
0000
0200
1300
,
1100
1000
1001
0000
0001
0000
0100
0001
,
0000
0010
0000
0200
0310
0000
0200
1300
,
1100
1000
1010
0000
0010
0000
0100
0010
,
0000
0100
0000
0002
0013
0000
0002
0103
,
0101
0100
0110
0000
0010
0000
1000
0000
,
0001
0000
0000
1000
0000
0000
0001
0000
0000
1000
0000
0000
1010
0000
0000
0000
0110
0000
0000
0000
0101
0000
0000
0000
,
0002
1000
0000
1000
0000
1000
0000
1003
,
2000
0100
0000
0100
0000
0100
0000
3100
,
0200
0010
0000
0010
0000
0010
0000
0310
,
0020
0001
0000
0001
0000
0001
0000
0002
,
0033
0000
0000
0000
;

//---------------dance-single - ----------------
#NOTEDATA:;
#CHARTNAME:;
#STEPSTYPE:dance-single;
#DESCRIPTION:;
#CHARTSTYLE:;
#DIFFICULTY:Medium;
#METER:6;
#RADARVALUES:0.286837,0.490182,0.056559,0.094266,0.047133,197.000000,6.000000,10.000000,0.000000,0.000000,0.000000,0.000000,0.000000,0.286837,0.490182,0.056559,0.094266,0.047133,197.000000,6.000000,10.000000,0.000000,0.000000,0.000000,0.000000,0.000000;
#CREDIT:;
#NOTES:
// measure 0
0000
0000
0000
0000
,  // measure 1
0000
0000
0000
0000
,  // measure 2
0000
0000
0000
0000
,  // measure 3
0000
0000
0000
0000
,  // measure 4
0000
0000
1000
0000
0001
0000
0000
1000
,  // measure 5
0000
0200
0000
0000
0310
0100
0000
1000
,  // measure 6
0000
0000
0000
0010
0000
0100
0000
0010
,  // measure 7
0000
0000
0000
0000
,  // measure 8
0000
1000
1000
0000
0001
0000
0010
0000
,  // measure 9
0100
0020
0000
0000
0031
0010
0000
0100
,  // measure 10
0000
0000
1000
0001
0000
1000
0000
0010
,  // measure 11
0000
0000
0000
0000
,  // measure 12
0000
0100
0100
0000
0001
0000
0000
1000
,  // measure 13
0001
0000
0010
0000
0100
0000
0010
0001
,  // measure 14
0100
0000
0010
0100
0000
0010
0000
0000
,  // measure 15
1000
0000
0000
0000
,  // measure 16
0000
0001
0001
0000
0010
0100
0000
0010
,  // measure 17
0000
0002
0000
0000
0103
0001
0000
1000
,  // measure 18
0000
0000
0000
0100
0000
1000
0000
0010
,  // measure 19
0000
0000
0000
0000
0100
0010
0100
0010
,  // measure 20
0000
2010
0000
0001
,  // measure 21
0100
0000
0000
0001
0000
0001
3000
0000
,  // measure 22
0000
0102
0000
0000
,  // measure 23
1000
0000
0000
0100
0000
0100
0003
0000
,  // measure 24
0000
0012
0000
0000
,  // measure 25
1000
0000
0000
0100
0000
0100
0003
0000
,  // measure 26
0000
2100
0000
0000
,  // measure 27
0001
0000
0000
0010
0000
0010
3000
0000
,  // measure 28
0100
0000
0100
0000
0100
0000
1000
0100
0010
0000
0010
0000
0010
0000
0001
1000
,  // measure 29
0001
0000
0001
0000
0001
0000
0100
0001
0010
0000
0010
0000
0010
0000
0100
0010
,  // measure 30
0100
0000
0100
0000
0100
0000
1000
0100
0010
0000
0010
0000
0010
0000
0001
1000
,  // measure 31
0001
0000
0001
0000
0001
0000
0100
0001
0010
0000
0010
0000
0010
0000
0100
0010
,  // measure 32
0100
0000
0100
0000
0100
0000
1000
0100
,  // measure 33
0010
0000
0010
0000
0010
0000
0001
1000
,  // measure 34
0001
0000
0001
0000
0001
0000
0100
0001
,  // measure 35
0010
0000
0010
0000
0010
0000
0100
0010
,  // measure 36
0100
0000
0100
0000
0100
0000
1000
0100
,  // measure 37
0010
0000
0010
0000
0010
0000
0001
1000
,  // measure 38
0001
0100
0001
0100
0010
1000
0010
1000
,  // measure 39
0001
0010
0100
1000
0001
0100
1001
0000
,  // measure 40
1000
0000
0100
0000
0100
0000
0010
0100
,  // measure 41
0000
1000
0000
0010
0100
0000
0001
0100
,  // measure 42
0001
0000
1000
0000
0100
0000
0010
0100
,  // measure 43
0000
1000
0000
0010
0100
0000
0001
0100
,  // measure 44
0001
0000
1000
0000
0100
0000
0010
0100
,  // measure 45
0000
1000
0000
0010
0100
0000
0001
0010
,  // measure 46
0001
1000
0001
0010
,  // measure 47
0100
0000
0000
0100
0000
0000
1000
0000
0100
0000
0010
0000
,  // measure 48
0012
0000
0000
0000
,  // measure 49
0000
0000
0000
0000
,  // measure 50
2003
0000
0000
0000
,  // measure 51
3020
0000
0000
0000
,  // measure 52
0030
0000
0000
0000
;
