#TITLE:Popocatepetl;
#SUBTITLE:;
#ARTIST:Fey;
#TITLETRANSLIT:;
#SUBTITLETRANSLIT:;
#ARTISTTRANSLIT:;
#GENRE:;
#CREDIT:;
#BANNER:[Nostalgia Is Lost] - Popocatepetl.png;
#BACKGROUND:[Nostalgia Is Lost] - Popocatepetl-bg.png;
#LYRICSPATH:;
#CDTITLE:;
#MUSIC:[Nostalgia Is Lost] - Popocatepetl.ogg;
#OFFSET:-0.455;
#SAMPLESTART:24.306;
#SAMPLELENGTH:17.853;
#SELECTABLE:YES;
#BPMS:0.000=160.981
;
#STOPS:
;
#BGCHANGES:15.000=[Nostalgia Is Lost] - Popocatepetl.avi=1.000=0=0=0=StretchNoLoop==CrossFade_Faster==,
300.000=Popocatepetl-bg.png=1.000=0=0=1=====,
99999=-nosongbg-=1.000=0=0=0 // don't automatically add -songbackground-
;
#KEYSOUNDS:;
#ATTACKS:;

//---------------dance-single - ----------------
#NOTES:
     dance-single:
     :
     Hard:
     8:
     0.607,0.622,0.258,0.241,0.026,435.000,30.000,28.000,0.000,0.000,0.000,0.607,0.622,0.258,0.241,0.026,435.000,30.000,28.000,0.000,0.000,0.000:
0000
0000
0000
0000
,
0000
0000
0000
0000
,
0000
0000
0000
0000
,
0000
0000
0000
0000
,
1000
0000
0000
0000
0001
0000
0000
0001
0010
0000
0000
0000
0100
0000
0000
0100
,
1000
0000
0000
0000
0001
0000
0000
0001
0100
0000
0010
0000
0000
0100
0000
0000
,
0010
0000
0000
0000
1000
0000
0000
1000
0001
0000
0000
0000
1000
0000
0000
1000
,
0001
0010
0200
0300
,
0100
1000
0001
0100
0010
0010
0010
0000
,
0100
0001
1000
0100
0010
0010
0010
0000
,
0001
0010
0001
0000
1000
0010
1000
0000
,
0010
0100
0001
0100
0001
0001
0001
0000
,
0010
0100
0010
0100
1000
1000
1000
0000
,
0100
1000
0001
1000
0001
0001
0001
0000
,
0100
0001
0100
0000
0010
0100
0010
0000
,
1000
0010
1000
0001
0010
0100
1000
0000
,
0001
0101
1000
1100
,
0100
0010
0001
1000
0000
1000
0010
0100
,
0001
0101
0001
1001
,
1000
0100
0010
0001
0000
0001
0010
0100
,
1000
1100
0001
0101
,
0001
0100
0010
1000
0000
1000
0010
1000
,
0001
0010
1000
0010
1000
0001
0100
1000
,
0000
0001
0000
0100
0000
0010
1000
0001
,
2000
3200
0320
0032
,
2003
0010
0100
0010
,
3002
0203
0320
2030
,
3002
0010
2000
3003
,
0001
0011
1000
1010
,
0001
0100
0010
1000
0000
1000
0001
0010
,
0100
1100
1000
1001
,
0001
0100
0010
1000
0000
0010
0100
0001
,
1000
1010
0001
0011
,
0001
1000
0010
0100
0000
0100
0001
0100
,
0001
0100
1000
0100
1000
0001
0010
1000
,
0000
0001
0000
0010
0100
1000
0001
0000
,
0020
0230
2300
3002
,
0203
1000
0001
0310
,
0120
1030
2010
3001
,
1002
0010
1000
0103
,
0201
0310
0120
1030
,
2010
0000
0100
0000
0010
0000
3001
0010
,
0100
0000
0010
0100
1000
0000
0100
1000
,
0001
0000
0100
0000
0010
0000
1000
0010
,
2000
0001
0001
3001
,
0001
0010
0100
0010
0100
0100
0010
0010
,
0100
0010
0100
1000
0100
0100
1000
1000
,
0001
0100
0001
0001
0100
0010
0100
0100
,
0010
0100
0010
1000
0010
0010
1000
1000
,
0010
1000
0001
1000
0001
0001
0010
0010
,
0001
0010
0001
1000
0001
0001
1000
1000
,
0010
1000
0010
0100
0001
0100
0001
1000
,
0000
0001
0000
1000
0001
0000
1001
0000
,
1000
0010
0001
0010
1000
0010
0001
0010
,
1000
0100
0001
0100
1000
0100
0001
0100
,
1000
0010
0001
0010
0001
1000
0100
1000
,
0100
0001
1000
0100
1100
1000
0001
0100
,
0101
0001
1000
0001
1001
1000
0100
1000
,
1100
0100
0001
1000
0010
0001
1000
0001
,
0101
0001
1000
0010
1010
1000
0001
1000
,
1001
0001
0010
1000
0001
0100
1000
0001
,
1000
0100
0001
0100
1000
0001
0100
0010
,
1000
0010
0001
0010
1000
0100
0010
0001
,
0100
0101
0001
1001
,
0001
0010
0100
1000
0000
0001
0100
0010
,
1000
0100
0001
0100
1000
0100
1000
0001
,
0100
0001
0100
1000
0100
0001
1000
0001
,
1000
1001
0001
1001
,
0001
0010
0100
1000
0001
1000
0001
1000
,
0002
0000
0003
0000
1000
0001
0010
0100
,
0020
0000
0030
0000
0100
0010
0100
1000
,
0002
0003
2000
3000
,
0010
0000
0000
0010
0000
0000
0010
0000
,
0100
0000
0001
0000
0100
0001
0100
0000
,
0001
0000
1000
0000
0100
1000
0100
0000
,
0010
0001
1000
0001
1000
0010
0100
0001
,
1000
0000
0000
0000
;

//---------------dance-single - ----------------
#NOTES:
     dance-single:
     :
     Medium:
     6:
     0.435,0.426,0.146,0.181,0.000,315.000,17.000,21.000,0.000,0.000,0.000,0.435,0.426,0.146,0.181,0.000,315.000,17.000,21.000,0.000,0.000,0.000: // measure 0
0000
0000
0000
0000
,  // measure 1
0000
0000
0000
0000
,  // measure 2
0000
0000
0000
0000
,  // measure 3
0000
0000
0000
0000
,  // measure 4
0001
0000
0010
0100
0010
0000
0000
0100
,  // measure 5
0000
0100
0000
0100
0000
0000
0100
0000
,  // measure 6
0000
0000
1000
0100
1000
0000
0000
0100
,  // measure 7
0000
0100
0000
0100
0000
0000
0000
0000
,  // measure 8
1000
0010
0100
0000
0110
0000
0000
0000
,  // measure 9
0100
0001
1000
0000
1001
0000
0000
0000
,  // measure 10
0001
1000
0100
0000
1000
0001
0100
0000
,  // measure 11
0001
1000
0001
0000
1001
0000
0000
0000
,  // measure 12
1000
0001
0010
0000
0011
0000
0000
0000
,  // measure 13
0001
1000
0010
0000
1010
0000
0000
0000
,  // measure 14
1000
0001
0010
0000
0100
1000
0010
0000
,  // measure 15
0100
0001
1000
0100
0010
0001
0010
0000
,  // measure 16
0001
0000
0000
1000
0001
0000
0000
1000
,  // measure 17
0001
0000
0001
0100
0000
0100
0010
0000
,  // measure 18
1000
0010
1000
0001
,  // measure 19
0010
0000
0000
0010
0000
0100
0010
0001
,  // measure 20
0100
0000
0000
0010
0100
0000
0000
0010
,  // measure 21
0100
0000
0100
0001
0000
0001
1000
0000
,  // measure 22
0100
0000
0010
0000
0001
0001
0000
0002
,  // measure 23
0000
1000
1000
1000
,  // measure 24
2003
3100
0200
0310
,  // measure 25
0020
0001
0001
0001
,  // measure 26
0032
1003
2000
3001
,  // measure 27
0002
1003
2002
3003
,  // measure 28
1000
0000
0000
0001
1000
0000
0000
0001
,  // measure 29
1000
0000
1000
0100
0000
0100
0010
0000
,  // measure 30
0001
1000
0010
0100
,  // measure 31
0001
0000
0000
0001
0000
0100
0001
1000
,  // measure 32
0100
0000
0000
0010
0100
0000
0000
0010
,  // measure 33
0100
0000
0100
1000
0000
1000
0001
0000
,  // measure 34
0100
0010
0100
0010
,  // measure 35
2000
0001
0001
0001
,  // measure 36
3001
0010
0001
1000
,  // measure 37
0010
0010
0010
0010
,  // measure 38
0110
0100
0101
0001
,  // measure 39
2002
0000
0000
3003
,  // measure 40
1000
0100
0010
0100
,  // measure 41
0010
0010
0010
0010
,  // measure 42
0011
0001
1001
1000
,  // measure 43
1001
0001
0100
0010
,  // measure 44
0220
0000
0000
0330
,  // measure 45
0100
0000
0010
0000
1000
0010
1000
0010
,  // measure 46
1000
0000
0001
0000
0010
0001
0010
0001
,  // measure 47
0010
0000
0100
0000
0010
0100
0010
0100
,  // measure 48
1000
0000
0001
0000
1000
0001
1000
0001
,  // measure 49
1000
0100
1000
0000
0100
0000
0010
0000
,  // measure 50
0001
0010
0001
0000
0010
0000
0001
0000
,  // measure 51
1000
0001
1000
0000
0010
0100
0010
0000
,  // measure 52
0100
0001
1000
0001
,  // measure 53
0010
0000
0001
0000
0010
0001
0010
0001
,  // measure 54
1000
0000
0001
0000
1000
0001
1000
0001
,  // measure 55
1000
0000
0010
0000
0100
0010
0100
0010
,  // measure 56
0100
0000
0001
0000
0100
0001
0100
0000
,  // measure 57
0001
1000
0001
0000
1000
0100
1000
0000
,  // measure 58
0100
0010
0001
1000
,  // measure 59
0010
1000
0010
0000
0100
0010
0100
0000
,  // measure 60
0001
0100
0001
0000
1000
0000
0001
0000
,  // measure 61
0011
0000
0010
0000
0001
0000
0010
0001
,  // measure 62
1000
0000
0001
0000
1000
0000
0001
1000
,  // measure 63
0020
0030
2000
3000
,  // measure 64
0010
0000
0100
0000
0010
0100
0010
0000
,  // measure 65
0100
0001
0100
0000
0101
0000
0000
0000
,  // measure 66
0001
1000
0001
0000
1001
0000
0000
0000
,  // measure 67
1000
0100
1000
0000
0100
0010
0100
0000
,  // measure 68
0010
0001
0010
0000
0011
0000
0000
0000
,  // measure 69
0002
0003
0010
0001
,  // measure 70
2000
3000
0001
1000
,  // measure 71
0020
0030
0020
0030
,  // measure 72
0200
0300
0000
0000
,  // measure 73
0001
0100
0001
0001
,  // measure 74
1000
0001
1000
1000
,  // measure 75
0100
1000
0100
0000
0010
0100
0010
0000
,  // measure 76
0001
0000
0000
0000
;

//---------------dance-single - ----------------
#NOTES:
     dance-single:
     :
     Easy:
     4:
     0.284,0.360,0.190,0.017,0.000,207.000,22.000,2.000,0.000,0.000,0.000,0.284,0.360,0.190,0.017,0.000,207.000,22.000,2.000,0.000,0.000,0.000: // measure 0
0000
0000
0000
0000
,  // measure 1
0000
0000
0000
0000
,  // measure 2
0000
0000
0000
0000
,  // measure 3
0000
0000
0000
0000
,  // measure 4
1000
0010
0010
0000
,  // measure 5
0100
0100
0100
0000
,  // measure 6
0001
1000
1000
0000
,  // measure 7
0100
0100
0100
0000
,  // measure 8
0010
0001
0010
0000
,  // measure 9
0001
1000
0001
0000
,  // measure 10
1001
0000
0110
0000
,  // measure 11
1001
0000
1000
0001
,  // measure 12
0010
0100
0010
0000
,  // measure 13
0001
1000
0001
0000
,  // measure 14
1001
0000
0110
0000
,  // measure 15
1001
0000
0000
0000
,  // measure 16
1000
0000
1000
0000
,  // measure 17
0100
0100
0100
0000
,  // measure 18
0010
0001
1000
0001
,  // measure 19
0100
0000
0010
1000
,  // measure 20
0001
0000
0001
0000
,  // measure 21
0010
0010
0010
0000
,  // measure 22
0100
0010
0100
1000
,  // measure 23
0001
0000
1000
1000
,  // measure 24
1000
0000
0010
0000
,  // measure 25
1000
0000
0001
0000
,  // measure 26
0010
0001
0100
0001
,  // measure 27
0100
0100
0100
0000
,  // measure 28
0010
0000
0010
0000
,  // measure 29
0100
0100
0100
0000
,  // measure 30
0010
1000
0001
1000
,  // measure 31
0001
0000
0010
0100
,  // measure 32
0010
0000
0010
0000
,  // measure 33
0100
0100
0100
0000
,  // measure 34
1000
0100
1000
0001
,  // measure 35
0100
0000
0010
1000
,  // measure 36
0001
0000
0010
0000
,  // measure 37
0100
0100
0100
0000
,  // measure 38
1100
0000
0101
0000
,  // measure 39
1001
0000
0000
0000
,  // measure 40
1000
0000
0010
0000
,  // measure 41
0100
0000
0001
0000
,  // measure 42
1000
1000
0001
0001
,  // measure 43
2002
0000
0000
0000
,  // measure 44
3003
0000
0000
0000
,  // measure 45
1000
0100
0010
0010
,  // measure 46
0001
0010
0001
0001
,  // measure 47
1000
1000
0010
0010
,  // measure 48
0100
0010
0100
0100
,  // measure 49
0001
0100
0001
0001
,  // measure 50
1000
0100
1000
1000
,  // measure 51
0100
0000
0010
0000
,  // measure 52
0001
1000
0001
0000
,  // measure 53
1000
0010
0100
0010
,  // measure 54
0100
0001
1000
0001
,  // measure 55
1000
0100
0010
0100
,  // measure 56
0010
0001
0011
0001
,  // measure 57
1001
1000
1010
0010
,  // measure 58
0110
0100
0010
0100
,  // measure 59
0101
0001
1001
1000
,  // measure 60
1100
0100
0010
0001
,  // measure 61
1000
0010
1000
0010
,  // measure 62
1000
0001
1000
0001
,  // measure 63
0010
0000
0010
0000
,  // measure 64
0001
0000
0001
0000
,  // measure 65
0010
0100
0010
0100
,  // measure 66
1000
0001
1000
0001
,  // measure 67
0100
0000
0100
0000
,  // measure 68
0010
0000
0010
0000
,  // measure 69
1010
0000
0000
0000
,  // measure 70
0011
0000
0000
0000
,  // measure 71
1100
0000
0101
0000
,  // measure 72
1001
0000
0000
0000
,  // measure 73
1000
0100
0010
0000
,  // measure 74
0001
1000
0010
0000
,  // measure 75
0100
0000
0001
0000
,  // measure 76
1000
0000
0000
0000
;

//---------------dance-single - ----------------
#NOTES:
     dance-single:
     :
     Beginner:
     1:
     0.112,0.131,0.000,0.000,0.000,91.000,0.000,0.000,0.000,0.000,0.000,0.112,0.131,0.000,0.000,0.000,91.000,0.000,0.000,0.000,0.000,0.000: // measure 0
0000
0000
0000
0000
,  // measure 1
0000
0000
0000
0000
,  // measure 2
0000
0000
0000
0000
,  // measure 3
0000
0000
0000
0000
,  // measure 4
1000
0000
0000
0000
,  // measure 5
0001
0000
0001
0000
,  // measure 6
0010
0000
0000
0000
,  // measure 7
0100
0000
0100
0000
,  // measure 8
1000
0000
0000
0000
,  // measure 9
0001
0000
0000
0000
,  // measure 10
1000
0000
1000
0000
,  // measure 11
1000
0000
0000
0000
,  // measure 12
0001
0000
0000
0000
,  // measure 13
1000
0000
0000
0000
,  // measure 14
0001
0000
0001
0000
,  // measure 15
0001
0000
0000
0000
,  // measure 16
0100
0000
0100
0000
,  // measure 17
0100
0000
0000
0000
,  // measure 18
0010
0000
0000
0000
,  // measure 19
0010
0000
0000
0000
,  // measure 20
1000
0000
1000
0000
,  // measure 21
1000
0000
0000
0000
,  // measure 22
0001
0000
0000
0000
,  // measure 23
0001
0000
0000
0000
,  // measure 24
0010
0000
0000
0000
,  // measure 25
0000
0000
0000
0000
,  // measure 26
0100
0000
0000
0000
,  // measure 27
0000
0000
0000
0000
,  // measure 28
0010
0000
0010
0000
,  // measure 29
0010
0000
0000
0000
,  // measure 30
0100
0000
0000
0000
,  // measure 31
0100
0000
0000
0000
,  // measure 32
1000
0000
1000
0000
,  // measure 33
1000
0000
0000
0000
,  // measure 34
0001
0000
0000
0000
,  // measure 35
0001
0000
0000
0000
,  // measure 36
0100
0000
0000
0000
,  // measure 37
0000
0000
0000
0000
,  // measure 38
0010
0000
0000
0000
,  // measure 39
0010
0000
0000
0000
,  // measure 40
1000
0000
0000
0000
,  // measure 41
0000
0000
0000
0000
,  // measure 42
0001
0000
0000
0000
,  // measure 43
0001
0000
0000
0000
,  // measure 44
0010
0000
0000
0000
,  // measure 45
0100
0000
0000
0000
,  // measure 46
1000
0000
0000
0000
,  // measure 47
0001
0000
1000
0000
,  // measure 48
0001
0000
0000
0000
,  // measure 49
0100
0000
0000
0000
,  // measure 50
0010
0000
0000
0000
,  // measure 51
1000
0000
0001
0000
,  // measure 52
1000
0000
0000
0000
,  // measure 53
0001
0000
0001
0000
,  // measure 54
0010
0000
0010
0000
,  // measure 55
0100
0000
1000
0000
,  // measure 56
0001
0000
0100
0000
,  // measure 57
0100
0000
0010
0000
,  // measure 58
0010
0000
1000
0000
,  // measure 59
0001
0000
0001
0000
,  // measure 60
0010
0000
0010
0000
,  // measure 61
0100
0000
0000
0000
,  // measure 62
1000
0000
0000
0000
,  // measure 63
0001
0000
0001
0000
,  // measure 64
0001
0000
0000
0000
,  // measure 65
0100
0000
0000
0000
,  // measure 66
0010
0000
0000
0000
,  // measure 67
1000
0000
1000
0000
,  // measure 68
1000
0000
0000
0000
,  // measure 69
0001
0000
0000
0000
,  // measure 70
1000
0000
0000
0000
,  // measure 71
0001
0000
0001
0000
,  // measure 72
0001
0000
0000
0000
,  // measure 73
0010
0000
0000
0000
,  // measure 74
0100
0000
0000
0000
,  // measure 75
0010
0000
0010
0000
,  // measure 76
0010
0000
0000
0000
;
