#TITLE:One More Lovely;
#SUBTITLE:;
#ARTIST:Risk Junk;
#TITLETRANSLIT:;
#SUBTITLETRANSLIT:;
#ARTISTTRANSLIT:;
#GENRE:;
#CREDIT:;
#BANNER:[Nostalgia Is Lost] - One More Lovely.png;
#BACKGROUND:[Nostalgia Is Lost] - One More Lovely-bg.png;
#LYRICSPATH:;
#CDTITLE:;
#MUSIC:One More Lovely.ogg;
#OFFSET:-2.664000;
#SAMPLESTART:12.255001;
#SAMPLELENGTH:12.000000;
#LASTBEATHINT:140.000000;
#SELECTABLE:YES;
#BPMS:0.000000=200.000000
;
#STOPS:140.000000=0.300000
;
#BGCHANGES:;
#KEYSOUNDS:;
#ATTACKS:;

//---------------dance-single - ----------------
#NOTES:
     dance-single:
     :
     Hard:
     9:
     0.682366,0.794405,0.379366,0.163817,0.228482,491.000000,44.000000,19.000000,0.000000,0.000000,0.000000,0.682366,0.794405,0.379366,0.163817,0.228482,491.000000,44.000000,19.000000,0.000000,0.000000,0.000000:
1000
0000
0010
0000
0100
0001
0100
0000
,
0001
0000
0100
0000
0010
1000
0010
0000
,
1000
0000
0100
0000
0010
0001
0010
0000
,
0001
0010
0100
0010
0100
1000
0001
0001
,
1000
0000
0100
0000
1000
0100
0010
0000
,
0100
0000
0010
0000
0001
0010
0001
0000
,
0100
0000
0010
0000
1000
0010
1000
0000
,
0002
0000
0000
0000
,
0103
0001
0000
0001
1000
0010
1000
0100
,
0000
1000
0000
1000
0001
0100
0010
0100
,
0000
0100
0000
0100
0001
0010
0100
1000
,
0001
0001
0100
0100
0001
0001
1000
1000
,
0000
0100
0000
0010
0001
0100
1000
0100
,
0000
0100
0000
0100
0010
1000
0001
0010
,
0000
0010
0000
0010
0001
1000
0010
1000
,
0001
0010
0100
1001
,
0001
0000
0010
0000
0100
0000
1001
0001
,
0100
1000
0000
1000
0100
0001
0000
0001
,
0100
0000
0010
0000
1000
0000
0001
0000
1000
0100
1000
0000
0010
0000
0100
0000
,
0002
1000
0000
1000
,
2003
0001
0000
3001
,
0002
1000
0000
1003
,
2000
0001
0000
3001
,
0200
0010
0000
0310
,
0020
0100
0000
0130
,
0200
0010
0000
0310
,
0020
0000
0000
1030
,
1001
0001
0000
0001
,
0010
1000
0010
0100
,
0010
0010
0000
0100
,
1000
0001
0100
0001
,
0010
0010
0000
0001
,
0010
0100
0010
0001
,
1000
1000
0000
0100
,
1000
0001
0000
1000
0000
0100
0000
0000
,
0000
0000
0000
0000
1000
0001
1000
0000
0001
0000
1000
0000
1001
0000
0000
0000
,
0001
1000
0100
0000
1000
0001
0100
0000
,
0001
1000
0010
0000
0100
0010
2000
0000
,
0001
0000
0001
0000
3001
0010
0100
0000
,
0011
0100
1010
1002
,
0103
2001
3100
1020
,
1000
0100
1030
1002
,
0013
2001
3100
0020
,
0001
0100
0031
1100
,
0100
0010
0011
0110
,
0011
0101
1010
1001
,
0001
0100
1010
0101
,
1100
0011
1100
1001
,
0001
0100
0110
1001
,
1100
0110
0011
1001
,
0001
0000
0100
0000
0101
0000
0001
0100
,
0000
0010
0000
0100
0000
0000
0001
1000
,
0010
1000
0001
0010
0100
0010
0001
1000
,
0010
1000
0001
0010
0100
1000
0001
1000
,
0100
1000
0001
0010
0100
0010
0001
1000
,
0010
1000
0001
0010
0100
1000
0001
0100
,
0010
0100
0010
1000
0100
0010
0100
1000
,
0001
0100
0010
1000
0100
0010
0100
1000
,
0001
0100
0001
0010
0100
1000
0001
0100
,
0001
0010
0100
1000
0001
0010
0001
0100
,
0010
0000
1000
0000
0001
0000
0010
0001
0000
0010
0001
0000
0010
0000
0100
0000
,
1000
0000
0010
0000
0100
0000
0001
0100
0000
0001
0100
0000
0010
0000
1000
0000
,
0001
0000
0010
0000
0100
0000
1000
0100
0000
1000
0100
0000
1000
0000
0010
0000
,
0001
0000
0010
0000
0100
0000
0001
1000
0000
1000
0001
0000
0010
0000
0100
0000
,
0010
0000
0001
0000
1000
0000
0010
1000
0000
0010
1000
0000
0010
0000
0100
0000
,
0001
0000
0010
0000
0100
0000
1000
0001
0000
1000
0001
0000
0010
0000
0000
0000
,
0100
1000
0010
0001
,
0010
0000
0000
0000
0100
0000
0000
0000
0001
0000
0000
1000
0100
0000
0000
0100
,
0010
0000
0000
0010
0001
0000
0000
0001
0010
0000
0000
0010
0100
0000
0000
0100
,
1000
0000
0000
1000
0010
0000
0000
0010
0100
0000
0000
0100
0001
0000
0000
0001
,
1000
0000
0000
1000
0001
0000
0000
0001
1000
0000
0000
1000
0001
0000
0000
0001
,
0100
0000
0000
0100
0001
0000
0000
0001
1000
0000
0010
0000
2000
0000
0000
0000
,
0000
0000
0000
0000
3200
0000
0000
0000
0300
0000
0000
0010
0001
0000
0000
0001
,
0010
0000
0000
0010
0100
0000
0000
0100
0010
0000
0000
0010
0100
0000
0000
0100
,
1000
0000
0000
1000
0001
0000
0000
0001
0100
0000
0000
0100
0010
0000
0000
0010
,
1000
0000
0000
1000
0001
0000
0010
0000
0100
0000
1000
0000
1001
0000
0000
0000
,
0001
0010
0110
0011
,
0110
1100
0101
1001
,
0001
0100
0101
1100
,
0101
0011
1010
1001
,
0000
0000
0001
0010
,
0100
1000
0001
0100
,
0000
0000
0000
0000
0001
0000
1000
0100
,
0010
0100
1000
0010
0100
0001
0010
0100
,
0010
0001
1000
0010
1000
0001
0100
0001
,
0100
0000
0001
0000
1000
0000
0010
0000
1000
0000
0010
0000
0100
0001
1000
0001
,
1000
0001
1000
0001
1000
0001
1000
0001
1000
0001
1000
0001
1000
0001
0100
0010
,
1000
0001
0100
0020
0000
0000
0000
0000
0000
0000
0000
0000
0030
0000
0000
0000
;

//---------------dance-single - ----------------
#NOTES:
     dance-single:
     :
     Medium:
     7:
     0.518549,0.601381,0.387988,0.405232,0.004311,329.000000,45.000000,47.000000,0.000000,0.000000,0.000000,0.518549,0.601381,0.387988,0.405232,0.004311,329.000000,45.000000,47.000000,0.000000,0.000000,0.000000:
1000
0000
0001
0000
0010
0100
0010
0000
,
0001
0000
1000
0000
0010
0100
0010
0000
,
1000
0000
0001
0000
0100
0010
0100
0000
,
0010
0100
0010
0010
,
1000
0000
0010
0000
0100
0001
0100
0000
,
0001
0000
0010
0000
0100
1000
0100
0000
,
1000
0000
0010
0000
0100
0001
1000
0020
,
0000
0000
0000
0000
,
0130
0010
0000
0010
1000
0000
0001
0000
,
0010
0100
0000
1000
0100
0000
1000
0000
,
0010
0100
0000
0001
0010
0000
0001
1000
,
0001
0010
0001
0010
0100
1000
0100
1000
,
0001
0000
0100
0000
0010
1000
0001
0010
,
0100
0000
0010
0000
0001
1000
0010
1000
,
0001
0000
1000
0000
0001
0100
0001
1000
,
0001
0010
0100
1001
,
0001
0010
0100
1001
,
0101
0011
1100
1010
,
1001
0110
1001
0110
,
1002
1000
0000
0000
,
2003
0001
0000
0000
,
3002
1000
0000
0000
,
2003
0001
0000
0000
,
3020
0100
0000
0000
,
0230
0010
0000
0000
,
0320
0100
0000
0230
,
0002
0000
0303
0001
,
0010
0000
0000
0001
,
0100
0001
1000
0100
,
0010
0000
0000
0010
,
0100
0010
0001
1000
,
0010
0000
0000
1000
,
0001
0100
0001
1000
,
0100
0000
0000
1000
,
0001
0100
0000
0001
0000
1000
0000
0000
,
0000
0000
0001
1000
0010
0010
2000
0000
,
0000
0000
0010
3020
,
0000
0230
0000
0302
,
0000
0000
0000
0000
1003
0001
0100
0000
,
0100
0001
0001
2000
,
0000
3000
0020
0000
0000
0000
0230
0000
,
0000
0010
0000
0320
,
0000
2030
0000
0002
,
0000
0000
0000
3003
0001
0000
1001
0000
,
0000
0000
0101
0101
,
1100
1100
1001
1010
,
0000
0000
1100
0110
,
1100
0110
0011
0011
,
0000
0000
0101
1010
,
0101
1100
0011
1001
,
0000
0000
0000
0000
0101
0000
0001
0100
,
0000
0010
0000
0100
0000
0000
0010
0000
,
1000
0001
0010
0100
,
0010
0001
1000
0010
,
0100
0000
0001
0000
1000
0001
0000
0001
,
1000
0000
0010
0000
0100
0001
1000
0000
,
0100
0001
0100
1000
,
0010
0000
0001
0000
0010
0100
0000
0010
,
1000
0000
0001
0000
0100
0000
0001
0010
,
0100
1000
0001
0010
0100
1000
0001
0000
,
0100
0000
0001
0100
0001
0000
0100
0000
,
0010
0000
1000
0010
1000
0000
0010
0000
,
0100
0000
0001
1000
0010
1000
0000
0010
,
0100
0000
0001
0000
0010
0100
1000
0000
,
0100
0000
1000
0010
0100
0000
0001
0000
,
1000
0000
0001
0010
1000
0000
0010
0000
,
0100
0010
0001
1000
,
0010
1000
0001
0200
,
0302
0023
0230
0320
,
0032
0023
0230
0320
,
0032
2003
3020
2030
,
3002
0000
2003
0000
3001
1000
0020
0000
,
0000
0100
0000
2030
,
3200
0320
0032
0023
,
0230
2300
3200
2300
,
3020
0000
0130
0010
1000
0000
1001
0000
,
0000
0000
0101
1010
,
1100
0011
0110
1100
,
0000
0000
1100
0011
,
0101
1010
0101
1001
,
0000
0000
1000
0100
,
1000
0001
0100
0001
,
0000
0000
0000
0000
0100
0000
0010
1000
,
0000
0001
0000
1001
0000
0000
0001
0010
,
0000
0100
0000
1000
0000
0000
0001
0010
,
0100
1000
0001
0010
0100
1000
0200
0000
,
0000
0000
0000
0000
,
0000
0000
0000
0310
0000
0000
0000
0000
0000
0000
0000
0000
0000
0000
0000
0000
;

//---------------dance-single - ----------------
#NOTES:
     dance-single:
     :
     Easy:
     5:
     0.384293,0.488622,0.137951,0.181061,0.004311,275.000000,16.000000,21.000000,0.000000,0.000000,0.000000,0.384293,0.488622,0.137951,0.181061,0.004311,275.000000,16.000000,21.000000,0.000000,0.000000,0.000000:
0001
0010
0000
0010
,
0100
1000
0000
0100
,
1000
0010
0000
0100
,
0001
0001
1000
1000
,
0001
0010
0000
0100
,
0010
0001
0000
1000
,
0001
0100
0000
0001
,
2000
0000
0000
0000
,
3001
0100
0010
1000
,
0001
0100
0010
1000
,
0001
0100
0010
1000
,
0001
0001
1000
1000
,
0001
0010
0100
1000
,
0001
0010
0100
1000
,
0001
1000
0010
1000
,
0001
0010
0100
1001
,
0001
0010
0100
1001
,
1001
1001
0110
0110
,
1001
0110
1001
0110
,
1002
0000
0000
0000
,
2003
0000
0000
0000
,
3002
0000
0000
0000
,
2003
0000
0000
0000
,
3020
0000
0000
0000
,
0230
0000
0000
0000
,
0320
0000
0000
0130
,
2002
0000
3003
1000
,
0001
0000
0000
1000
,
0100
0010
0100
1000
,
0001
0000
0000
1000
,
0001
0100
0001
1000
,
0001
0000
0000
1000
,
0010
0100
0001
1000
,
0001
0000
0000
1000
,
0001
0100
0000
0001
0000
1000
0000
0000
,
0000
0000
0000
1002
,
0000
0000
1003
0020
,
0000
0230
0000
0302
,
0000
0000
0000
0000
1003
0100
0010
0000
,
0100
1000
0010
0200
,
0000
0302
0000
2000
,
0000
0000
3003
2000
,
0000
3002
0000
0200
,
0000
0303
0001
0100
,
0000
0000
0010
0100
,
0001
1000
0100
1000
,
0000
0000
0100
1000
,
0001
0100
0001
1000
,
0000
0000
0001
1000
,
0100
1000
0001
1000
,
0000
0000
0000
0000
0001
0000
1000
0010
,
0000
0100
0000
0010
0000
0000
0100
0000
,
0001
0010
0100
0010
,
0001
1000
0010
0100
,
0010
1000
0001
0010
,
1000
0010
0001
0100
,
0001
1000
0100
1000
,
0001
0100
0001
1000
,
0100
0010
0001
0010
,
0100
0010
0001
1000
,
0001
1000
0010
0100
,
0010
1000
0001
0010
,
0001
0100
1000
0100
,
0001
0010
1000
0010
,
0001
0100
0001
1000
,
0100
0010
0001
1000
,
0010
0100
0010
1000
,
0001
0010
0100
1000
,
0010
0100
0010
1000
,
1000
0001
0001
1000
,
0010
1000
0001
1000
,
0010
1000
0001
0020
,
0000
0031
0000
0010
,
0100
1000
0100
0010
,
0100
1000
0001
0100
,
0010
1000
0001
1001
,
0000
0000
1000
0100
,
0010
0100
1000
0001
,
0000
0000
0001
0010
,
0001
1000
0010
1000
,
0000
0000
0001
0010
,
0001
1000
0010
1000
,
0000
0000
0000
0000
0001
0000
1000
0001
,
0000
1000
0000
0001
0000
0000
1000
0001
,
0000
1000
0000
0001
0000
0000
1000
0001
,
1000
0001
1000
0001
1000
0001
1001
0000
,
0000
0000
0000
0000
,
0000
0000
0000
1001
0000
0000
0000
0000
0000
0000
0000
0000
0000
0000
0000
0000
;

//---------------dance-single - ----------------
#NOTES:
     dance-single:
     :
     Beginner:
     3:
     0.229098,0.300906,0.077598,0.000000,0.000000,177.000000,9.000000,0.000000,0.000000,0.000000,0.000000,0.229098,0.300906,0.077598,0.000000,0.000000,177.000000,9.000000,0.000000,0.000000,0.000000,0.000000:
// measure 0
0001
0000
0000
0000
,  // measure 1
1000
0000
0000
0000
,  // measure 2
0001
0000
0000
0000
,  // measure 3
1000
0000
0001
0000
,  // measure 4
1000
0000
0000
0000
,  // measure 5
0010
0000
0000
0000
,  // measure 6
0100
0000
0000
0000
,  // measure 7
0010
0000
0000
0000
,  // measure 8
1001
0000
0001
0000
,  // measure 9
0000
0000
0100
0000
,  // measure 10
0000
0000
0001
0000
,  // measure 11
1000
0000
1000
0000
,  // measure 12
0100
0000
0000
0000
,  // measure 13
1000
0000
0000
0000
,  // measure 14
0010
0000
0000
0000
,  // measure 15
0100
0000
0010
0000
,  // measure 16
0100
0000
0010
0000
,  // measure 17
1001
0000
0110
0000
,  // measure 18
0001
0001
1000
1000
,  // measure 19
0010
0000
0000
0000
,  // measure 20
0100
0000
0000
0000
,  // measure 21
0001
0000
0000
0000
,  // measure 22
0001
0000
0000
0000
,  // measure 23
0100
0000
0000
0000
,  // measure 24
0001
0000
0000
0000
,  // measure 25
0010
0000
0000
0000
,  // measure 26
0100
0000
0000
1000
,  // measure 27
1000
0000
0000
0001
,  // measure 28
0001
0000
0100
0000
,  // measure 29
0001
0000
0000
1000
,  // measure 30
1000
0000
0100
0000
,  // measure 31
1000
0000
0000
0010
,  // measure 32
0010
0000
0100
0000
,  // measure 33
0001
0000
0000
1000
,  // measure 34
1000
0000
0000
0000
,  // measure 35
0000
0000
0000
0001
,  // measure 36
0000
0000
0100
0100
,  // measure 37
0000
0001
0000
1000
,  // measure 38
0000
0000
0000
0100
,  // measure 39
0000
1000
0000
0010
,  // measure 40
0000
0100
0000
0001
,  // measure 41
0000
0000
0000
0100
,  // measure 42
0000
0001
0000
1000
,  // measure 43
0000
0000
0001
1000
,  // measure 44
0000
0000
0001
0001
,  // measure 45
0000
0100
0000
0010
,  // measure 46
0000
0000
0100
0100
,  // measure 47
0000
0001
0000
1000
,  // measure 48
0000
0000
0100
0100
,  // measure 49
0000
1000
0000
0010
,  // measure 50
0000
0000
0100
0100
,  // measure 51
0000
0010
0000
0000
,  // measure 52
1000
0001
1000
0000
,  // measure 53
0001
0100
0001
0000
,  // measure 54
0100
0010
0100
0000
,  // measure 55
0010
1000
0010
0000
,  // measure 56
1000
0001
1000
0000
,  // measure 57
0100
0010
0100
0000
,  // measure 58
1000
0001
1000
0000
,  // measure 59
0001
0100
0001
0000
,  // measure 60
0100
0010
0100
0000
,  // measure 61
0010
0100
0010
0000
,  // measure 62
1000
0001
1000
0000
,  // measure 63
0001
1000
0001
0000
,  // measure 64
1000
0100
1000
0000
,  // measure 65
0100
0010
0100
0000
,  // measure 66
0010
0001
0010
0000
,  // measure 67
0001
1000
0001
1000
,  // measure 68
0000
0100
0000
0010
,  // measure 69
0000
0100
0000
1000
,  // measure 70
0000
0010
0000
0001
,  // measure 71
0000
0010
0100
0001
,  // measure 72
0000
1000
0000
0001
,  // measure 73
0000
1000
0000
0001
,  // measure 74
1000
0001
1000
0010
,  // measure 75
1000
0100
0010
0001
,  // measure 76
0000
0000
1000
0001
,  // measure 77
0100
0001
1000
0001
,  // measure 78
0000
0000
1000
0001
,  // measure 79
0001
1000
0001
1000
,  // measure 80
0000
0000
1000
0001
,  // measure 81
0001
1000
0001
1000
,  // measure 82
0000
0000
0001
0110
,  // measure 83
0000
0000
0000
1001
,  // measure 84
0000
0000
0000
0110
,  // measure 85
0000
1001
0000
0110
,  // measure 86
0000
0000
0000
0000
,  // measure 87
0000
1001
0000
0000
;
