#TITLE:Kiss;
#SUBTITLE:(When The Sun Don't Shine) (Eurobeat Mix);
#ARTIST:Vengaboys;
#TITLETRANSLIT:;
#SUBTITLETRANSLIT:;
#ARTISTTRANSLIT:;
#CREDIT:;
#BANNER:Kiss-bn.png;
#BACKGROUND:Kiss-bg.png;
#LYRICSPATH:;
#CDTITLE:cd.png;
#MUSIC:Kiss.mp3;
#OFFSET:-8.165;
#SAMPLESTART:59.430;
#SAMPLELENGTH:12.000;
#SELECTABLE:YES;
#BPMS:0.000=148.020;
#STOPS:;
#BGCHANGES:;

//---------------dance-single - ----------------
#NOTES:
     dance-single:
     :
     Hard:
     8:
     0.516,0.456,0.235,0.282,0.071:
1001
0000
0001
2000
0000
3020
0000
0130
,
0000
1000
0100
1000
0000
0010
0100
0001
,
0000
0001
0010
0001
0010
0100
1000
0010
,
0200
0302
0023
0230
,
1300
0000
0010
1000
0010
0100
1000
0010
,
0000
1000
0100
0010
0000
0100
0001
0100
,
0000
0001
1000
0010
0000
0010
1000
0100
,
2000
3001
0110
1001
,
2000
0000
3010
0100
0010
1000
0001
0001
,
0000
0010
0100
1000
0000
0010
1000
0100
,
0000
0000
0001
0000
0010
0000
0010
0000
0000
0000
0100
0000
1000
0000
0000
1000
,
0001
0000
0000
0001
1000
0000
0000
0100
0010
0000
0000
0010
0100
0000
0000
0000
,
1001
0000
0010
1000
0100
0010
0000
0100
,
0000
0010
0001
0010
0000
0100
1000
0010
,
0000
0000
0010
0000
1000
0000
0001
0000
0000
0000
0100
0000
0010
0000
0000
0001
,
1000
0000
0000
0100
0010
0000
0000
0010
0100
0000
0000
0000
0001
0000
1000
0000
,
0020
0000
1000
0000
0130
0000
1000
0001
,
1000
0000
0001
0010
0001
0000
0011
0000
,
1100
0000
1000
0010
0001
1000
0010
0001
,
0100
0010
0100
0010
0001
1000
0010
0100
,
0020
0000
1000
0000
0130
0000
0001
0010
,
0001
0000
0001
0010
0100
0000
0110
0000
,
0011
0000
0100
1000
0010
1000
0001
0010
,
0100
1000
0001
0010
0100
1000
0010
0000
,
0020
1000
0100
1030
,
0001
0100
0010
1000
0001
0010
0100
1000
,
0002
1000
0100
1003
,
0001
0010
0100
1000
0010
0100
0010
1000
,
0010
0010
2000
3010
,
0002
0000
0103
0000
0010
0100
0010
0100
,
0010
0000
0010
1000
0100
0000
1001
0000
,
0220
0030
0001
0301
,
1001
0000
1001
0000
1001
0000
0001
0100
,
1000
0010
0100
0001
1000
0001
0010
0001
,
0100
0000
0010
0000
1000
0000
0010
0000
1000
0000
0000
1000
0000
0000
0001
0000
,
0100
0010
0001
0100
1000
0000
0010
1000
,
1010
0000
1010
0000
0101
0000
0001
1000
,
0001
0010
0100
0001
1000
0010
0001
1000
,
0010
0000
0001
0000
0100
0000
0010
0000
0100
0000
0000
1000
0000
0000
1000
0000
,
0010
0001
1000
0010
1000
0000
0001
0000
,
1000
0001
1000
0100
0000
1001
0000
0100
,
1000
0001
0010
0100
0000
0001
0100
1000
,
0000
0010
0100
0010
0000
0001
0010
1000
,
0002
0203
0320
1030
,
0100
0000
1000
0010
1000
0010
1000
0010
,
0000
0100
0001
0010
0000
0100
1000
0001
,
0000
0001
0010
1000
0000
0100
1000
0001
,
0020
0230
0302
1003
,
1001
0000
0000
0000
0010
0000
0000
0010
0000
0000
0010
0000
1000
0000
0001
0000
,
0100
0000
0010
0000
0001
0000
0000
0001
0000
0000
1000
0000
0100
0000
0001
0000
,
1000
0000
0000
0000
0010
0000
0000
0010
0000
0000
0010
0000
0000
0000
0001
0000
,
0020
1030
1001
0110
,
2001
0000
0000
0000
0001
0000
3000
0100
0000
0000
0100
0000
0001
0000
0000
0000
,
2100
0000
0000
0000
0010
0000
3000
0100
0000
0000
0001
0000
1000
0000
0100
0000
,
1002
0000
0000
0000
0100
0000
0000
1000
0003
0000
0010
0000
0000
0000
0100
0000
,
0200
0320
0130
0110
,
2002
0000
0000
0000
,
3003
0000
0000
0000
;

//---------------dance-single - ----------------
#NOTES:
     dance-single:
     :
     Medium:
     5:
     0.426,0.402,0.113,0.339,0.000: // measure 1
1001
0000
0001
1000
0001
0000
0100
0000
,  // measure 2
0010
0000
0010
1000
0010
0000
0001
0000
,  // measure 3
0001
0000
0100
1000
0100
0000
0100
1000
,  // measure 4
0020
0230
0302
1003
,  // measure 5
0010
0000
0010
1000
0010
0000
0100
0000
,  // measure 6
0100
0000
0001
0010
0001
0000
0001
0000
,  // measure 7
0100
0000
0010
0100
0010
0000
0010
0100
,  // measure 8
0020
0230
0302
1003
,  // measure 9
1001
0000
0001
0100
1000
0000
0010
0000
,  // measure 10
1000
0000
0010
0100
0001
0000
0001
1000
,  // measure 11
0010
0000
0100
0000
0001
0000
1000
0010
,  // measure 12
2000
3002
0023
0230
,  // measure 13
0301
0000
1000
0010
1000
0000
0001
0000
,  // measure 14
0100
0000
0001
0010
0001
0000
0100
0000
,  // measure 15
1000
0000
0001
1000
0010
0000
0100
1000
,  // measure 16
0010
0000
0001
0000
1000
0000
0001
0100
,  // measure 17
2000
0000
0001
0000
3010
0000
0001
0100
,  // measure 18
1000
0010
0100
0010
,  // measure 19
0110
0000
0001
0100
1000
0000
0010
0000
,  // measure 20
1000
0000
0001
0000
0010
0000
0001
0010
,  // measure 21
0001
0000
0010
0000
0011
0000
0100
1000
,  // measure 22
0010
0000
0100
0010
0100
0000
0001
0000
,  // measure 23
0011
0000
0100
1000
0010
0000
0001
0010
,  // measure 24
0100
1000
0010
0001
0000
1000
0010
0100
,  // measure 25
0002
1000
0010
0103
,  // measure 26
2000
0010
0100
0001
,  // measure 27
0100
0001
0010
3100
,  // measure 28
0002
0100
0010
1003
,  // measure 29
0100
0000
1000
0010
1000
0000
0001
0000
,  // measure 30
1000
0000
0010
0100
0010
0100
0001
1000
,  // measure 31
0001
0000
1000
0000
0000
0010
1000
0000
,  // measure 32
2002
0000
0000
3003
,  // measure 33
1000
0000
0001
0000
1001
0000
0001
1000
,  // measure 34
0001
0010
0100
0010
,  // measure 35
2000
0000
0000
3000
0001
0000
1000
0000
,  // measure 36
0002
0000
0000
0003
1000
0000
0010
0000
,  // measure 37
0010
0000
0100
0000
0110
0000
0001
1000
,  // measure 38
0001
0000
0001
0010
0100
0000
1000
0010
,  // measure 39
2000
0000
0000
0000
3000
0010
1000
0010
,  // measure 40
0200
0301
2000
3010
,  // measure 41
0011
0000
0010
0001
0010
0000
1000
0000
,  // measure 42
0100
0000
0100
0001
0100
0000
0010
0000
,  // measure 43
0010
0000
1000
0001
1000
0000
1000
0001
,  // measure 44
0200
2300
3020
0031
,  // measure 45
0100
0000
0100
0001
0100
0000
1000
0000
,  // measure 46
1000
0000
0010
0100
0010
0000
0010
0000
,  // measure 47
1000
0000
0100
1000
0100
0000
0100
1000
,  // measure 48
0200
2300
3020
0031
,  // measure 49
0012
1000
0100
1003
,  // measure 50
0010
1000
0010
0000
0001
0100
0001
0000
,  // measure 51
0020
0130
0200
0310
,  // measure 52
0002
1003
2000
3001
,  // measure 53
2001
0010
0100
3001
,  // measure 54
0010
0100
0010
0000
0001
0010
0001
0000
,  // measure 55
0100
1000
0100
0000
0010
1000
0010
0000
,  // measure 56
2000
0001
0010
3001
,  // measure 57
2002
0000
0000
0000
,  // measure 58
3003
0000
0000
0000
;

//---------------dance-single - ----------------
#NOTES:
     dance-single:
     :
     Easy:
     3:
     0.272,0.268,0.066,0.151,0.000: // measure 1
0001
1000
0001
0000
,  // measure 2
0010
0100
0010
0000
,  // measure 3
1000
0100
1000
0000
,  // measure 4
0010
0100
0010
0100
,  // measure 5
0110
0001
0001
0000
,  // measure 6
1000
0100
1000
0000
,  // measure 7
0010
0010
0010
0000
,  // measure 8
0001
0100
1000
0010
,  // measure 9
1001
0100
1000
0001
,  // measure 10
0001
0100
1000
0010
,  // measure 11
0001
0100
1000
0001
,  // measure 12
0010
1000
0001
0000
,  // measure 13
0001
0100
0010
0100
,  // measure 14
0010
0100
1000
0001
,  // measure 15
0010
0001
0100
1000
,  // measure 16
0001
0010
1000
0001
,  // measure 17
2000
0000
3001
0000
,  // measure 18
0001
0010
0100
1000
,  // measure 19
0010
0000
0010
0010
,  // measure 20
0100
0100
1000
0001
,  // measure 21
0020
0000
0130
0000
,  // measure 22
0001
1000
0100
0010
,  // measure 23
1001
0010
0100
0001
,  // measure 24
0100
1000
0010
0100
,  // measure 25
0001
1000
0100
1000
,  // measure 26
0010
0000
0000
0000
,  // measure 27
0001
0100
0010
1000
,  // measure 28
0100
0000
0001
0000
,  // measure 29
1000
0010
0001
0100
,  // measure 30
0100
0001
0010
1000
,  // measure 31
0001
0010
0100
1000
,  // measure 32
1001
0000
0000
0000
,  // measure 33
0010
0010
0010
0010
,  // measure 34
0100
1000
0001
1000
,  // measure 35
0002
0000
0000
0000
,  // measure 36
2003
0000
0000
0000
,  // measure 37
3001
0001
0001
1000
,  // measure 38
0001
0100
0010
0100
,  // measure 39
0200
0000
0000
0000
,  // measure 40
0320
0000
0000
0030
,  // measure 41
0001
1000
0001
0000
,  // measure 42
0010
0100
0010
0000
,  // measure 43
1000
0100
1000
0000
,  // measure 44
0010
0100
0010
0100
,  // measure 45
0110
0001
0001
0000
,  // measure 46
1000
0100
1000
0000
,  // measure 47
0010
0010
0010
0000
,  // measure 48
0001
0100
1000
0010
,  // measure 49
1001
0100
1000
0001
,  // measure 50
0001
0100
1000
0010
,  // measure 51
0002
0000
2003
0000
,  // measure 52
3020
0000
0230
0000
,  // measure 53
0301
0100
0010
0100
,  // measure 54
0010
0100
1000
0001
,  // measure 55
0020
0000
0230
0000
,  // measure 56
0302
0000
2003
3000
,  // measure 57
2002
0000
0000
0000
,  // measure 58
3003
0000
0000
0000
;
