#TITLE:Imagine;
#SUBTITLE:;
#ARTIST:Brunch;
#TITLETRANSLIT:;
#SUBTITLETRANSLIT:;
#ARTISTTRANSLIT:;
#GENRE:;
#CREDIT:rikame;
#BANNER:Imagine.png;
#BACKGROUND:Imagine - bg.png;
#LYRICSPATH:;
#CDTITLE:cd-rikame.png;
#MUSIC:Imagine.ogg;
#OFFSET:0.021;
#SAMPLESTART:50.204;
#SAMPLELENGTH:20.235;
#SELECTABLE:YES;
#BPMS:0.000=92.000;
#STOPS:;
#BGCHANGES:;
#KEYSOUNDS:;

//---------------dance-single - Rikame----------------
#NOTES:
     dance-single:
     Rikame:
     Beginner:
     2:
     0.082,0.076,0.000,0.000,0.000:
0000
0000
0000
0000
,
0000
0000
0000
0000
,
0000
0000
0000
0000
,
0000
0000
0000
0000
,
0001
0000
0000
0000
,
0001
0000
0000
0000
,
0001
0000
0000
0000
,
1000
0000
0000
0000
,
0010
0000
0000
0000
,
0010
0000
0000
0000
,
1000
0000
0001
0000
,
0100
0000
0001
0000
,
1000
0000
0100
0000
,
0010
0000
0000
0000
,
0001
0000
0010
0000
,
0001
0000
1000
0000
,
0010
0000
0100
0000
,
0001
0000
0000
0000
,
1000
0000
1000
0000
,
1000
0000
0001
0000
,
0010
0000
0100
0000
,
1000
0000
0001
0000
,
0100
0000
0010
0000
,
1000
0000
0100
0000
,
0010
0000
0001
0000
,
1000
0000
0001
0000
,
0100
0000
0010
0000
,
1000
0000
0000
0000
,
1000
0000
0000
0000
,
1000
0000
0000
0000
,
0001
0000
0000
0000
,
0100
0000
0000
0000
,
0010
0000
1000
0000
,
0010
0000
0100
0000
,
0001
0000
0010
0000
,
0100
0000
1000
0000
,
0001
0000
0100
0000
,
0010
0000
0000
0000
,
1000
0000
0001
0000
,
1000
0000
0000
0000
,
0010
0000
0100
0000
,
0001
0000
1000
0000
,
0100
0000
0010
0000
,
0001
0000
0100
0000
,
0010
0000
0100
0000
,
0001
0000
1000
0000
,
0100
0000
0010
0000
,
0100
0000
1000
0000
,
0010
0000
0000
0000
,
0010
0000
0000
0000
,
0010
0000
0000
0000
,
0100
0000
0000
0000
;

//---------------dance-single - Rikame----------------
#NOTES:
     dance-single:
     Rikame:
     Easy:
     4:
     0.175,0.153,0.015,0.097,0.000:
0000
0000
0000
0000
,
0000
0000
0000
0000
,
0000
0000
0000
0000
,
0000
0000
0000
0000
,
0001
0010
0200
0000
,
1300
0010
0200
0000
,
0301
0010
0200
0000
,
1300
0001
1000
0010
,
0100
0000
0000
0001
0000
0000
0000
0000
,
0100
0000
0000
0001
0000
0000
0000
0000
,
1001
0000
1000
0010
,
0100
0000
0010
1000
,
0001
0000
0010
0100
,
2000
0000
0000
0000
,
3001
0000
0100
0001
,
1000
0000
0100
0010
,
0001
0000
0100
0010
,
2000
0000
0000
0000
,
3100
0010
0001
1000
,
0001
0100
0010
1000
,
0010
0100
0001
1000
,
0100
0000
1000
0001
,
0100
0000
0010
1000
,
0001
0100
0010
1000
,
0001
0010
0100
1000
,
0001
0010
0001
0100
,
0010
0000
1000
0001
,
1000
0100
0020
0000
,
0031
0100
0020
0000
,
1030
0100
0020
0000
,
0031
0100
0001
1000
,
0100
0000
0010
0000
,
1001
0000
0001
1000
,
0100
0000
1000
0010
,
0100
0001
0010
0100
,
1000
0000
0100
0010
,
0001
0000
0010
0001
,
2000
0000
3000
0001
,
0100
0010
1000
0001
,
0000
1000
0100
0010
,
0001
0100
0010
1000
,
0100
0000
1000
0001
,
0100
0000
0010
1000
,
0010
0100
0001
1000
,
0100
0010
0001
1000
,
0010
0100
0010
1000
,
0002
0000
0013
0100
,
1000
0000
0001
0100
,
0001
0100
0020
0000
,
1030
0100
0020
0000
,
0031
0100
0020
0000
,
1030
0001
0000
0000
;

//---------------dance-single - Rikame----------------
#NOTES:
     dance-single:
     Rikame:
     Medium:
     7:
     0.318,0.345,0.022,0.238,0.145:
0000
0000
0000
0000
,
0000
0000
0000
0000
,
0000
0000
0000
0000
,
0000
0000
0000
0000
,
0001
0000
1000
0000
0002
0000
0000
0000
0203
0000
0000
0320
0000
0000
1030
0000
,
0001
0000
0010
0000
0002
0000
0000
0000
2003
0000
0000
3020
0000
0000
0130
0000
,
0001
0000
1000
0000
0002
0000
0000
0000
0023
0000
0000
0230
0000
0000
1300
0000
,
0001
0100
0001
1000
0100
0010
0100
1000
,
0001
0000
0000
0011
0000
0000
0000
0000
,
1000
0000
0000
1010
0000
0000
0000
0000
,
0001
0000
0000
0000
1000
0001
0010
0100
,
1000
0001
0000
0000
0100
0010
1000
0001
,
0010
0000
0100
1000
,
0020
0000
0000
0000
,
0130
0000
0000
0000
0001
1000
0100
0010
,
0001
0100
0000
0000
0010
1000
0001
0010
,
0100
0000
0000
0000
1000
0001
0100
0010
,
2000
0000
0000
0000
,
3010
0000
1000
0000
0001
0000
0010
0000
0100
0000
1000
0001
0000
0001
1000
0000
,
0010
0000
0000
0000
0100
0000
0001
0000
0010
0000
0000
0100
0000
0000
1000
0000
,
0001
0000
0000
0000
0100
0000
0010
0000
1000
0000
0000
0001
0000
0000
0010
0000
,
0100
0000
0000
0000
1000
0001
0010
0001
,
0100
0000
0020
0000
0000
0000
0000
0000
1030
0100
0000
1000
0000
0010
0000
0100
,
0000
0001
0100
0000
0010
0000
1000
0000
0100
0000
0000
0010
0000
0000
0001
0000
,
0100
0000
0000
0000
0010
0000
1000
0000
0001
0000
0000
0010
0000
0000
0100
0000
,
1000
0000
0000
0000
0001
0000
0000
0000
0100
0000
0000
0000
0010
0000
0000
1000
,
0000
0000
0000
0000
0000
0000
0000
0000
0100
0000
0000
1000
0000
0000
0001
0000
,
0100
0000
0010
0000
0200
0000
0000
0000
0302
0000
0000
2003
0000
0000
3100
0000
,
1000
0000
0010
0000
1000
0000
0000
0000
0100
0001
0000
0010
0000
0100
1000
0000
,
0001
0000
0010
0000
0002
0000
0000
0000
0203
0000
0000
0320
0000
0000
1030
0000
,
0100
0010
0001
1000
0001
0100
0020
0000
,
1030
0100
1000
0000
0001
0000
0100
0010
,
0100
0010
1000
0000
0001
0010
0001
0000
,
0010
0100
0010
0000
0001
0100
0001
0000
,
1000
0100
1000
0000
0100
0010
0100
0000
,
0010
0001
1000
0000
0001
1000
0001
0100
,
0010
1000
0010
0100
0001
0010
0001
1000
,
0010
0100
0010
0000
1000
0001
1000
0000
,
0100
0010
0100
0010
0001
0000
0100
0000
,
0010
0000
0000
0000
1000
0000
0001
0000
0100
0000
0010
1000
0000
0100
0000
0010
,
0001
0000
0000
0000
0100
0000
0001
0000
1000
0000
0000
0100
0000
0000
0010
0000
,
0001
0000
0000
0000
0100
0001
1000
0100
,
0010
0000
0002
0000
0000
0000
0000
0000
1003
0010
0000
0100
0000
0001
0000
0010
,
0000
0100
1000
0000
0001
0000
0100
0000
0010
0000
0000
0100
0000
0000
0001
0000
,
0010
0000
0000
0000
0100
0000
1000
0000
0010
0000
0000
0100
0000
0000
0010
0000
,
1000
0000
0000
0000
0001
0000
0000
0000
0010
0000
0000
0000
0100
0000
0000
2000
,
0000
0000
0000
0000
0000
0000
3000
0000
0001
0000
0000
0100
0000
0000
0020
0000
,
0000
0000
0000
0000
0030
0000
0000
0000
1000
0000
0000
0001
0000
0000
1000
0000
,
0100
0000
0010
0000
0002
0000
0000
0000
0203
0000
0000
0320
0000
0000
1030
0000
,
0001
0000
0010
0000
0200
0000
0000
0000
2300
0000
0000
3020
0000
0000
0000
0000
,
0130
0000
0001
0000
0200
0000
0000
0000
0320
0000
0000
2030
0000
0000
3001
0000
,
0020
0000
0000
0000
0130
0000
0000
1001
0000
0000
0000
0000
0000
0000
0000
0000
;

//---------------dance-single - Expert----------------
#NOTES:
     dance-single:
     Expert:
     Hard:
     10:
     0.690,0.632,0.231,0.224,0.980:
0000
0000
0000
0000
,
0000
0000
0000
0000
,
0000
0000
0000
0000
,
0000
0000
0000
0000
,
0001
0010
0001
1000
0100
1000
0001
0100
0010
1000
0100
0002
0000
0103
0010
0001
,
1000
0010
1000
0001
0100
0001
1000
0100
0010
0001
0100
2000
0000
3100
0010
1000
,
0100
0010
0100
1000
0001
1000
0010
0100
0001
0100
0010
0002
0000
0013
1000
0001
,
0010
0100
0010
0002
0000
0103
0010
1000
0001
1000
0100
0040
0000
0000
0000
0000
,
0031
0001
0100
0010
0100
0001
1000
1000
0100
0010
0001
M100
010M
1000
001M
M010
,
0001
0001
0010
0100
1000
0001
1000
1000
0000
0000
0000
0000
0000
0000
0000
0000
,
2001
0000
3100
0010
0100
1000
0100
0010
0001
0100
0000
0010
1000
0100
0000
0010
,
0001
0100
0010
1000
0010
0100
0010
1000
0100
0010
0000
0001
0100
0010
0000
1000
,
0200
0000
1300
0001
0010
0001
1000
0001
0010
0100
0000
1000
0010
0100
0000
0001
,
0010
0000
0000
0000
0001
0000
0000
0000
1000
0000
0000
0000
0010
0000
0000
0000
1000
0000
0000
0000
0100
0000
0000
0000
0010
0000
0000
0000
0001
0000
0000
0000
1000
0000
0000
0000
0001
0000
0000
0000
0100
0000
0000
0000
0020
0000
0000
0000
0000
0000
0000
0000
0000
0000
0000
0000
0000
0000
0000
0000
0000
0000
0000
0030
,
1002
0000
0103
0010
0100
0001
0100
0010
1000
0001
0010
0100
1000
0001
1000
0010
,
0100
0001
0100
0010
1000
0001
1000
0100
0010
0001
0100
0010
1000
0001
0010
0100
,
2000
0000
3001
0100
0001
0010
0001
0100
0010
1000
0100
0010
0001
0010
0100
1000
,
0010
0100
0001
1000
0010
0100
0010
1000
0001
0010
0100
0010
0001
0100
0010
1000
,
1001
0000
0001
0000
0100
0000
0010
1000
0010
0100
0001
1000
0001
0010
0100
1000
,
1001
0000
0110
0000
0001
0000
0010
0000
0100
0000
1000
0010
0000
0010
0100
0000
,
0002
0000
1003
0000
0010
0000
0100
0000
0020
0000
1030
0001
0000
0001
0010
0000
,
0200
0000
1300
0000
0001
0000
0100
0000
0010
1000
0001
0010
0000
0010
0100
1000
,
0001
1000
0010
0000
0100
0000
0010
0000
1000
0001
0000
0011
0000
0110
0000
1100
,
0000
1000
1002
0000
0103
0000
0001
0000
0010
0000
0001
1000
0000
0100
0010
0001
,
0020
0000
0130
0000
1000
0000
0010
0000
0200
0000
0301
1000
0000
1000
0010
0000
,
0200
0000
0301
0000
1010
0000
0001
0000
1100
0000
0100
1000
0010
1000
0100
0010
,
0001
0000
0100
0000
0001
0000
1000
0000
0010
0100
0001
0010
0000
0010
0100
1000
,
0001
0100
0001
1000
0010
1000
0100
0010
0001
0100
0010
0002
0000
0013
0100
0001
,
1000
0100
1000
0001
0010
0001
0100
0010
1000
0100
0000
0110
0000
0010
0001
0000
,
1000
0100
0010
0001
0100
0010
1000
0001
0010
0100
0010
2000
0000
3010
0001
1000
,
0010
0000
0100
0000
0001
0000
0020
0000
0000
0000
0031
0000
1000
0000
0010
0000
0100
0000
0001
0000
0010
0000
0100
0000
1000
0001
1000
0001
1000
0000
0010
0000
,
0210
0000
0301
0000
1000
0010
1000
0100
0000
0100
0010
0000
0001
0100
0001
0010
,
0110
0000
0100
1000
0001
1000
0010
0100
0010
1000
0000
0100
0000
0010
0000
0001
,
0101
0000
0100
0000
0010
1000
0010
0100
0001
0010
0100
1000
0010
0100
0010
1000
,
1100
0000
0010
0000
0101
0000
1000
0000
0011
0000
0100
0000
1010
0000
0001
1000
,
0001
0100
0010
0000
1000
0100
1000
0010
0100
0001
1000
0100
0010
0001
0100
0001
,
0011
0000
0000
0000
0010
0000
0100
0000
0000
0000
0100
0000
1000
0000
0001
0000
0100
0000
0010
0000
0100
0000
0001
1000
0001
0000
0010
0000
0100
0000
1000
0000
,
1010
0000
0010
0000
0100
0000
0001
0000
0010
0000
0100
1000
0001
0100
0010
0000
,
1010
0000
1000
0000
0100
0010
0100
1000
0000
1000
0001
0000
0100
0010
0100
0010
,
2001
0000
0000
0000
3100
0000
0010
0000
0001
0000
1000
0010
0000
0100
0000
0001
,
0020
0000
0130
0000
1000
0000
0001
0000
0200
0000
0310
1000
0000
1000
0100
0000
,
0020
0000
0130
0000
1000
0000
0001
0000
0100
0010
1000
0100
0000
0100
0010
0001
,
1000
0010
1000
0000
0001
0000
0010
0000
0100
1000
0000
1010
0000
0110
0000
0101
,
0000
0001
2001
0000
3100
0000
1000
0000
0010
0000
0100
0001
0000
1000
0100
0010
,
0002
0000
0103
0000
0010
0000
1000
0000
0002
0000
0013
0100
0000
0100
1000
0000
,
1002
0000
0103
0000
0010
0000
1000
0000
0001
0010
0001
0100
0010
1000
0010
0000
,
0110
0000
0100
0000
0001
0000
1000
0000
0010
0100
0000
0101
0000
0001
0010
0100
,
1000
0000
1000
0000
0010
0000
0100
0010
1000
0100
1000
0010
0100
0001
0010
0001
,
1000
0100
0010
0100
1000
0001
0100
0010
0100
0001
0010
2000
0000
3010
0100
1000
,
0001
0100
0010
0100
0001
1000
0100
0010
0100
1000
0010
0400
0000
0000
0000
0000
,
0301
0010
0100
0010
0001
1000
0010
0100
0010
1000
0100
0002
0000
0103
0010
0001
,
1000
0010
0100
0010
1000
0100
0010
1001
0000
0000
0000
0000
0000
0000
0000
0000
;
