#TITLE:Hydrocity Zone Act 2;
#SUBTITLE:Remix;
#ARTIST:Plasma3Music;
#CREDIT:;
#MUSIC:[Nostalgia Is Lost] - Hydrocity Zone Remix (Act 2).mp3;
#SELECTABLE:YES;
#BACKGROUND:[Nostalgia Is Lost] - Hydrocity Zone Remix (Act 2)-bn.png;
#BANNER:[Nostalgia Is Lost] - Hydrocity Zone Remix (Act 2).png;
#CDTITLE:cdtitle.png;
#OFFSET:-0.2;
#SAMPLESTART:21.763;
#SAMPLELENGTH:15.469;
#BPMS:0=128;
#STOPS:;

//---------------dance-single - ----------------
#NOTES:
     dance-single:
     :
     Beginner:
     1:
     0.000,0.000,0.000,0.000,0.000:
0000
0000
0000
0000
,
0000
0000
0000
0000
,
0000
0000
0000
0000
,
0000
0000
0000
0000
,
0010
0000
1000
0000
,
0001
0000
0000
0000
,
0100
0000
0001
0000
,
1000
0000
0000
0000
,
0010
0000
1000
0000
,
0001
0000
0000
0000
,
0100
0000
0001
0000
,
1000
0000
0000
1001
,
0000
0010
0000
0010
,
0000
0100
0000
0000
,
0000
1000
0000
1000
,
0000
0001
0000
0000
,
0000
0001
0000
0001
,
0000
0100
0000
0000
,
0000
0010
0000
0010
,
0000
1000
0000
0000
,
0000
1001
0000
0000
,
0100
0100
0000
0000
,
0000
1001
0000
0000
,
0010
0010
0000
0000
,
0000
1001
0000
0000
,
0100
0010
0000
0000
,
0000
1001
0000
0000
,
0000
1001
0000
1001
,
0000
0100
0000
0000
,
0100
0000
0001
0000
,
1000
0000
0000
0000
,
0010
0000
1000
0000
,
0001
0000
1000
0000
,
1001
0000
0000
0000
,
0001
0000
1000
0000
,
0110
0000
0000
0000
,
0010
0000
1000
0000
,
1001
0000
0000
0000
,
0100
0000
0001
0000
,
1001
0000
0100
0000
,
0010
0000
0010
0000
,
1000
0000
0000
0000
,
0001
0000
0001
0000
,
0100
0000
0000
0000
,
0001
0000
1000
0000
,
0001
0000
0000
0000
,
1000
0000
0100
0000
,
0010
0000
0000
1001
,
0000
0001
0000
0010
,
0000
0100
0000
0000
,
0000
1000
0000
0010
,
0000
0100
0000
0000
,
0000
0001
0000
1000
,
0000
0100
0000
0000
,
0000
1000
0000
0001
,
0000
0000
1001
0000
,
0110
0000
0000
0100
,
0100
0000
0000
0001
,
0001
0000
0000
1000
,
1000
0000
0000
0000
,
1001
0000
0000
0010
,
0010
0000
0000
0100
,
0100
0000
0000
0001
,
0001
0001
1000
1000
,
0000
0010
0000
0010
,
0000
0100
0000
0100
,
0000
0001
0000
0001
,
0000
1000
0000
0100
,
0000
0001
0000
0001
,
0000
0010
0000
0010
,
0000
0100
0000
0100
,
0000
1000
0000
0001
,
0000
0000
0000
0000
,
0000
0000
0000
0000
,
0000
0000
0000
0000
,
0000
0000
0000
0000
,
0000
0000
0000
0000
,
0000
0000
0000
0000
,
0000
0000
0000
0000
;

//---------------dance-single - ----------------
#NOTES:
     dance-single:
     :
     Easy:
     4:
     0.000,0.000,0.000,0.000,0.000:
0000
0000
0000
0000
,
0000
0000
0000
0000
,
0000
0000
0000
0000
,
0000
0000
0000
0000
,
0001
0000
0000
0000
0000
0000
0000
0000
0010
0000
0000
0000
1000
0000
0000
0001
,
0000
0000
0000
0000
0000
0000
0000
0000
0010
0000
0000
0100
0000
0000
0000
0000
,
1000
0000
0000
0000
0000
0000
0000
0000
0010
0000
0000
0000
0001
0000
0000
1000
,
0000
0100
0000
0100
0000
0000
0000
0000
,
0001
0000
0000
0000
0000
0000
0000
0000
0010
0000
0000
0000
0100
0000
0000
1000
,
0000
0000
0000
0000
0000
0000
0000
0000
0001
0000
0000
0100
0000
0000
0000
0000
,
0010
0000
0000
0000
0000
0000
0000
0000
1000
0000
0000
0000
0100
0000
0000
0010
,
0000
0001
0000
1000
0000
0000
0000
0000
,
0010
0000
0000
0100
0000
0001
0000
0100
0000
0000
0000
0000
0000
0000
0010
0000
,
1000
0000
0000
0000
0000
0000
0000
0001
0000
0000
0000
0000
0000
0000
0000
0000
,
0100
0000
0000
0010
0000
1000
0000
0010
0000
0000
0000
0000
0000
0000
0000
0000
,
0100
0000
0000
0000
0001
0000
0000
0010
0000
0100
0000
0000
1000
0000
0000
0000
,
0010
0000
0000
0100
0000
0001
0000
0100
0000
0000
0000
0000
0000
0000
0000
0000
,
0010
0000
0000
0000
0000
0000
0000
1000
0000
0000
0000
0000
0000
0000
0000
0000
,
0100
0000
0000
0010
0000
0001
0000
1000
0000
0000
0000
0000
0000
0000
0000
0000
,
0010
0000
0000
0000
0100
0000
0000
0001
,
1000
0000
0000
0000
0100
0000
0000
0010
0000
0001
0000
0000
0100
0000
0000
0000
,
0010
0000
0000
0000
0010
0000
0000
1000
0000
0000
0000
0000
0000
0000
1000
0000
,
0001
0000
0000
0000
0100
0000
0000
0001
0000
0010
0000
0000
0100
0000
0000
0000
,
1000
0000
0000
0000
0010
0000
0000
0100
0000
0001
0000
0000
1000
0000
1000
0000
,
0001
0000
0000
0000
0100
0000
0000
0001
0000
0010
0000
0000
0100
0000
0000
0000
,
1000
0000
0000
0000
1000
0000
0000
1000
0000
0000
0000
0000
0000
0000
0001
0000
,
1000
0000
0000
0010
0000
0000
0010
0000
0000
0000
0100
0000
0000
0000
0001
0000
,
0000
1000
0000
0000
0000
0000
0000
0000
1001
0000
0000
0000
0000
0000
0000
0000
,
0100
0001
0000
0010
,
0000
0010
0000
0100
,
1000
0010
0000
0100
,
0000
0100
0000
0001
,
1000
0000
0000
0000
0000
0000
0000
0000
0001
0000
0000
0000
0010
0000
0000
1000
,
0000
0000
0000
0000
0000
0000
0000
0000
0010
0000
0000
0100
0000
0000
0000
0000
,
1000
0000
0000
0000
0000
0000
0000
0000
0001
0000
0000
0000
0100
0000
0000
1000
,
0000
0001
0000
1000
0000
0000
0000
0000
,
0001
0000
0000
0000
0000
0000
0000
0000
0010
0000
0000
0000
0100
0000
0000
1000
,
0000
0000
0000
0000
0000
0000
0000
0000
0001
0000
0000
0100
0000
0000
0000
0000
,
0010
0000
0000
0000
0000
0000
0000
0000
1000
0000
0000
0000
0100
0000
0000
0010
,
0000
0001
0000
1000
0000
0000
0000
0000
,
1000
0000
0000
0001
0000
0100
0000
0001
0000
0000
0000
0000
0000
0000
1000
0000
,
0100
0000
0000
0000
0000
0000
0000
0010
0000
0000
0000
0000
0000
0000
0000
0000
,
0001
0000
0000
1000
0000
0010
0000
1000
0000
0000
0000
0000
0000
0000
0000
0000
,
0001
0000
0000
0000
0010
0000
0000
0010
0000
0100
0000
0000
1000
0000
0000
0000
,
0001
0000
0000
0100
0000
0010
0000
0100
0000
0000
0000
0000
0000
0000
0000
0000
,
0010
0000
0000
0000
0000
0000
0000
1000
0000
0000
0000
0000
0000
0000
0000
0000
,
0100
0000
0000
0010
0000
0001
0000
1000
0000
0000
0000
0000
0000
0000
0000
0000
,
0010
0000
0000
0000
0100
0000
0000
0001
,
1000
0000
0000
0000
0010
0000
0000
0100
0000
0001
0000
0000
0010
0000
0000
0000
,
0100
0000
0000
0000
0100
0000
0000
1000
0000
0000
0000
0000
0000
0000
1000
0000
,
0001
0000
0000
0000
0100
0000
0000
0010
0000
1000
0000
0000
0100
0000
0000
0000
,
0010
0000
0000
0000
0001
0000
0000
0010
0000
0100
0000
0000
1000
0000
1000
0000
,
0001
0000
0000
0000
0100
0000
0000
0001
0000
0010
0000
0000
0100
0000
0000
0000
,
1000
0000
0000
0000
1000
0000
0000
1000
0000
0000
0000
0000
0000
0000
0010
0000
,
1000
0000
0000
0001
0000
0000
0001
0000
0000
0000
0010
0000
0000
0000
0001
0000
,
0000
1000
0000
0000
0000
0000
0000
0000
1001
0000
0000
0000
0000
0000
0000
0000
,
0100
0010
0000
0010
,
0000
0010
0000
0010
,
0000
0010
0000
0010
,
0000
1000
0000
0000
0001
0000
0000
0100
0000
0000
0000
0000
0010
0000
1000
0000
,
0001
0100
0000
0100
,
0000
0100
0000
0100
,
0000
0100
0000
0100
,
0000
0010
0000
0010
0000
0010
0000
0000
,
0000
0001
0000
0001
,
0000
0001
0000
0001
,
0000
0001
0000
0001
,
0000
1000
0000
0000
0010
0000
0000
0100
0000
0000
0000
0000
0001
0000
0010
0000
,
0100
1000
0000
1000
,
0000
1000
0000
1000
,
0000
1000
0000
1000
,
0000
0020
0000
0000
0000
0000
0000
0000
0000
0000
0000
0000
0030
0000
0000
0000
,
0000
0000
0000
0000
,
0000
0000
0000
0000
,
0000
0000
0000
0000
,
0000
0000
0000
0000
,
0000
0000
0000
0000
,
0000
0000
0000
0000
,
0000
0000
0000
0000
;

//---------------dance-single - ----------------
#NOTES:
     dance-single:
     :
     Medium:
     7:
     0.000,0.000,0.000,0.000,0.000:
0000
0000
0000
0000
,
0000
0000
0000
0000
,
0000
0000
0000
0000
,
0000
0000
0000
0000
0000
0000
0000
1000
,
0001
0000
0000
0000
0000
1000
0100
0000
0010
0000
0001
0000
1000
0000
0000
0020
,
0000
0000
0030
0000
0000
0000
0000
0001
,
1000
0000
0000
0000
0000
0001
0100
0000
0010
0000
1000
0000
0001
0000
0000
0020
,
0000
0000
0030
0000
0000
0000
0000
1000
,
0001
0000
0000
0000
0000
1000
0100
0000
0010
0000
0001
0000
1000
0000
0000
0020
,
0000
0000
0030
0000
0000
0000
0000
0100
,
0001
0000
0000
0000
0000
1000
0100
0000
0010
0000
0001
0000
1000
0000
0000
0020
,
0000
1030
0000
0001
0000
0010
0100
1000
,
0001
0000
0001
0100
0000
0010
0000
2000
0000
0000
0000
0000
0000
0000
3001
0000
,
0020
0000
0000
0000
0000
0000
0000
0230
0000
0000
0000
0000
0000
0000
0000
0000
,
1300
0000
1000
0100
0000
0010
0000
0002
0000
0000
0000
0000
0000
0000
1003
0000
,
0001
0010
0000
0000
0100
0000
1000
0001
0000
0100
0000
0000
0001
0000
1000
0000
,
0100
0000
1000
0001
0000
0100
0000
0002
0000
0000
0000
0000
0000
0000
1003
0000
,
0020
0000
0000
0000
0000
0000
0000
0230
0000
0000
0000
0000
0300
0000
0100
0000
,
0001
0000
0010
0100
0000
1000
0000
0002
0000
0000
0000
0000
0000
0000
0103
0000
,
0020
0000
0000
0000
0000
0000
0000
0000
2030
0000
0000
0000
3000
0000
1000
0001
,
1000
0000
0000
0000
0010
0000
0100
0001
0000
1000
0000
0000
0001
0000
0010
0000
,
0100
0000
0000
0000
0100
0000
0000
0200
0000
0000
0000
0000
0300
0000
1000
0001
,
1000
0000
0000
0000
0010
0000
0100
0001
0000
1000
0000
0000
0001
0000
0010
0000
,
0100
0000
0000
0100
1000
0000
0000
0010
0000
1000
0000
0000
0001
0000
1000
0001
,
1000
0000
0000
0000
0010
0000
0100
0001
0000
1000
0000
0000
0001
0000
0010
0000
,
0100
0000
0000
0000
0100
0000
0000
0200
0000
0000
0000
0000
0300
0000
1000
0001
,
1000
0000
0000
0010
0000
0100
0001
0000
0000
0000
0100
0000
0001
0000
0010
0000
,
0000
0100
0000
0100
0000
0100
1000
0000
0001
0000
0000
0000
1000
0000
0001
0000
,
1000
0000
0101
0000
0010
1000
0100
0000
,
0010
0000
1100
0000
0010
0001
0100
0000
,
0010
0000
0101
0000
0010
1000
0100
0000
,
0010
0000
1100
0000
0010
0001
0100
0001
,
1000
0000
0000
0000
0000
0001
0010
0000
0100
0000
1000
0000
0001
0000
0000
0100
,
0000
0010
1001
0000
0100
0000
1001
1000
,
0001
0000
0000
0000
0000
1000
0010
0000
0100
0000
0001
0000
1000
0000
0000
0100
,
0000
0010
1001
0000
0100
0000
1001
0001
,
1000
0000
0000
0000
0000
0001
0010
0000
0100
0000
1000
0000
0001
0000
0000
0100
,
0000
0010
1001
0000
0100
0000
0110
0010
,
1000
0000
0000
0000
0000
0001
0010
0000
0100
0000
1000
0000
0001
0000
0000
0100
,
0000
0001
0000
1000
0000
0100
1000
0001
,
1000
0000
1000
0010
0000
0100
0000
0002
0000
0000
0000
0000
0000
0000
1003
0000
,
0200
0000
0000
0000
0000
0000
0000
0320
0000
0000
0000
0000
0000
0000
0000
0000
,
0031
0000
0001
0010
0000
0100
0000
2000
0000
0000
0000
0000
0000
0000
3001
0000
,
1000
0100
0000
0000
0010
0000
0001
1000
0000
0010
0000
0000
1000
0000
0001
0000
,
0010
0000
0001
1000
0000
0010
0000
2000
0000
0000
0000
0000
0000
0000
3001
0000
,
0200
0000
0000
0000
0000
0000
0000
0320
0000
0000
0000
0000
0030
0000
0010
0000
,
1000
0000
0100
0010
0000
0001
0000
2000
0000
0000
0000
0000
0000
0000
3010
0000
,
0200
0000
0000
0000
0000
0000
0000
0000
0302
0000
0000
0000
0003
0000
0001
1000
,
0001
0000
0000
0000
0100
0000
0010
1000
0000
0001
0000
0000
1000
0000
0100
0000
,
0010
0000
0000
0000
0010
0000
0000
0020
0000
0000
0000
0000
0030
0000
0001
1000
,
0001
0000
0000
0000
0100
0000
0010
1000
0000
0001
0000
0000
1000
0000
0100
0000
,
0010
0000
0000
0010
0001
0000
0000
0100
0000
0001
0000
0000
1000
0000
0001
1000
,
0001
0000
0000
0000
0100
0000
0010
1000
0000
0001
0000
0000
1000
0000
0100
0000
,
0010
0000
0000
0000
0010
0000
0000
0020
0000
0000
0000
0000
0030
0000
0001
1000
,
0001
0000
0000
0100
0000
0010
1000
0000
0000
0000
0010
0000
1000
0000
0100
0000
,
0000
0010
0000
0010
0000
0010
0001
0000
1000
0000
0000
0000
0001
0000
0010
0000
,
1001
0000
0000
0000
1100
0000
0000
0000
0000
0000
0001
1000
0000
0001
1000
0000
,
0000
0000
0000
0000
0000
0000
0000
0000
0000
0000
1000
0001
0000
1000
0001
0000
,
0000
0000
0000
0000
0000
0000
0000
0000
0000
0000
0001
0010
0000
0100
1000
0000
,
0000
0001
0000
0000
0010
0000
0010
0001
0000
1000
0000
0000
0100
0000
0001
0000
,
0000
0000
0000
0000
0000
0000
0000
0000
0000
0000
1000
0010
0000
0100
0001
0000
,
0000
0000
0000
0000
0000
0000
0000
0000
0000
0000
1000
0001
0000
0100
0001
0000
,
0000
0000
0000
0000
0000
0000
0000
0000
0000
0000
1000
0010
0000
1000
0001
0000
,
0000
2000
0000
0000
0000
0000
3000
0001
0100
0000
0000
0100
0000
0000
0000
0000
,
0000
0000
0000
0000
0000
0000
0000
0000
0000
0000
1000
0100
0000
0010
0001
0000
,
0000
0000
0000
0000
0000
0000
0000
0000
0000
0000
1000
0010
0000
0100
0001
0000
,
0000
0000
0000
0000
0000
0000
0000
0000
0000
0000
1000
0100
0000
1000
0001
0000
,
0000
0010
0000
0000
0100
0000
0000
0010
0000
1000
0000
0000
0010
0000
0001
0000
,
0000
0000
0000
0000
0000
0000
0000
0000
0000
0000
1000
0010
0000
1000
0001
0000
,
0000
0000
0000
0000
0000
0000
0000
0000
0000
0000
0001
0100
0000
0001
1000
0000
,
0000
0000
0000
0000
0000
0000
0000
0000
0000
0000
0001
0010
0000
0100
1000
0000
,
0000
0020
0000
0000
0000
0000
0000
0000
0000
0000
0000
0000
0030
0000
0000
0000
,
0000
0000
0000
0000
,
0000
0000
0000
0000
,
0000
0000
0000
0000
,
0000
0000
0000
0000
,
0000
0000
0000
0000
,
0000
0000
0000
0000
,
0000
0000
0000
0000
;

//---------------dance-single - ----------------
#NOTES:
     dance-single:
     :
     Hard:
     9:
     0.000,0.000,0.000,0.000,0.000:
0000
0000
0000
0000
,
0000
0000
0000
0000
,
0000
0000
0000
0000
,
0000
0000
0000
0000
0000
0000
0000
0000
0000
0000
0000
0000
0000
0000
0001
1000
,
0200
0000
0000
0000
0300
1000
0001
0000
1000
0100
0010
0001
2000
0000
0000
0020
,
0000
0000
3030
0000
0000
0001
1000
0001
0010
0000
0001
1000
0000
0000
1000
0001
,
0020
0000
0000
0000
0030
0001
1000
0000
0001
0010
0100
1000
0002
0000
0000
0103
,
0000
0001
0010
0001
0000
1000
0010
1000
0000
0000
0000
0000
0000
0000
0001
0100
,
0020
0000
0000
0000
0030
1000
0001
0000
0010
0100
1000
0001
0200
0000
0000
0020
,
0000
0000
0330
0000
0000
1000
0001
1000
0100
0000
1000
0001
0000
0000
1000
0010
,
0200
0000
0000
0000
0300
0001
1000
0000
0100
0010
0001
1000
0020
0000
0000
0130
,
0000
0001
0010
0100
0000
0010
0100
1000
0000
0000
1000
0000
0001
1000
0100
0010
,
0001
0000
0001
1000
0000
0010
0000
0200
0000
0000
0010
0000
0301
0000
1000
0001
,
0020
0000
0130
0000
1000
0000
0001
2000
0100
0000
3010
0000
0001
0000
0000
0000
,
1001
0000
0001
1000
0000
0100
0000
0020
0000
0000
0001
0000
0130
0000
1000
0010
,
0200
0000
0000
0000
0001
0000
0000
1000
0300
0001
0000
0000
0101
0000
0001
0000
,
1001
0000
1000
0001
0000
0100
0000
0020
0000
0000
0100
0000
1030
0000
0001
1000
,
0200
0000
0310
0000
0001
0000
1000
0002
0010
0000
0103
0000
1000
0000
0001
0100
,
0001
0000
1000
0001
0000
0010
0000
0200
0000
0000
1000
0000
0310
0000
0001
0100
,
0020
1000
0000
1000
0030
1000
0001
0000
1001
0000
0000
0000
0000
0000
1000
0001
,
0020
0000
0000
0000
0130
0000
1000
0010
0000
0200
0000
0000
0301
0000
1000
0000
,
2002
0000
3003
0000
1100
0000
2000
0002
0000
0000
3003
0000
0000
0000
0001
1000
,
0020
0000
0000
0000
0130
0000
0001
1000
0000
0010
0000
0000
0100
0000
0001
0000
,
0010
0000
0000
0010
0100
0000
0100
1000
0000
0001
0000
0000
1001
0000
0001
1000
,
0200
0000
0000
0000
0310
0000
0001
0100
0000
0020
0000
0000
1030
0000
0001
0000
,
2002
0000
3003
0000
0011
0000
0002
2000
0000
0000
3003
0000
0000
0000
1000
0001
,
0200
0000
0000
0010
0300
1000
0001
0000
0100
0000
0001
0000
0010
0000
1000
0000
,
0010
0001
0000
0001
0000
0001
1000
0000
1001
0000
0000
0000
0001
0000
1000
0001
,
1000
0000
0001
0000
1000
0100
0000
0010
0000
0010
0000
0001
1000
0000
1000
0000
,
0001
0000
1000
0000
0001
0010
0000
0100
0000
0100
0000
1000
0001
0000
0001
0000
,
1000
0000
0001
0000
1000
0100
0000
0010
0000
0010
0000
0001
1000
0000
1000
0000
,
0001
0000
1000
0000
0001
0010
0000
0100
0000
0100
0000
1000
0001
0000
1000
0100
,
0020
0000
0000
0000
0000
0130
1000
0000
0001
0010
0100
1000
0002
0000
0000
0200
,
0000
0000
0303
0000
0000
0010
1000
0001
0010
0000
0100
1000
0000
0000
0001
1000
,
0200
0000
0000
0000
0000
0310
0001
0000
1000
0100
0010
0001
2000
0000
0000
3010
,
0000
0100
0001
0100
0000
0010
1000
0010
0000
0100
0000
0000
0001
0000
1000
0001
,
0200
0000
0000
0000
0300
0001
0010
0100
1000
0001
0100
0001
2000
0000
0000
0200
,
0000
0000
3300
0000
0000
1000
0100
1000
0001
0000
0100
0001
0000
0000
0001
0010
,
0200
0000
0000
0000
0300
1000
0010
0100
0001
1000
0100
1000
0002
0000
0000
1003
,
0000
0001
0010
0100
0000
0010
0100
1000
0000
0001
0100
0000
0001
0010
0100
1000
,
0001
0000
1000
0001
0000
0100
0000
0020
0000
0000
0100
0000
1030
0000
0001
1000
,
0200
0000
0310
0000
0001
0000
1000
0002
0010
0000
0103
0000
1000
0000
0000
0000
,
1001
0000
1000
0001
0000
0010
0000
0200
0000
0000
1000
0000
0310
0000
0001
0100
,
0020
0000
0000
0000
1000
0000
0000
0001
0030
1000
0000
0000
1010
0000
1000
0000
,
1001
0000
0001
1000
0000
0010
0000
0200
0000
0000
0010
0000
0301
0000
1000
0001
,
0020
0000
0130
0000
1000
0000
0001
2000
0100
0000
3010
0000
0001
0000
1000
0010
,
1000
0000
0001
1000
0000
0100
0000
0020
0000
0000
0001
0000
0130
0000
1000
0010
,
0200
0001
0000
0001
0300
0001
1000
0000
1001
0000
0000
0000
0000
0000
0001
1000
,
0200
0000
0000
0000
0310
0000
0001
0100
0000
0020
0000
0000
1030
0000
0001
0000
,
2002
0000
3003
0000
0011
0000
0002
2000
0000
0000
3003
0000
0000
0000
1000
0001
,
0200
0000
0000
0000
0310
0000
1000
0001
0000
0100
0000
0000
0010
0000
1000
0000
,
0100
0000
0000
0100
0010
0000
0010
0001
0000
1000
0000
0000
1001
0000
1000
0001
,
0020
0000
0000
0000
0130
0000
1000
0010
0000
0200
0000
0000
0301
0000
1000
0000
,
2002
0000
3003
0000
1100
0000
2000
0002
0000
0000
3003
0000
0000
0000
0001
1000
,
0020
0000
0000
0100
0030
0001
1000
0000
0010
0000
1000
0000
0100
0000
0001
0000
,
0100
1000
0000
1000
0000
1000
0001
0000
1001
0000
0000
0000
0001
0000
1000
0100
,
1000
0000
0000
0000
0000
0000
0000
0000
0000
0000
0100
0001
0000
0001
1000
0000
,
0000
0000
0000
0000
0000
0000
0000
0000
0000
0000
0100
1000
0000
1000
0001
0000
,
0000
0000
0000
0000
0000
0000
0000
0000
0000
0000
0100
0001
0000
0001
1000
0000
,
0000
0010
0000
0000
1000
0000
1000
0010
0000
0100
0000
0000
0001
0000
0010
0000
,
0100
0000
0000
0000
0000
0000
0000
0000
0000
0000
1000
0001
0000
0001
0010
0000
,
0000
0000
0000
0000
0000
0000
0000
0000
0000
0000
0100
1000
0000
1000
0001
0000
,
0000
0000
0000
0000
0000
0000
0000
0000
0000
0000
0100
0001
0000
0001
1000
0000
,
0000
0010
1000
0001
0000
0010
0001
1000
0001
1000
0000
0100
0000
0000
0010
0000
,
0001
0000
0000
0000
0000
0000
0000
0000
0000
0000
1000
0100
0000
0010
0001
0000
,
0000
0000
0000
0000
0000
0000
0000
0000
0000
0000
1000
0010
0000
0100
0001
0000
,
0000
0000
0000
0000
0000
0000
0000
0000
0000
0000
1000
0100
0000
0001
0010
0000
,
0000
0100
0000
0000
1000
0000
0010
0100
0000
0001
0000
0000
1000
0000
0001
0000
,
1000
0000
0000
0000
0000
0000
0000
0000
0000
0000
1000
0010
0000
1000
0001
0000
,
0000
0000
0000
0000
0000
0000
0000
0000
0000
0000
0001
0100
0000
0001
1000
0000
,
0000
0000
0000
0000
0000
0000
0000
0000
0000
0000
0001
0010
0000
0100
1000
0000
,
0000
0020
0000
0000
0000
0000
0000
0000
0000
0000
0000
0000
0030
0000
0000
0000
,
0000
0000
0000
0000
,
0000
0000
0000
0000
,
0000
0000
0000
0000
,
0000
0000
0000
0000
,
0000
0000
0000
0000
,
0000
0000
0000
0000
,
0000
0000
0000
0000
;

//---------------dance-single - ----------------
#NOTES:
     dance-single:
     :
     Challenge:
     10:
     0.000,0.000,0.000,0.000,0.000:
0000
0000
0000
0000
,
0000
0000
0000
0000
,
0000
0000
0000
0000
,
0000
0000
0000
0000
0000
0000
0000
0000
0000
0000
0000
0000
0000
0000
0001
1000
,
0200
0000
0300
0000
0000
1000
0001
0010
0001
1000
0010
0100
0002
0000
0000
0020
,
0000
0000
0000
0000
0033
0000
0000
0000
0000
0000
0100
0000
1000
0000
0001
0000
0010
0000
0000
0000
0001
0000
1000
0100
0000
0000
0000
0000
1000
0000
0001
0000
,
0020
0000
0030
0000
0000
0100
1000
0010
0100
0001
0010
0001
2000
0000
0000
3010
,
0000
0100
0001
0100
0000
0010
1000
0010
0000
1000
0000
0000
1001
0000
0001
0100
,
0020
0030
1000
0000
0001
1000
0010
1000
0001
0010
0001
1000
0200
0000
0000
0310
,
0000
0000
0000
0000
0001
0000
0000
0000
1000
0000
0100
0000
0010
0000
0001
0000
1000
0000
0000
0000
0010
0000
0100
0001
0000
0000
0000
0000
1000
0000
0100
0000
,
0020
0030
0001
0000
1000
0001
0100
0001
1000
0010
1000
0001
0020
0000
0000
0130
,
0000
0000
0000
1000
0000
0000
0010
0000
0000
0100
0000
0000
0000
0000
0000
0001
0000
0010
0100
0000
0000
1000
0000
0000
0000
0000
0000
0001
0000
0000
0100
0000
0000
0000
0000
0000
0001
0000
0000
1000
0000
0000
0100
0000
0000
0010
0000
0000
,
0001
0000
0001
1000
0000
0010
0000
0110
0000
0100
0001
0000
1001
0000
1000
0001
,
0020
0000
0100
0030
1001
0000
0001
0200
0000
0010
0310
1000
0000
1000
0001
0000
,
1001
0000
1000
0100
0000
0010
0000
1001
0000
0001
0100
0000
1001
0000
0010
1000
,
0200
0010
0000
0000
1000
0000
0010
0010
0300
0001
0000
0000
0101
0000
0001
0000
,
1001
0000
1000
0001
0000
0100
0000
0110
0000
0010
1000
0000
1001
0000
0001
1000
,
0200
0000
0010
0300
1001
0000
1000
0001
0020
0000
0100
1030
0000
0001
0010
0001
,
1000
0000
0001
0010
0000
0100
0000
1001
0000
1000
0010
0000
1001
0000
0100
0001
,
0010
0100
0000
1001
0000
1000
0100
0000
0001
0200
0000
0000
0300
0000
1000
0001
,
0020
0000
0000
0030
1100
0000
1000
0010
0000
0201
0000
0000
0310
0000
1000
0000
,
2002
0000
3003
0000
1100
0000
0001
0200
0000
0010
1300
0001
0000
1000
0001
1000
,
0020
0000
0000
0000
0131
0000
1000
0001
0000
0110
0000
0000
0100
0000
1000
0000
,
0020
0000
0000
0130
0001
0000
0001
1000
0000
1100
0000
0000
1001
0000
0001
1000
,
0200
0000
0000
0300
0011
0000
0001
0100
0000
1020
0000
0000
0130
0000
0001
0000
,
2002
0000
3003
0000
0011
0000
1000
0020
0000
0100
0031
1000
0000
0001
1000
0001
,
0200
0010
0000
0010
0300
0010
1000
0000
0001
0000
1010
0000
0110
0000
0011
0000
,
1000
1100
0000
0101
0000
0011
0001
0000
1001
0000
0000
0000
0001
1000
0010
1000
,
0001
0000
0001
0000
1000
0100
1000
0001
0000
0001
0000
1000
0001
0000
0001
0000
,
1000
0000
1000
0000
0001
0010
0001
1000
0000
1000
0000
0001
1000
0000
1000
0000
,
0001
0000
0001
0000
1000
0010
1000
0001
0000
0001
0000
1000
0001
0000
0001
0000
,
1000
0000
1000
0000
0001
0100
0001
1000
0000
1000
0000
0001
1000
0000
1000
0001
,
0020
0000
0000
0000
0000
0130
1000
0001
0010
0001
1000
0010
0200
0000
0000
0002
,
0000
0000
0000
0000
0303
0000
0000
0000
0000
0000
1000
0000
0100
0000
0010
0000
0001
0000
0000
0000
1000
0000
0001
0010
0000
0000
0000
0000
0001
0000
1000
0000
,
0200
0000
0000
0000
0000
0310
0001
1000
0100
1000
0001
0100
0020
0000
0000
1030
,
0000
0100
0001
0100
0000
0010
1000
0001
0000
0011
0000
0000
1100
0000
1000
0001
,
0100
0000
0010
0000
1001
1000
0100
0010
0001
1000
0010
1000
0001
0000
1000
0100
,
0000
0010
0001
1000
0000
0001
0010
0001
1000
0000
0010
1000
0001
0000
1000
0100
,
0010
0000
0001
0000
1001
1000
0010
0100
0001
1000
0100
1000
0001
0000
0010
0100
,
0000
0000
0000
1000
0000
0000
0010
0000
0000
0100
0000
0000
0000
0000
0000
0001
0000
0010
0100
0000
0000
1000
0000
0000
0000
0000
0000
0001
0000
0000
0100
0000
0000
0010
0000
0000
1000
0000
0000
0100
0000
0000
0010
0000
0000
0001
0000
0000
,
1000
0000
1000
0001
0000
0100
0000
0110
0000
0010
1000
0000
1001
0000
0001
1000
,
0200
0000
0010
0300
1001
0000
1000
0020
0000
0100
0130
0001
0000
0001
1000
0000
,
1001
0000
0001
0010
0000
0100
0000
1001
0000
1000
0010
0000
1001
0000
0100
0001
,
0020
0100
0000
0000
0001
0000
0100
0100
0030
1000
0000
0000
1010
0000
1000
0000
,
1001
0000
0001
1000
0000
0010
0000
0110
0000
0100
0001
0000
1001
0000
1000
0001
,
0020
0000
0100
0030
1001
0000
0001
1000
0200
0000
0010
0301
0000
1000
0100
1000
,
0001
0000
1000
0100
0000
0010
0000
1001
0000
0001
0100
0000
1001
0000
0010
1000
,
0100
0010
0000
1001
0000
0001
0010
0000
1000
0020
0000
0000
0030
0000
0001
1000
,
0200
0000
0000
0300
0011
0000
0001
0100
0000
1020
0000
0000
0130
0000
0001
0000
,
2002
0000
3003
0000
0011
0000
1000
0020
0000
0100
0031
1000
0000
0001
1000
0001
,
0200
0000
0000
0000
1310
0000
0001
1000
0000
0110
0000
0000
0010
0000
0001
0000
,
0200
0000
0000
0310
1000
0000
1000
0001
0000
0011
0000
0000
1001
0000
1000
0001
,
0020
0000
0000
0030
1100
0000
1000
0010
0000
0201
0000
0000
0310
0000
1000
0000
,
2002
0000
3003
0000
1100
0000
0001
0200
0000
0010
1300
0001
0000
1000
0001
1000
,
0020
0100
0000
0100
0030
0100
0001
0000
1000
0000
0101
0000
0110
0000
1100
0000
,
0001
0011
0000
1010
0000
1100
1000
0000
1001
0000
0000
0000
1000
0001
0100
0001
,
1000
0000
0000
0000
1001
0000
0000
0000
0000
0000
1000
0001
0000
0001
0100
0000
,
1000
0000
0000
0000
1001
0000
0000
0000
0000
0000
0001
1000
0000
1000
0100
0000
,
0001
0000
0000
0000
1001
0000
0000
0000
0000
0000
1000
0010
0000
0010
0001
0000
,
0000
0010
0000
0000
1000
0000
1000
0010
0000
1000
0000
0000
0010
0000
0001
0000
,
1000
0000
0000
0000
1001
0000
0000
0000
0000
0000
1000
0001
0000
0001
0100
0000
,
1000
0000
0000
0000
1001
0000
0000
0000
0000
0000
0001
1000
0000
0010
0010
0000
,
0001
0000
0000
0000
1001
0000
0000
0000
0000
0000
1000
0001
0000
0001
0100
0000
,
0000
1000
0001
1000
0001
0100
0100
1000
0010
0010
0001
1000
1001
0000
0000
0000
,
0100
0000
0000
0000
1001
0000
0000
0000
0000
0000
0001
1000
0000
1000
0001
0000
,
0000
0000
0000
0000
1001
0000
0000
0000
0000
0000
0001
0010
0000
0100
1000
0000
,
0000
0000
0000
0000
1001
0000
0000
0000
0000
0000
1000
0010
0000
0001
0100
0000
,
0000
1000
0000
0000
0010
0000
0010
0001
0000
1000
0000
0000
0100
0000
0001
0000
,
1000
0000
0000
0000
1001
0000
0000
0000
0000
0000
0100
0001
0000
0001
1000
0000
,
0000
0000
0000
0000
0000
0000
0000
0000
0000
0000
0100
1000
0000
1000
0001
0000
,
0000
0000
0000
0000
0000
0000
0000
0000
0000
0000
0100
0001
0000
0001
1000
0000
,
0000
0020
0000
0000
0000
0000
0000
0000
0000
0000
0000
0000
0000
0000
0000
0000
,
0130
0000
0000
0000
,
0000
0000
0000
0000
,
0000
0000
0000
0000
,
0000
0000
0000
0000
,
0000
0000
0000
0000
,
0000
0000
0000
0000
,
0000
0000
0000
0000
;
