#TITLE:Hogging Molly;
#SUBTITLE:;
#ARTIST:Brandon Strader & Rexy;
#TITLETRANSLIT:;
#SUBTITLETRANSLIT:;
#ARTISTTRANSLIT:;
#GENRE:;
#CREDIT:;
#BANNER:hogging_miley_bn.png;
#BACKGROUND:hogging_miley_bg.png;
#LYRICSPATH:;
#CDTITLE:!gameoson.png;
#MUSIC:Hogging Molly.mp3;
#OFFSET:-0.153000;
#SAMPLESTART:15.579000;
#SAMPLELENGTH:21.677000;
#SELECTABLE:YES;
#BPMS:0.000000=155.000000
;
#STOPS:
;
#BGCHANGES:;
#KEYSOUNDS:;
#ATTACKS:;

//---------------dance-single - ----------------
#NOTES:
     dance-single:
     :
     Challenge:
     9:
     0.707090,0.745205,0.036800,0.285202,0.239201,503.000000,4.000000,31.000000,0.000000,0.000000,2.000000,0.707090,0.745205,0.036800,0.285202,0.239201,503.000000,4.000000,31.000000,0.000000,0.000000,2.000000:
0000
0000
0000
0000
,
0000
0000
0000
0000
,
1000
0001
1000
0001
1000
0001
1000
0001
1000
0000
0000
0000
0010
0000
0000
0000
,
1000
0000
0001
1000
0001
0000
0010
0000
0001
0000
1000
0000
0001
0000
1000
0000
,
0010
0100
0010
0100
0010
0100
0010
0100
0010
0000
0000
0000
1000
0000
0000
0000
,
0100
0000
1000
0100
1000
0000
0010
0000
0100
0000
0001
0000
0100
0000
0001
0000
,
1000
0100
1000
0100
1000
0100
1000
0100
1000
0000
0000
0000
0010
0000
0000
0000
,
0100
0000
0001
0100
0001
0000
0010
0000
0100
0000
1000
0000
0100
0000
1000
0000
,
0010
0000
1000
0001
1000
0000
0010
0000
0100
0000
0001
0000
0010
0000
0100
0000
,
1000
0001
1000
0001
1000
0000
0001
0000
1000
0000
0000
0000
0000
0000
0000
0000
,
1000
0100
0001
0100
1000
0100
0001
0100
,
2000
0000
0000
0000
3010
0000
1000
0010
2000
0000
0000
0000
3100
0000
0010
0000
,
0001
0100
1000
0100
0001
0100
1000
0100
,
0002
0000
0013
0010
0200
0000
0310
0001
,
1000
0100
0001
0100
1000
0100
0001
0100
,
2000
0000
3010
0010
2000
0000
3100
0010
,
0001
0100
0001
0010
0100
0000
1000
0010
,
1000
0100
0010
0001
0100
0000
0010
0100
,
0001
0010
0100
1000
0010
0000
0100
0001
,
0010
0000
0001
1000
0001
0000
0010
0000
0100
0000
0000
0000
0010
0000
0001
0000
,
1000
0100
0001
0100
1000
0000
0001
0010
,
0001
0100
1000
0100
0001
0000
0010
0100
,
1000
0010
0001
0010
1000
0000
0100
0010
,
0001
0100
1000
0100
0010
0000
1000
0100
,
0010
0001
0010
0001
1000
0010
0001
0010
,
1000
0000
0001
0000
1000
0000
0001
0000
0100
0000
0010
1000
0020
0000
0000
0000
,
0130
0001
0100
0001
1000
0100
0001
0100
,
1000
0000
0001
0000
1000
0000
0001
0000
0010
0100
0010
0100
0010
0000
0001
1000
,
0001
0010
0001
0010
0001
0100
1000
0100
,
0001
0000
0010
0000
0001
0000
0010
0000
0100
0000
1000
0010
2000
0000
0000
0000
,
3010
0100
0010
0100
0001
0010
1000
0010
,
0001
0000
0100
0000
0010
1000
0010
1000
0001
0000
0010
0000
0100
0000
1000
0000
,
0002
0000
0103
0010
1000
0100
0010
0001
,
2000
0000
0000
0000
3010
0000
0000
0100
0001
0000
1000
0000
0001
0000
0000
0000
,
2000
0000
3100
1000
0010
0100
0001
0010
,
0002
0000
0000
0000
0013
0000
0100
1000
0100
0000
0000
0100
1000
0001
0100
0001
,
2000
0000
3100
0010
0001
0100
0000
1010
,
0000
1010
0000
0010
0100
0001
0010
0100
,
2000
0000
3100
0010
0001
1000
0000
0101
,
0000
0101
0000
0100
0001
0010
0100
1000
,
0002
0000
0010
0000
0010
0000
0013
0100
,
1000
0010
1000
0100
1000
0010
1000
0001
,
1000
1000
0001
0001
1000
1000
0001
1000
,
0001
1000
0001
1000
0001
1000
0001
1000
0001
1000
0001
1000
0001
1000
0001
1000
,
0002
0000
0013
0001
0100
0010
1000
0100
,
0020
0000
0130
1000
0010
0100
0001
1000
,
0200
0000
0000
0000
0310
0000
0100
0000
1000
0001
1000
0000
0010
0000
0100
0000
,
0002
0000
0013
0100
2000
0000
3100
0010
,
0002
0000
0103
1000
0200
0000
0310
1000
,
0200
0000
0000
0000
0310
0000
0100
0000
1000
0000
0010
0000
1000
0001
1000
0000
,
0100
0010
0001
0100
0010
1000
0001
0100
,
0001
0010
2000
0000
3010
0001
0100
0001
,
1000
0010
0001
0010
1000
0010
0001
0010
,
2000
0000
3100
0100
0020
0000
0031
0100
,
0001
0010
1000
0010
0001
0010
1000
0010
,
0002
0000
0103
0100
0020
0000
1030
0100
,
1000
0010
0001
0010
1000
0010
0001
0010
,
2000
0000
3001
0001
0020
0000
0031
1000
,
0040
0400
0000
0000
0000
0000
0000
0000
0000
0000
0000
0000
0000
0030
0300
0000
,
0001
0000
1000
0100
0020
0000
0031
0000
,
1000
0000
0010
1000
0010
0000
0100
0000
0001
0000
0000
0000
0010
0000
0000
0000
,
0001
0000
0100
0001
0100
0000
0010
0000
1000
0000
0001
0000
1000
0000
0001
0000
,
0010
0000
0001
0010
0001
0000
0100
0000
0010
0000
0000
0000
1000
0000
0000
0000
,
0001
0000
1000
0001
1000
0000
0100
0000
0010
0000
0001
0000
0010
0000
0001
0000
,
0100
0000
0010
0100
0010
0000
1000
0000
0001
0000
0000
0000
0010
0000
0000
0000
,
0001
0000
0100
0001
0100
0000
0010
0000
1000
0000
0001
0000
1000
0000
0001
0000
,
0010
0000
0100
1000
0100
0000
0010
0000
0001
0000
1000
0000
0010
0000
0100
0000
,
0001
1000
0001
1000
0001
0000
1000
0000
0001
0000
0000
0000
0000
0000
0000
0000
;

//---------------dance-single - ----------------
#NOTES:
     dance-single:
     :
     Hard:
     7:
     0.563832,0.496803,0.000000,0.303602,0.000000,396.000000,0.000000,33.000000,0.000000,0.000000,0.000000,0.563832,0.496803,0.000000,0.303602,0.000000,396.000000,0.000000,33.000000,0.000000,0.000000,0.000000:
0000
0000
0000
0000
,
0000
0000
0000
0000
,
1000
0100
0010
0100
1000
0000
0010
0000
,
1000
0001
1000
0000
0001
0100
0001
0100
,
0001
0010
0100
0010
0001
0000
0100
0000
,
0001
1000
0001
0000
0010
0100
0010
0100
,
1000
0010
0100
0010
1000
0000
0001
0000
,
0010
0100
0010
0000
0001
1000
0001
1000
,
0010
1000
0100
0000
0010
0001
0100
0000
,
0001
0100
1000
0100
0001
0000
0000
0000
,
1000
0100
0010
0000
0001
0100
0010
0000
,
2000
0000
3001
0100
0002
0000
0013
0100
,
1000
0010
0100
0000
0001
0010
0100
0000
,
0020
0000
0031
1000
0020
0000
1030
0001
,
1000
0100
0010
0000
0001
0100
0010
0000
,
2000
0000
3001
0100
0002
0000
1003
0100
,
0010
0001
0010
0001
1000
0000
0100
1000
,
0010
0100
0010
0100
0001
0000
1000
0100
,
0010
0001
0010
0001
0100
0000
0001
0100
,
0010
1000
0010
1000
0001
0000
1000
0100
,
0010
0001
0100
0010
1000
0000
0001
0100
,
0010
1000
0100
0010
0001
0000
0010
0100
,
1000
0010
0100
0001
0010
0000
0001
0100
,
0010
1000
0100
1000
0010
0000
1000
0100
,
0010
0000
0010
0000
0001
0100
0010
0100
,
0001
0000
0001
0000
0100
0010
2000
0000
,
3100
0000
0100
0000
1000
0010
0100
0010
,
1000
0000
1000
0000
0100
0010
0001
1000
,
0100
0000
0100
0000
0010
0001
0100
0001
,
0010
0000
0010
0000
0100
1000
0020
0000
,
0130
0000
0100
0000
0001
1000
0010
1000
,
0001
0000
0100
0010
1000
0100
0010
0001
,
2000
0000
3100
1000
0100
0010
0001
0100
,
0002
0000
0103
0000
0100
0010
1000
0000
,
0002
0000
0013
0100
1000
0100
0010
0001
,
2000
0000
3001
0100
0001
0000
1000
0100
,
2000
0000
3010
1000
0010
1000
0000
0100
,
0000
0100
0000
0010
0001
0100
0001
0100
,
0020
0000
1030
0001
1000
0001
0000
0010
,
0000
0010
0000
0001
0100
0010
1000
0001
,
2000
0000
0010
0000
0010
0000
3010
0100
,
0001
1000
0001
1000
0001
1000
0001
0000
,
1000
0000
0001
0000
1000
0000
0001
0100
,
0010
1000
0100
1000
0010
1000
0100
1000
,
0002
0010
0010
0013
,
0200
0000
1000
0000
1300
0000
0010
0100
,
0002
0000
0013
0100
1000
0001
1000
0001
,
0200
0310
2000
3100
,
0020
0031
2000
3010
,
0200
0000
0001
0000
0301
0100
0010
0000
,
1000
0100
0010
0100
1000
0100
0010
0001
,
1000
0100
0002
0000
0103
1000
0020
0000
,
1030
0010
0100
0000
0001
0010
0100
0000
,
2000
0000
3001
0100
0002
0000
0103
0010
,
1000
0100
0010
0000
0001
0100
0010
0000
,
2000
0000
3010
0100
0002
0000
0013
0100
,
1000
0010
0100
0000
0001
0010
0100
0000
,
2000
0000
3001
0100
0002
0000
1003
0100
,
0020
0000
0000
0000
0000
0000
0030
0001
,
1000
0000
0010
0100
0002
0000
0003
0000
,
1000
0001
0100
0001
1000
0000
0010
0000
,
1000
0100
0010
0000
0001
0100
0010
0000
,
0100
0001
1000
0001
0100
0000
0010
0000
,
1000
0100
0010
0000
0001
0100
0001
1000
,
0100
0010
0001
0010
0100
0000
1000
0000
,
0010
1000
0001
0000
0010
0001
1000
0000
,
0010
1000
0100
0000
0010
0001
0100
0000
,
0001
0100
1000
0100
0001
0000
0000
0000
;

//---------------dance-single - ----------------
#NOTES:
     dance-single:
     :
     Medium:
     5:
     0.420574,0.372602,0.202401,0.064400,0.000000,291.000000,22.000000,7.000000,0.000000,0.000000,0.000000,0.420574,0.372602,0.202401,0.064400,0.000000,291.000000,22.000000,7.000000,0.000000,0.000000,0.000000:
0000
0000
0000
0000
,
0000
0000
0000
0000
,
1001
1001
0110
0000
,
1000
0100
0010
0001
,
0110
0110
1001
0000
,
0001
0100
0010
1000
,
0101
0101
1010
0000
,
0010
1000
0100
0010
,
0001
0000
1000
0000
,
1001
0110
1001
0000
,
0001
0100
0001
0000
0001
0100
0001
0000
,
1000
0100
0010
0001
,
1000
0100
1000
0000
1000
0100
1000
0000
,
0001
0100
0010
1000
,
0001
0100
0001
0000
0001
0100
0001
0000
,
1000
0100
0001
0010
,
1000
0001
1000
0000
0100
0000
0010
0000
,
0001
1000
0001
0000
0100
0000
0010
0000
,
1000
0001
1000
0000
0010
0000
0100
0000
,
0001
1000
0001
0000
1000
0000
0100
0000
,
0010
0001
0100
0000
0010
0000
0100
0000
,
0010
1000
0100
0000
0010
0000
0100
0000
,
1000
0010
0100
0000
0001
0000
0010
0000
,
0001
0100
0010
0000
1000
0000
0001
0000
,
1000
0000
1000
0000
0001
0100
0001
0100
,
0001
0000
0001
0000
0010
0100
0010
0000
,
0001
0000
0001
0000
0100
0010
0100
0010
,
0100
0000
0100
0000
0010
1000
0001
0000
,
1001
0000
1000
0000
0001
0010
0001
0010
,
0001
0000
1000
0000
0010
0100
0010
0000
,
0100
0000
0100
0000
0001
0010
0001
0010
,
0001
0000
1000
0000
0010
0100
0010
0000
,
1001
0000
0000
1000
0001
0000
0100
0000
,
0020
0000
0130
0100
,
0110
0000
0000
0010
1000
0000
0100
0000
,
0020
0000
0031
0001
,
0101
0000
0000
0010
1000
0010
0000
0100
,
0000
0100
0000
0000
0001
1000
0100
0000
,
1100
0000
0000
0001
0010
0001
0000
0100
,
0000
0100
0000
0000
0010
1000
0001
0000
,
1002
1000
1000
1003
,
0001
0100
0010
1000
,
0001
0000
0001
0000
0001
0000
0001
0100
,
0020
0000
0000
0030
,
1000
0100
0010
0001
,
0100
0000
0010
0000
1000
0000
0001
1000
,
0001
0000
0100
0000
0001
1000
0100
0000
,
0010
0100
1000
0001
,
1000
0010
0001
0010
,
1000
0000
0100
0000
0010
0000
0001
1000
,
0100
0010
0001
0000
0100
0010
1000
0000
,
0100
1000
0001
0000
0001
0100
0010
0000
,
1000
0010
1000
0000
1000
0010
1000
0000
,
0001
0010
0100
1000
,
0001
0010
0001
0000
0001
0010
0001
0000
,
0100
0010
1000
0100
,
0010
0001
0010
0000
0010
0001
0010
0000
,
0100
1000
0001
0100
,
2020
0000
0000
0000
3030
0000
0000
0001
,
0010
0100
2000
3000
,
0001
0001
0100
0010
,
1000
0100
1000
0100
,
0010
0010
0001
1000
,
0010
0100
0010
0100
,
0001
0001
1000
0100
,
0010
0001
0010
0001
,
1000
0100
0010
0001
,
1001
0110
1001
0000
;

//---------------dance-double - ----------------
#NOTES:
     dance-double:
     :
     Challenge:
     9:
     0.708404,0.745205,0.036800,0.294402,0.243801,503.000000,4.000000,32.000000,0.000000,0.000000,2.000000,0.708404,0.745205,0.036800,0.294402,0.243801,503.000000,4.000000,32.000000,0.000000,0.000000,2.000000:
// measure 0
00000000
00000000
00000000
00000000
,  // measure 1
00000000
00000000
00000000
00000000
,  // measure 2
10000000
01000000
10000000
01000000
10000000
01000000
10000000
01000000
10000000
00000000
00000000
00000000
00100000
00000000
00000000
00000000
,  // measure 3
10000000
00000000
01000000
00100000
01000000
00000000
00010000
00000000
00001000
00000000
00010000
00000000
00001000
00000000
00010000
00000000
,  // measure 4
00000100
00001000
00000100
00001000
00000100
00001000
00000100
00001000
00000100
00000000
00000000
00000000
00000010
00000000
00000000
00000000
,  // measure 5
00000001
00000000
00000100
00000010
00000100
00000000
00001000
00000000
00010000
00000000
00001000
00000000
00010000
00000000
00001000
00000000
,  // measure 6
01000000
00010000
01000000
00010000
01000000
00010000
01000000
00010000
01000000
00000000
00000000
00000000
00100000
00000000
00000000
00000000
,  // measure 7
10000000
00000000
00100000
01000000
00100000
00000000
00010000
00000000
00001000
00000000
00010000
00000000
00001000
00000000
00010000
00000000
,  // measure 8
00000100
00000000
00001000
00000010
00001000
00000000
00000100
00000000
00010000
00000000
00001000
00000000
00010000
00000000
00000010
00000000
,  // measure 9
00001000
00000001
00001000
00000001
00001000
00000000
00000001
00000000
00001000
00000000
00000000
00000000
00000000
00000000
00000000
00000000
,  // measure 10
00000001
00000010
00000100
00010000
00001000
00100000
01000000
10000000
,  // measure 11
00020000
00000000
00000000
00000000
01030000
00000000
00100000
10000000
00200000
00000000
00000000
00000000
10300000
00000000
00010000
00000000
,  // measure 12
10000000
01000000
00100000
00001000
00010000
00000100
00000010
00000001
,  // measure 13
00000200
00000000
00000310
00000010
00000200
00000000
00000310
00001000
,  // measure 14
00000001
00000010
00000100
00010000
00001000
00100000
01000000
10000000
,  // measure 15
00020000
00000000
01030000
10000000
02000000
00000000
03100000
10000000
,  // measure 16
01000000
00100000
00001000
00010000
00000100
00000000
00000010
00000001
,  // measure 17
00000100
00000010
00010000
00001000
00100000
00000000
00010000
01000000
,  // measure 18
00100000
10000000
00010000
00100000
00001000
00000000
00010000
00000010
,  // measure 19
00001000
00000000
00000001
00000100
00000001
00000000
00000010
00000000
00000100
00000000
00000000
00000000
00000010
00000000
00000001
00000000
,  // measure 20
00000100
00001000
00010000
00100000
10000000
00000000
00100000
10000000
,  // measure 21
01000000
00010000
00001000
00000010
00000001
00000000
00000010
00000001
,  // measure 22
00000010
00001000
00010000
00100000
10000000
00000000
00100000
10000000
,  // measure 23
01000000
00010000
00001000
00000100
00000001
00000000
00000010
00000001
,  // measure 24
00000100
00000010
00000100
00000010
00000001
00000010
00001000
00000100
,  // measure 25
00000010
00000000
00000001
00000000
00000010
00000000
00000001
00000000
00000100
00000000
00001000
00010000
00002000
00000000
00000000
00000000
,  // measure 26
01003000
00010000
01000000
00010000
00100000
10000000
00100000
00010000
,  // measure 27
01000000
00000000
00100000
00000000
01000000
00000000
00100000
00000000
00010000
00001000
00010000
00001000
00010000
00000000
00000100
00001000
,  // measure 28
00000100
00000010
00000100
00000010
00001000
00000010
00000001
00000010
,  // measure 29
00000100
00000000
00001000
00000000
00000100
00000000
00001000
00000000
00000010
00000000
00010000
00001000
00020000
00000000
00000000
00000000
,  // measure 30
01030000
00100000
01000000
00100000
10000000
00100000
00010000
00100000
,  // measure 31
01000000
00000000
10000000
00000000
00010000
01000000
00010000
01000000
00100000
00000000
00010000
00000000
00001000
00000000
00010000
00000000
,  // measure 32
02000000
00000000
13000000
01000000
00010000
00001000
00000010
00000100
,  // measure 33
00002000
00000000
00000000
00000000
00003010
00000000
00000000
00000010
00000100
00000000
00000100
00000000
00000001
00000000
00000000
00000000
,  // measure 34
00000020
00000000
00000031
00000010
00001000
00010000
01000000
00100000
,  // measure 35
00020000
00000000
00000000
00000000
01030000
00000000
00010000
10000000
00010000
00000000
00000000
00010000
10000000
01000000
10000000
01000000
,  // measure 36
00200000
00000000
00301000
00010000
00001000
00010000
00000000
00101000
,  // measure 37
00000000
00010010
00000000
00010000
00000100
00001000
00000010
00010000
,  // measure 38
00000200
00000000
00010300
00001000
00010000
00001000
00000000
00010010
,  // measure 39
00000000
00101000
00000000
00001000
01000000
00100000
10000000
01000000
,  // measure 40
00020000
00000000
00001000
00000000
00001000
00000000
00031000
00010000
,  // measure 41
00000100
00001000
00000010
00010000
00001000
01000000
00010000
00100000
,  // measure 42
00001000
00001000
00010000
00010000
00001000
00001000
00010000
00001000
,  // measure 43
00010000
00001000
00010000
00001000
00010000
00001000
00010000
00001000
00010000
00001000
00010000
00001000
00010000
00001000
00010000
00001000
,  // measure 44
00020000
00000000
00031000
00100000
00010000
01000000
00100000
10000000
,  // measure 45
02000000
00000000
13000000
01000000
00100000
00010000
01000000
00001000
,  // measure 46
00020000
00000000
00000000
00000000
00030100
00000000
00001000
00000000
00000010
00001000
00000010
00000000
00000100
00000000
00000001
00000000
,  // measure 47
00000020
00000000
00000130
00001000
00000002
00000000
00000103
00000010
,  // measure 48
00020000
00000000
00031000
01000000
00200000
00000000
01300000
00001000
,  // measure 49
00020000
00000000
00000000
00000000
00031000
00000000
01000000
00000000
00100000
00000000
10000000
00000000
00010000
00100000
00010000
00000000
,  // measure 50
10000000
01000000
00100000
00010000
00001000
00000100
00000010
00000001
,  // measure 51
00000100
00001000
00020000
00000000
00130000
10000000
02000000
00000000
,  // measure 52
13000000
01000000
00100000
00001000
00010000
00000100
00000010
00000001
,  // measure 53
00000200
00000000
00000310
00000010
00002000
00000000
00003100
00000010
,  // measure 54
00000001
00000010
00000100
00010000
00001000
00100000
01000000
10000000
,  // measure 55
00200000
00000000
10300000
10000000
00020000
00000000
00130000
01000000
,  // measure 56
10000000
00100000
01000000
00001000
00010000
00000010
00000100
00000001
,  // measure 57
00002000
00000000
00000000
00000000
00003001
00000100
00000001
00000000
00000020
00000000
00000000
00000000
00000130
00000000
00010000
00000000
,  // measure 58
00004000
00040000
00000000
00000000
00000000
00000000
00000000
00000000
00000000
00000000
00000000
00000000
00033000
00000000
00000000
00000000
,  // measure 59
00010000
00000000
00001000
01000000
00200000
00000000
00310000
00000000
,  // measure 60
00001000
00000000
00010000
00001000
00010000
00000000
00000100
00000000
00001000
00000000
00000000
00000000
00000010
00000000
00000000
00000000
,  // measure 61
00001000
00000000
00000100
00010000
00000100
00000000
00001000
00000000
00000010
00000000
00000100
00000000
00000010
00000000
00000100
00000000
,  // measure 62
00001000
00000000
00010000
00001000
00010000
00000000
00001000
00000000
01000000
00000000
00000000
00000000
00010000
00000000
00000000
00000000
,  // measure 63
00100000
00000000
01000000
10000000
01000000
00000000
00100000
00000000
00010000
00000000
01000000
00000000
00010000
00000000
01000000
00000000
,  // measure 64
00001000
00000000
00100000
00001000
00100000
00000000
00001000
00000000
00010000
00000000
00000000
00000000
00000010
00000000
00000000
00000000
,  // measure 65
00001000
00000000
00000100
00000010
00000100
00000000
00001000
00000000
00000001
00000000
00000100
00000000
00000001
00000000
00000100
00000000
,  // measure 66
00001000
00000000
00010000
00001000
00010000
00000000
00100000
00000000
10000000
00000000
01000000
00000000
00010000
00000000
00001000
00000000
,  // measure 67
00000100
00000010
00000100
00000010
00000100
00000000
00000010
00000000
00000100
00000000
00000000
00000000
00000000
00000000
00000000
00000000
;

//---------------dance-single - ----------------
#NOTES:
     dance-single:
     :
     Easy:
     3:
     0.256287,0.248401,0.018400,0.101201,0.000000,182.000000,2.000000,11.000000,0.000000,0.000000,0.000000,0.256287,0.248401,0.018400,0.101201,0.000000,182.000000,2.000000,11.000000,0.000000,0.000000,0.000000:
0000
0000
0000
0000
,
0000
0000
0000
0000
,
1000
0001
1000
0000
,
0010
0000
0100
0000
,
0001
1000
0001
0000
,
0010
0000
0100
0000
,
1000
0010
1000
0000
,
0100
0000
0010
0000
,
0001
0000
1000
0000
,
0010
0100
0010
0000
,
1000
1000
1000
1000
,
0100
0000
0010
0000
,
0001
0001
0001
0001
,
1000
0000
0010
0000
,
1000
1000
1000
1000
,
0100
0000
0010
0000
,
0001
0100
0001
0000
,
1000
0100
1000
0000
,
0001
0010
0001
0000
,
1000
0010
1000
0000
,
0100
0010
0001
0000
,
0100
0010
1000
0000
,
0001
0100
1000
0000
,
0001
0010
1000
0000
,
0001
0000
0010
0010
,
0100
0000
0010
0001
,
1000
0000
0010
0010
,
1000
0000
0100
0010
,
0100
0000
1000
1000
,
0010
0000
1000
0100
,
0010
0000
0001
0001
,
1000
0010
0100
0001
,
2000
0000
3010
1000
,
0200
0000
0010
0310
,
0002
0000
0013
0001
,
0200
0000
0310
0010
,
2000
0000
3100
0000
,
0001
0000
0100
1000
,
0002
0000
0103
0000
,
1000
0000
0100
0001
,
0020
0000
0000
0030
,
0100
0010
0100
0010
,
0001
0001
1000
1000
,
2002
0000
0000
3003
,
1000
0000
0010
1000
,
0001
0000
0100
0010
,
1000
0000
0100
0010
,
0001
0000
0100
0000
,
0001
0000
0010
0000
,
1000
0000
0100
0001
,
1000
1000
0100
0100
,
0010
0001
0100
0010
,
1000
1000
1000
1000
,
0100
0000
0010
0000
,
0001
0001
0001
0001
,
1000
0000
0010
0000
,
1000
1000
1000
1000
,
0100
0000
0010
0000
,
2002
0000
3003
0000
,
0001
0100
0010
0000
,
1000
0000
0001
0000
,
0100
0000
0001
0000
,
0010
0000
0100
0000
,
1000
0000
0001
0000
,
0100
0000
0010
0000
,
1000
0000
0001
0000
,
0010
0000
0100
0000
,
0010
0100
0010
0000
;

//---------------dance-single - ----------------
#NOTES:
     dance-single:
     :
     Beginner:
     2:
     0.193201,0.186301,0.000000,0.055200,0.000000,141.000000,0.000000,6.000000,0.000000,0.000000,0.000000,0.193201,0.186301,0.000000,0.055200,0.000000,141.000000,0.000000,6.000000,0.000000,0.000000,0.000000:
0000
0000
0000
0000
,
0000
0000
0000
0000
,
1000
1000
1000
0000
,
1000
0000
1000
0000
,
0001
0001
0001
0000
,
0001
0000
0001
0000
,
1000
1000
1000
0000
,
1000
0000
1000
0000
,
0010
0000
0100
0000
,
0010
0010
0010
0000
,
1000
0000
1000
0000
,
0100
0000
0010
0000
,
0001
0000
0001
0000
,
0100
0000
0010
0000
,
1000
0000
1000
0000
,
0100
0000
0010
0000
,
0001
0001
0001
0000
,
0100
0100
0100
0000
,
0010
0010
0010
0000
,
1000
1000
1000
0000
,
0001
0001
0001
0000
,
0010
0010
0010
0000
,
1000
1000
1000
0000
,
0100
0100
0100
0000
,
0001
0000
0010
0010
,
0000
0000
0001
0001
,
0000
0000
0100
0100
,
0000
0000
0010
0000
,
1000
0000
0001
0001
,
0000
0000
0010
0010
,
0000
0000
0100
0100
,
0000
0000
1000
0000
,
0001
0000
0001
0000
,
0002
0000
0003
0000
,
1000
0000
1000
0000
,
2000
0000
3000
0000
,
0100
0000
0010
0000
,
0001
0000
0001
0000
,
0100
0000
0010
0000
,
1000
0000
1000
0000
,
2000
0000
3000
0000
,
0002
0000
0103
0000
,
0010
0000
0010
0000
,
0020
0000
0030
0000
,
0010
0000
0010
0000
,
1000
0000
0001
0000
,
1000
0000
0100
0000
,
0100
0000
0010
0000
,
0001
0000
0100
0000
,
0010
0000
1000
0000
,
0001
0000
0010
0000
,
0100
0000
1000
0000
,
0001
0000
0001
0000
,
0100
0000
0010
0000
,
1000
0000
1000
0000
,
0100
0000
0010
0000
,
0001
0000
0001
0000
,
0100
0000
0010
0000
,
2000
0000
3000
0000
,
0001
0001
0001
0000
,
1000
0000
1000
0000
,
0100
0000
0100
0000
,
0010
0000
0010
0000
,
0001
0000
0001
0000
,
0100
0000
0100
0000
,
0010
0000
0010
0000
,
1000
0000
0001
0000
,
0010
0010
0010
0000
;

//---------------dance-double - ----------------
#NOTES:
     dance-double:
     :
     Hard:
     7:
     0.512574,0.496803,0.036800,0.193201,0.000000,365.000000,4.000000,21.000000,0.000000,0.000000,0.000000,0.512574,0.496803,0.036800,0.193201,0.000000,365.000000,4.000000,21.000000,0.000000,0.000000,0.000000:
00000000
00000000
00000000
00000000
,
00000000
00000000
00000000
00000000
,
00100000
00010000
00100000
00010000
01000000
00000000
00100000
00000000
,
01000000
00001000
00010000
00000100
,
00001000
00000010
00001000
00000010
00000100
00000000
00000010
00000000
,
00001000
00000100
00010000
00001000
,
01000000
00010000
01000000
00010000
10000000
00000000
01000000
00000000
,
00100000
00001000
00010000
00000100
,
00001000
00000100
00010000
00001000
00100000
00001000
00010000
00000000
,
00001000
00010000
00001000
00010000
00001000
00000000
00000000
00000000
,
00010000
00100000
10000000
00000000
10000000
01000000
00010000
00000000
,
01000000
00010000
00001000
00010000
,
00001000
00000010
00000001
00000000
00000001
00000100
00001000
00000000
,
00000100
00000010
00010000
00001000
,
00010000
00100000
10000000
00000000
10000000
01000000
00010000
00000000
,
01000000
00000000
10000000
00000000
00100000
00000000
01000000
00010000
,
00100000
01000000
00100000
01000000
10000000
00000000
01000000
00100000
,
00001000
00010000
00001000
00010000
00000100
00000000
00001000
00000100
,
00000010
00000001
00000010
00000001
00000100
00000000
00000001
00000100
,
00000010
00001000
00000010
00001000
00000100
00000000
00010000
00001000
,
00100000
00001000
00010000
00001000
01000000
00000000
00001000
00010000
,
00000010
00010000
00001000
00010000
00000100
00000000
00010000
00001000
,
00100000
00001000
01000000
00001000
00100000
00000000
00001000
00010000
,
00000010
00010000
00000100
00010000
00000010
00000000
00010000
00001000
,
01000000
00000000
01000000
00000000
00010000
01000000
00100000
10000000
,
01000000
00000000
01000000
00000000
10000000
01000000
00020000
00000000
,
00031000
00000000
00001000
00000000
00010000
00000100
00001000
00000100
,
00000010
00000000
00000010
00000000
00000001
00000100
00001000
00000100
,
00000001
00000000
00000001
00000000
00001000
00000100
00000010
00000001
,
00000100
00000000
00000100
00000000
00000001
00000100
00002000
00000000
,
00013000
00000000
00010000
00000000
00001000
00100000
00010000
01000000
,
00100000
00000000
01000000
00010000
00100000
01000000
10000000
00100000
,
20000000
00000000
00000000
31000000
00100000
00010000
01000000
00001000
,
00020000
00000000
00001000
00031000
,
00020000
00000000
00000000
00030100
00001000
00000010
00000100
00000001
,
00000020
00000000
00000000
00000000
00000001
00000000
00000031
00000100
,
00002000
00000000
00003100
00000010
00000100
00000010
00000000
00001010
,
00000000
00010010
00000000
00001000
00010000
00001000
00010000
00001000
,
00200000
00000000
01300000
00100000
01000000
00100000
00000000
00110000
,
00000000
00101000
00000000
00001000
00010000
00001000
00010000
00000100
,
00002000
00000000
00000100
00000000
00000100
00000000
00003100
00000010
,
00000001
00000100
00000001
00000100
00000001
00000100
00000001
00000000
,
00001000
00000000
00001000
00000000
00001000
00000000
00001000
00000100
,
00010000
00001000
00010000
00001000
00010000
00001000
00010000
00001000
,
00200000
00010000
00010000
00310000
,
20000000
00000000
01000000
00000000
31000000
00000000
00100000
00010000
,
02000000
00000000
03010000
01000000
00100000
10000000
01000000
00100000
,
00002000
00013000
00020000
00030100
,
00000200
00001300
00002000
00003010
,
00000020
00000000
00000100
00000000
00000130
00000001
00001000
00000000
,
00000001
00000010
00000100
00010000
00001000
00010000
00001000
00100000
,
01000000
10000000
00020000
00000000
00130000
00001000
00020000
00000000
,
00031000
00000010
00000001
00000000
00000001
00000100
00001000
00000000
,
00000100
00001000
00010000
00001000
,
00010000
00100000
10000000
00000000
10000000
01000000
00010000
00000000
,
01000000
00100000
00001000
00010000
,
00001000
00000010
00000001
00000000
00000001
00000100
00001000
00000000
,
00000100
00000010
00001000
00000001
,
00000020
00000000
00000000
00000000
00000000
00000030
00000000
00000100
,
00001000
00000000
00000100
00010000
00002000
00000000
00003000
00000000
,
01000000
00010000
01000000
00010000
00100000
00000000
00010000
00000000
,
01000000
00001000
00010000
00000100
,
00000010
00000001
00000010
00000001
00000100
00000000
00000010
00000000
,
00001000
00000100
00010000
00001000
,
00100000
00010000
00100000
00010000
01000000
00000000
00100000
00000000
,
01000000
00001000
00010000
00000010
,
00010000
00000100
00010000
00001000
00100000
00001000
00010000
00000000
,
00001000
00010000
00001000
00010000
00001000
00000000
00000000
00000000
;

//---------------dance-double - ----------------
#NOTES:
     dance-double:
     :
     Medium:
     5:
     0.423203,0.372602,0.202401,0.064400,0.000000,293.000000,22.000000,7.000000,0.000000,0.000000,0.000000,0.423203,0.372602,0.202401,0.064400,0.000000,293.000000,22.000000,7.000000,0.000000,0.000000,0.000000:
00000000
00000000
00000000
00000000
,
00000000
00000000
00000000
00000000
,
10100000
10100000
01010000
00000000
,
01000000
00001000
00010000
00000100
,
00000011
00000011
00001100
00000000
,
00000010
00010000
00001000
00100000
,
10010000
10010000
01100000
00000000
,
10000000
01000000
00100000
00001000
,
00010000
00000100
00010000
00001000
,
00101000
00011000
00010010
00000000
,
00000001
00000100
00000001
00000000
00000001
00000100
00000001
00000000
,
00000100
00001000
00010000
01000000
,
10000000
01000000
10000000
00000000
10000000
01000000
10000000
00000000
,
00100000
00010000
00001000
00000010
,
00000001
00000100
00000001
00000000
00000001
00000100
00000001
00000000
,
00000100
00001000
00010000
00100000
,
10000000
00010000
10000000
00000000
00100000
00000000
00010000
00000000
,
00001000
00010000
00001000
00000000
00000010
00000000
00000001
00000000
,
00001000
00000001
00001000
00000000
00000010
00000000
00000100
00000000
,
00001000
00010000
00001000
00000000
00010000
00000000
01000000
00000000
,
10000000
00100000
10000000
00000000
00100000
00000000
00010000
00000000
,
00001000
00010000
00001000
00000000
00000010
00000000
00000001
00000000
,
00000100
00000010
00000100
00000000
00001000
00000000
00010000
00000000
,
00100000
01000000
00100000
00000000
10000000
00000000
01000000
00000000
,
00100000
00000000
00100000
00000000
00001000
00010000
00001000
00010000
,
00000100
00000000
00000100
00000000
00000010
00000001
00001000
00000000
,
00000100
00000000
00000100
00000000
00010000
00001000
00010000
00001000
,
01000000
00000000
01000000
00000000
00010000
10000000
00100000
00000000
,
01010000
00000000
01000000
00000000
00001000
00010000
00001000
00010000
,
00000010
00000000
00000010
00000000
00001000
00000001
00000010
00000000
,
00000100
00000000
00000100
00000000
00010000
00001000
00010000
00001000
,
00100000
00000000
00010000
01000000
00100000
00000000
10000000
00000000
,
10010000
00000000
00000000
10000000
01000000
00000000
00010000
00000000
,
00002000
00000000
00003100
00000001
,
00001001
00000000
00000000
00000001
00000010
00000000
00001000
00000000
,
00020000
00000000
00130000
10000000
,
11000000
00000000
00000000
10000000
01000000
00100000
00000000
00010000
,
00000000
00010000
00000000
00000000
00100000
00001000
00010000
00000000
,
00001100
00000000
00000000
00001000
00000100
00000010
00000000
00000001
,
00000000
00000001
00000000
00000000
00000100
00000010
00000100
00000000
,
00002001
00000001
00000001
00003001
,
00001000
00000001
00000100
00000010
,
00010000
00000000
00010000
00000000
00010000
00000000
00010000
00001000
,
00020000
00000000
00000000
00030000
,
00001000
00010000
00100000
10000000
,
01000000
00000000
00010000
00000000
01000000
00000000
10000000
00100000
,
10000000
00000000
01000000
00000000
00100000
00010000
00100000
00000000
,
00001000
00010000
00000100
00000010
,
00000001
00000100
00001000
00010000
,
00001000
00000000
00000010
00000000
00000001
00000000
00000100
00000010
,
00001000
00000100
00001000
00000000
00000100
00010000
00000100
00000000
,
00100000
00001000
00100000
00000000
00010000
10000000
01000000
00000000
,
10000000
00100000
10000000
00000000
10000000
00100000
10000000
00000000
,
01000000
00010000
00001000
00000100
,
00000001
00000010
00000001
00000000
00000001
00000010
00000001
00000000
,
00000010
00001000
00010000
00100000
,
10000000
00100000
10000000
00000000
10000000
00100000
10000000
00000000
,
01000000
00010000
00001000
00000010
,
00000022
00000000
00000000
00000000
00000033
00000000
00000000
00000010
,
00000001
00000100
00000020
00000030
,
00001000
00000001
00000100
00000010
,
00000100
00001000
00010000
01000000
,
10000000
00100000
10000000
01000000
,
00100000
00001000
00010000
00000010
,
00001000
00000100
00001000
00000010
,
00000100
00001000
00010000
00100000
,
10000000
00010000
00100000
00001000
,
00101000
00011000
00010010
00000000
;

//---------------dance-double - ----------------
#NOTES:
     dance-double:
     :
     Easy:
     3:
     0.258916,0.248401,0.018400,0.101201,0.000000,184.000000,2.000000,11.000000,0.000000,0.000000,0.000000,0.258916,0.248401,0.018400,0.101201,0.000000,184.000000,2.000000,11.000000,0.000000,0.000000,0.000000:
00000000
00000000
00000000
00000000
,
00000000
00000000
00000000
00000000
,
00000001
00000001
00001000
00000000
,
00000010
00000000
00001000
00000000
,
00000100
00000100
00010000
00000000
,
00001000
00000000
00100000
00000000
,
00010000
00010000
10000000
00000000
,
01000000
00000000
00100000
00000000
,
01000000
00000000
00010000
00000000
,
00001000
00010000
00001000
00000000
,
00100000
00100000
00100000
00100000
,
00010000
00000000
01000000
00000000
,
00001000
00001000
00001000
00001000
,
00010000
00000000
00000010
00000000
,
00001000
00001000
00001000
00001000
,
00000100
00000000
00000010
00000000
,
00000001
00000100
00000001
00000000
,
00000100
00000010
00000100
00000000
,
00001000
00010000
00001000
00000000
,
01000000
00010000
01000000
00000000
,
00100000
10000000
00100000
00000000
,
10000000
01000000
10000000
00000000
,
01000000
00010000
01000000
00000000
,
00010000
00001000
00010000
00000000
,
00000010
00000000
00001000
00001000
,
00000100
00000000
00010000
00001000
,
00100000
00000000
00010000
00010000
,
01000000
00000000
00001000
00010000
,
00001000
00000000
00010000
00010000
,
00000100
00000000
00001000
00000010
,
00010000
00000000
00001000
00001000
,
01000000
00010000
01000000
00100000
,
20000000
00000000
31000000
00100000
,
00020000
00000000
00130000
00100000
,
00002000
00000000
00013000
00000100
,
00002000
00000000
00003010
00000010
,
00000200
00000000
00000301
00000000
,
00000010
00000000
00000100
00010000
,
00002000
00000000
01003000
00000000
,
00100000
00000000
01000000
00010000
,
00200000
00000000
00000000
00300000
,
01000000
10000000
01000000
10000000
,
00010000
00010000
10000000
10000000
,
22000000
00000000
00000000
33000000
,
10000000
00000000
01000000
00000000
,
00010000
00000000
00001000
00010000
,
00000100
00000000
00000010
00000100
,
00010000
00000000
00001000
00000000
,
00100000
00000000
00010000
00000000
,
01000000
00000000
00010000
00100000
,
00001000
00001000
00010000
00010000
,
00000100
00001000
00000100
00000010
,
00000001
00000001
00000001
00000001
,
00000100
00000000
00000010
00000000
,
00001000
00001000
00001000
00001000
,
00000100
00000000
00010000
00000000
,
00001000
00001000
00001000
00001000
,
01000000
00000000
00010000
00000000
,
20200000
00000000
30300000
00000000
,
00100000
10000000
01000000
00000000
,
10000000
10000000
00010000
00000000
,
01000000
00000000
00010000
00000000
,
00100000
00100000
00001000
00000000
,
00010000
00000000
00000100
00000000
,
00001000
00001000
00000010
00000000
,
00001000
00000000
00000001
00000000
,
00000100
00000000
00001000
00000000
,
00010000
00001000
00010000
00000000
;
