#TITLE:Giudecca;
#SUBTITLE:-Flashback 2 Rave-;
#ARTIST:qat itna;
#TITLETRANSLIT:;
#SUBTITLETRANSLIT:;
#ARTISTTRANSLIT:;
#CREDIT:MEGAERA;
#BANNER:[Nostalgia Is Lost] - GIUDECCA-FB2R-bn.png;
#BACKGROUND:[Nostalgia Is Lost] - GIUDECCA-FB2R-bg.png;
#LYRICSPATH:;
#CDTITLE:MEGAERA-cdtitle.png;
#MUSIC:[Nostalgia Is Lost] - GIUDECCA -FB2R-.mp3;
#OFFSET:0.000;
#SAMPLESTART:124.240;
#SAMPLELENGTH:11.300;
#SELECTABLE:YES;
#BPMS:0.000=170.000,156.000=85.000,214.000=170.000;
#STOPS:156.667=5.647
;
#BGCHANGES:;

//---------------dance-single - ----------------
#NOTES:
     dance-single:
     :
     Challenge:
     11:
     0.636,1.000,0.332,0.373,0.478:
0000
0000
0000
0000
,
0000
0000
0000
0000
,
0000
0000
0000
0000
,
0000
0000
0000
0000
,
0000
0000
0000
0000
,
0000
0000
0000
0000
,
0000
0000
0000
0000
,
0000
0000
0000
0000
,
2001
0000
3001
0012
0000
0103
0000
0000
,
0000
0000
0000
0000
0000
0000
0000
1100
,
0120
0000
0130
0201
0000
1300
0000
0000
,
0000
0000
0000
0000
0000
0000
0000
0000
0000
0000
0100
1000
0010
0000
0101
0000
,
0012
0000
0103
2010
0000
3001
0000
0000
,
0000
0000
0000
0000
0000
0000
0000
1100
,
0201
0000
0310
0120
0000
0031
0000
0001
,
0010
0020
0200
0330
,
1001
1000
0001
0100
0000
0100
0001
1000
,
0100
0001
0010
0000
0100
0000
0001
0000
0000
0000
0001
0000
1000
0010
0100
0000
,
1000
0001
1000
0100
0000
0100
0001
1000
,
0100
0000
0010
0000
0001
0010
0100
0000
1000
0100
0010
0001
1000
0001
0100
0000
,
0001
0100
0010
0001
0000
0001
1000
0100
,
0001
0010
0100
0010
1000
0000
0100
0000
0000
0000
0100
0000
1000
0000
0001
0010
,
1000
0010
0001
0100
0000
0100
1000
0010
,
0101
0000
0000
1100
0000
0000
0220
0000
0000
0000
0000
0000
0300
0000
0000
0000
,
0031
0100
0001
0000
2000
0000
0000
0000
0100
0000
0000
0000
3001
0000
0000
0000
,
1000
0001
1000
0000
0200
0000
0000
0000
0010
0000
0000
0000
1300
0000
0000
0000
,
0001
0100
0001
0000
0020
0000
0000
0000
0001
0000
0000
0000
0130
0000
0000
0000
,
1000
0010
1000
0000
0002
0000
0000
0000
0010
0000
0000
0000
0103
0000
0000
0000
,
0001
1000
0001
0000
0201
0000
0000
0000
0310
0000
0000
0000
1000
0000
0001
0000
,
1000
0100
1000
0000
1020
0000
0000
0000
0130
0000
0000
0000
1000
0000
0010
0000
,
0001
0010
0001
0000
1002
0000
0000
0000
0103
0000
0000
0000
0010
0000
0100
0000
,
1000
0001
1000
0000
1200
0000
0000
0000
0310
0000
0000
0000
0001
0000
0100
0000
,
0001
0010
0001
0000
1020
0000
0000
0000
0031
0000
1000
0000
0100
0000
0001
0000
,
1000
0001
1000
0000
0201
0000
0000
0000
0310
0000
0001
0000
0100
0000
1000
0000
,
0001
0100
0001
0000
2001
0000
0000
0000
3010
0000
0001
0000
0100
0000
0001
0000
,
1000
0100
1000
0000
1002
0000
0000
0000
0013
0000
0100
0000
1000
0000
0010
0000
,
0001
0000
1000
0000
0010
0000
0000
0000
0000
0000
0000
0000
,
1000
0000
0100
0000
1000
0000
0000
0000
0000
0000
0000
0000
,
0001
0000
0010
0000
0001
0000
0000
0000
0000
0000
0000
0000
,
0010
1000
0200
0000
0000
0000
0000
0000
0000
0000
0000
0000
,
0000
0000
0000
0000
,
0000
0000
0000
0000
2000
0000
0000
0300
,
0020
0000
0000
3000
0200
0000
0000
0030
,
0002
0000
0000
0300
0020
0000
0000
0003
,
2000
0000
0000
0030
0002
0000
0000
0000
,
0000
0000
0000
0000
0000
0000
0000
0000
0000
0000
0000
0000
3003
0000
0100
1000
0001
0000
0010
0000
0000
0000
0010
0000
0100
0000
0000
0000
0100
0000
1000
0000
,
0100
0000
0001
0000
0100
0000
0010
0000
0100
0000
1000
0000
0001
0000
1000
0000
0001
0000
0100
0000
0001
0000
0010
0100
1000
0000
1000
0000
0001
0000
0020
0000
,
0000
0000
0000
0000
1000
0000
0200
0000
0000
0000
0000
0000
0330
0000
0010
0001
1000
0000
0100
0000
0000
0000
0100
0000
0001
0000
0000
0000
0001
0000
1000
0000
,
0010
0000
1000
0000
0100
0000
1000
0000
0100
0000
0010
0000
0100
0000
0010
0100
2000
0000
0000
0000
0000
0000
0020
0000
3000
0000
0000
0000
0130
0000
0002
0000
,
0000
0000
2000
0000
0000
0000
0000
0000
0000
0000
0000
0000
3003
0000
0100
1000
0001
0000
0010
0000
0001
0000
0010
0000
1000
0000
0100
0000
1000
0000
0001
0000
,
0010
0000
0100
0000
1000
0000
0100
0000
0001
0000
0100
0000
1000
0000
0010
0000
0001
0000
0010
0000
0100
0000
0010
0001
1000
0000
0100
0000
0001
0000
0010
0000
,
0100
0000
1000
0000
0001
1000
0010
0000
0100
0010
0001
0000
0100
0001
1000
0000
0010
0000
0001
0000
0010
0000
1000
0000
0010
0000
0100
0000
0010
0000
0001
0000
,
1000
0000
0010
0000
0100
0000
0010
0000
0001
0000
0010
0000
0001
0000
0100
0001
1000
0000
0100
0000
0001
0000
0010
0000
0001
0000
1000
0000
0100
0000
0010
0000
,
0001
0000
0000
0000
0000
0000
0000
0000
0000
0000
0000
0000
0010
0000
0000
0000
0000
0000
0000
0000
0000
0000
0000
0000
1000
0000
0000
0000
0000
0000
0001
0000
0000
0000
0000
0000
0100
0000
0000
0000
0000
0000
0000
0000
0000
0000
0000
0000
0100
0000
0000
0000
0000
0000
0001
0000
0000
0000
0000
0000
0010
0000
0000
0000
0000
0000
0000
0000
0000
0000
0000
0000
0010
0000
0000
0000
0000
0000
0100
0000
0000
0000
0000
0000
1000
0000
0000
0000
0000
0000
0000
0000
0000
0000
0000
0000
3001
2000
0000
0000
0000
0000
0000
0000
0000
0000
0000
0000
0000
0000
0000
0000
0000
0000
0000
0000
0000
0000
0000
0000
0000
0000
0000
0000
0000
0000
0000
0000
0000
0000
0000
0000
0000
0000
0000
0000
0000
0000
0000
0000
0000
0000
0000
0000
3010
0000
0000
0000
0000
0000
0000
0000
0000
0000
0000
0000
0000
0000
0000
0000
0000
0000
0000
0000
0000
0000
0000
0000
0102
0000
0000
0000
0000
0000
0000
0000
0000
0000
0000
0000
0000
0000
0000
0000
0000
0000
0000
0000
0000
0000
0000
0000
,
0000
1003
0000
1000
0010
0000
0010
0001
,
0000
0001
0100
0011
0120
0000
0031
2010
,
0000
3100
0000
0100
0001
0000
0001
1000
,
0000
0000
1000
0001
0010
0000
1100
0000
0201
0000
0000
0000
0310
0000
0021
0000
,
0000
1030
0000
1000
0001
0000
0001
0100
,
0000
0100
0010
0101
1020
0000
0130
0012
,
0000
1003
0000
1000
0010
0000
0010
0001
,
0000
0001
0100
0000
1020
0000
0031
1200
,
0000
0310
0000
0010
0100
0000
0100
0001
,
0000
0001
0010
0110
2010
0000
3010
0102
,
0000
1003
0000
1000
0100
0000
0100
0001
,
0000
0000
0001
0000
0010
0001
1100
0000
2010
0000
0000
0000
3001
0000
0120
0000
,
0000
0031
0000
0001
0010
0000
0010
0100
,
0000
0100
0001
0011
2010
0000
3010
0120
,
0000
0000
0200
0000
,
0000
0000
0330
0000
1001
0001
0010
1000
,
0100
0010
0001
0100
0010
0100
0010
0100
,
1000
0000
0100
0001
0000
0001
0100
0000
0010
0000
1000
0000
0100
0000
0010
0000
,
0001
0010
0100
1000
0001
0010
1000
0010
,
0001
0000
0100
0000
0001
1000
0010
0000
1010
0000
0100
0000
1000
0000
0010
0000
,
0001
0100
0010
1000
0100
0010
0001
1000
,
0010
0000
1000
0100
0000
0100
0001
0000
1000
0000
0001
0000
0010
0000
0001
0000
,
0100
0000
0010
0000
0100
0000
0010
0000
1000
0100
1000
0100
1000
0100
1000
0100
,
0001
0100
0001
0100
0001
0100
0010
0000
0110
0000
0100
0000
1000
0000
0100
0000
,
0001
0000
0100
0000
1000
0000
0010
0000
0001
0100
0000
0100
0010
0000
0010
1000
,
0000
1000
0001
0000
0001
0100
0000
0100
1000
0000
0001
0000
0010
0000
0100
0000
,
1000
0010
0001
0000
1000
0000
0100
0000
0001
0100
0001
0000
0010
0100
0010
0000
,
0100
0010
0100
0000
1000
0100
1000
0000
1010
0000
0010
0000
0001
0000
0010
0000
,
1000
0000
0100
0000
1000
0000
0001
0000
0100
0010
0000
0010
0001
0000
0001
0010
,
0000
0010
0100
0000
0100
1000
0000
1000
0010
0000
0100
0000
0001
0000
1000
0000
,
0100
1000
0001
0000
0010
0000
1000
0000
0001
0010
0001
0010
0000
0010
0100
0010
,
0100
1000
0100
1000
0100
0010
0001
0000
0000
0000
0000
0000
0000
0000
0000
0000
;

//---------------dance-single - ----------------
#NOTES:
     dance-single:
     :
     Hard:
     8:
     0.493,0.695,0.088,0.332,0.200:
0000
0000
0000
0000
,
0000
0000
0000
0000
,
0000
0000
0000
0000
,
0000
0000
0000
0000
,
0000
0000
0000
0000
,
0000
0000
0000
0000
,
0000
0000
0000
0000
,
0000
0000
0000
0000
,
2010
0000
3100
0002
0000
0013
0000
0000
,
0000
0000
0000
0000
0000
0000
0000
1000
,
0020
0000
0031
0200
0000
0310
0000
0000
,
0000
0000
0000
0000
0000
1000
0100
0010
,
0002
0000
0103
2000
0000
3010
0000
0000
,
0000
0000
0000
0000
0000
0000
0000
1000
,
0200
0000
0301
0020
0000
1030
0000
1000
,
0001
0020
0200
0330
,
1001
1000
0010
0100
0000
0100
0001
1000
,
0100
0010
0001
0010
0000
0010
0100
1000
,
1000
0001
1000
0100
0000
0100
0001
0010
,
0001
1000
0001
0001
0100
0010
1000
1000
,
0001
0100
0001
1000
0000
1000
0010
0001
,
0100
0001
1000
0010
0000
0010
1000
0001
,
1000
0010
0001
0100
0000
0100
1000
0000
,
0110
0000
0000
1001
0000
0000
0220
0000
0000
0000
0000
0000
0330
0000
0000
0000
,
0001
1000
0001
0000
0020
0000
0000
0000
0000
0000
0000
0000
0130
0000
0000
0000
,
1000
0001
1000
0000
0200
0000
0000
0000
0000
0000
0000
0000
0310
0000
0000
0000
,
0001
0100
0001
0000
2000
0000
0000
0000
0000
0000
0000
0000
3100
0000
0000
0000
,
1000
0010
1000
0000
0002
0000
0000
0000
0000
0000
0000
0000
0013
0000
0000
0000
,
0001
1000
0001
0000
0200
0000
0000
0000
0010
0000
0000
0000
0310
0000
0000
0000
,
1000
0100
1000
0000
0020
0000
0000
0000
1000
0000
0000
0000
1030
0000
0000
0000
,
0001
0010
0001
0000
0002
0000
0000
0000
0100
0000
0000
0000
0013
0000
0000
0000
,
1000
0001
1000
0000
0200
0000
0000
0000
0001
0000
0000
0000
1300
0000
0000
0000
,
0001
0010
0001
0000
0020
0000
0000
0000
1000
0000
1000
0000
0130
0000
0000
0000
,
1000
0001
1000
0000
0200
0000
0000
0000
0010
0000
0001
0000
0310
0000
0000
0000
,
0001
0100
0001
0000
2000
0000
0000
0000
0010
0000
0010
0000
3100
0000
0000
0000
,
1000
0100
1000
0000
0002
0000
0000
0000
0100
0000
0010
0000
0103
0000
0000
0000
,
0001
0000
1000
0000
0001
0000
0000
0000
0000
0000
0000
0000
,
1000
0000
0100
0000
1000
0000
0000
0000
0000
0000
0000
0000
,
0001
0000
0100
0000
0001
0000
0000
0000
0000
0000
0000
0000
,
0100
0010
0200
0000
0000
0000
0000
0000
0000
0000
0000
0000
,
0000
0000
0000
0000
,
0000
0000
0302
0000
,
0203
0000
0320
0000
,
2030
0000
3200
0000
,
0302
0000
2000
0000
,
0000
0000
0000
0000
0000
0000
0000
0000
0000
0000
0000
0000
3003
0000
0100
1000
0010
0000
0000
0000
0000
0000
0001
0000
0000
0000
0000
0000
0010
0000
0100
0000
,
0000
0000
0000
0000
0000
0000
0000
0000
0000
0000
0000
0000
0000
0000
0000
0000
0000
0000
0000
0000
0000
0000
0010
0100
1000
0000
0100
0000
0010
0000
0001
0000
,
0000
0000
0000
0000
1000
0000
0100
0000
0000
0000
0000
0000
0000
0000
0100
0001
1000
0000
0000
0000
0000
0000
0010
0000
0000
0000
0000
0000
0100
0000
0001
0000
,
0000
0000
0000
0000
0000
0000
0000
0000
0000
0000
0000
0000
0000
0000
0010
0100
0001
0000
0000
0000
0000
0000
0010
0000
0000
0000
0000
0000
1000
0000
0010
0000
,
0000
0000
0100
0000
0000
0000
0000
0000
0000
0000
0000
0000
0000
0000
0100
1000
0001
0000
0000
0000
0010
0000
0000
0000
0100
0000
0000
0000
1000
0000
0000
0000
,
0100
0000
0000
0000
0001
0000
0000
0000
0100
0000
0000
0000
1000
0000
0000
0000
0010
0000
0000
0000
0100
0000
1000
0001
0010
0000
1000
0000
0010
0000
0100
0000
,
0000
0000
0000
0000
0100
0000
0010
0000
0000
0000
0000
0000
0000
0000
1000
0001
0100
0000
0000
0000
0010
0000
0000
0000
0100
0000
0000
0000
0001
0000
0000
0000
,
0010
0000
0000
0000
1000
0000
0000
0000
0100
0000
0000
0000
0010
0000
0001
0100
0010
0000
0000
0000
1000
0000
0000
0000
0010
0000
0000
0000
0100
0000
0000
0000
,
0100
0000
0000
0000
0000
0000
0000
0000
0000
0000
0000
0000
1000
0000
0000
0000
0000
0000
0000
0000
0000
0000
0000
0000
0100
0000
0000
0000
0000
0000
0000
0000
0000
0000
0000
0000
0010
0000
0000
0000
0000
0000
0000
0000
0000
0000
0000
0000
0001
0000
0000
0000
0000
0000
0000
0000
0000
0000
0000
0000
0010
0000
0000
0000
0000
0000
0000
0000
0000
0000
0000
0000
0100
0000
0000
0000
0000
0000
0000
0000
0000
0000
0000
0000
1000
0000
0000
0000
0000
0000
0000
0000
0000
0000
0000
0000
3001
2000
0000
0000
0000
0000
0000
0000
0000
0000
0000
0000
0000
0000
0000
0000
0000
0000
0000
0000
0000
0000
0000
0000
0000
0000
0000
0000
0000
0000
0000
0000
0000
0000
0000
0000
0000
0000
0000
0000
0000
0000
0000
0000
0000
0000
0000
0000
3010
0000
0000
0000
0000
0000
0000
0000
0000
0000
0000
0000
0000
0000
0000
0000
0000
0000
0000
0000
0000
0000
0000
0000
0002
0000
0000
0000
0000
0000
0000
0000
0000
0000
0000
0000
0000
0000
0000
0000
0000
0000
0000
0000
0000
0000
0000
0000
,
0000
1003
0000
1000
0010
0000
0010
0001
,
0000
0001
0100
1000
0020
0000
0031
2000
,
0000
3100
0000
0100
0001
0000
0001
1000
,
0000
0000
1000
0001
1000
0000
1000
0000
0200
0000
0000
0000
0301
0000
0020
0000
,
0000
1030
0000
1000
0001
0000
0001
0100
,
0000
0100
0010
0001
0020
0000
0130
0002
,
0000
1003
0000
1000
0010
0000
0010
0001
,
0000
0001
0100
0000
1020
0000
0031
0200
,
0000
0310
0000
0010
0100
0000
0100
0001
,
0000
0001
0010
0100
2000
0000
3010
0002
,
0000
1003
0000
1000
0100
0000
0100
0010
,
0000
0000
0010
0000
0001
1000
0001
0000
0002
0000
0000
0000
0103
0000
0020
0000
,
0000
1030
0000
1000
0010
0000
0010
0001
,
0000
0001
0100
0010
2000
0000
3001
0020
,
0000
0000
0200
0000
,
0000
0000
0330
0000
1001
1000
0001
0100
,
0001
0100
0010
0001
0010
0001
0010
0100
,
1000
0100
1000
0100
0010
1000
0100
0010
,
0001
0010
0100
1000
0001
0010
1000
0010
,
0001
0100
0001
0000
1010
1000
0100
1000
,
0001
1000
0010
1000
0100
0010
0001
1000
,
0010
1000
0000
0001
1000
0001
0010
0001
,
0100
0010
0100
0010
1000
1000
1000
0100
,
0001
0001
0001
0010
0110
0100
1000
0100
,
0001
0100
1000
0010
0001
0001
0010
0010
,
1000
1000
0001
0000
1001
0001
0010
0100
,
1000
0001
1000
0100
1000
1000
0100
0100
,
0010
0010
0001
0000
0101
0001
0010
0100
,
1000
0100
1000
0100
0100
0010
0010
0001
,
0001
1000
1000
0000
0110
0010
0001
0100
,
1000
0100
0001
0100
1000
0100
0010
0001
,
0010
0000
0100
1000
0001
1000
0001
0000
0000
0000
0000
0000
0000
0000
0000
0000
;

//---------------dance-single - ----------------
#NOTES:
     dance-single:
     :
     Medium:
     6:
     0.432,0.550,0.163,0.231,0.108:
0000
0000
0000
0000
,
0000
0000
0000
0000
,
0000
0000
0000
0000
,
0000
0000
0000
0000
,
0000
0000
0000
0000
,
0000
0000
0000
0000
,
0000
0000
0000
0000
,
0000
0000
0000
0000
,
1010
0000
1000
0100
0000
0101
0000
0000
,
0000
0000
0000
0000
0000
0000
0000
1000
,
0010
0000
0010
0100
0000
1100
0000
0000
,
0000
0000
0000
0000
0000
0001
0010
0100
,
1000
0000
1000
0010
0000
0110
0000
0000
,
0000
0000
0000
0000
0000
0000
0000
1000
,
0100
0000
0100
0001
0000
0101
0000
0000
,
0000
0000
0000
0000
,
1001
0000
0010
0100
0000
0100
0001
1000
,
0100
0010
0001
1000
0000
1000
0010
0100
,
0010
0001
1000
0100
0000
0100
0001
0010
,
0001
1000
0001
0010
0000
0010
1000
0100
,
0001
0100
0010
1000
0000
1000
0010
0100
,
0010
0100
1000
0010
0000
0010
1000
0001
,
1000
0010
0001
0100
0000
0100
1000
0000
,
1001
0000
0000
0100
0000
0000
2002
0000
0000
0000
0000
0000
3003
0000
0000
0000
,
0010
0001
0020
0000
0000
0000
0031
0000
,
0100
1000
0200
0000
0000
0000
0310
0000
,
1000
0001
2000
0000
0000
0000
3100
0000
,
0001
1000
0002
0000
0000
0000
0013
0000
,
0100
0010
0200
0000
0010
0000
0301
0000
,
0010
0100
0020
0000
1000
0000
1030
0000
,
0001
0010
0002
0000
0100
0000
0013
0000
,
0100
0010
0200
0000
0001
0000
1300
0000
,
0010
0001
0020
0000
1000
1000
1030
0000
,
0100
1000
0200
0000
0010
0010
0310
0000
,
1000
0001
2000
0000
0010
0010
3010
0000
,
0001
1000
0002
0000
0100
0100
0103
0000
,
0010
0000
0010
0000
0010
0000
0000
0000
0000
0000
0000
0000
,
1000
0000
1000
0000
1000
0000
0000
0000
0000
0000
0000
0000
,
0001
0000
0001
0000
0001
0000
0000
0000
0000
0000
0000
0000
,
0100
0100
0200
0000
0000
0000
0000
0000
0000
0000
0000
0000
,
0000
0000
0000
0000
,
0000
0000
0302
0000
,
0203
0000
0320
0000
,
2030
0000
3200
0000
,
0302
0000
2000
0000
,
0000
0000
0000
0000
0000
0000
3003
0100
0020
0000
0000
1000
0000
0000
0130
0001
,
0000
0000
0000
0000
0000
0000
0000
0000
0000
0000
0000
0001
0010
0100
1000
0200
,
0000
0000
0010
0310
0000
0000
0000
0100
1000
0000
0000
0010
0000
0000
0100
0001
,
0000
0000
0000
0000
0000
0000
0000
0010
0002
0000
0000
0010
0000
0000
1003
0100
,
0000
0010
0000
0000
0000
0000
0000
0000
0110
0000
0010
0000
0100
0000
0001
0000
,
0100
0000
1000
0000
0010
0000
0001
0000
0100
0000
0010
1000
0010
0100
0010
0001
,
0000
0000
0100
0100
0000
0000
0000
1000
0001
0000
0100
0000
0001
0000
1000
0000
,
0100
0000
1000
0000
0100
0000
0010
0001
0010
0000
1000
0000
0010
0000
0000
0000
,
0010
0100
0010
0001
0010
0100
1000
0000
1001
0000
0000
0000
0001
0000
0010
0000
,
0000
1020
0000
1000
0000
1000
0000
0001
,
0000
0031
0000
1000
0010
0000
0010
0100
,
0000
2100
0000
0010
0000
0010
0000
0100
,
0000
3100
0001
1000
0100
0000
0100
0010
,
0000
1020
0000
1000
0000
1000
0000
0100
,
0000
0130
0000
1000
0010
0000
0010
0001
,
0000
1002
0000
1000
0000
1000
0000
0100
,
0000
0103
0000
0000
1010
0000
0010
0100
,
0000
1200
0000
1000
0000
1000
0000
0001
,
0000
0301
0000
0100
1000
0000
1000
0010
,
0000
2010
0000
0100
0000
0100
0000
0010
,
0000
3010
0001
0100
0001
0000
0001
0010
,
0000
0120
0000
0100
0000
0100
0000
0001
,
0000
0031
0000
0010
1000
0000
0001
0020
,
0000
0000
0200
0000
,
0000
0000
0330
0000
1001
0000
0001
0100
,
0001
0100
1000
0100
0010
0100
0010
0100
,
0001
0100
0000
0100
0010
1000
0100
0010
,
0001
0010
0100
1000
0001
0010
1000
0010
,
0001
0010
0001
0000
1010
0000
0100
1000
,
0100
1000
0010
1000
0100
0010
0001
1000
,
0010
1000
0000
1000
0100
0001
0010
0001
,
0010
0100
0010
0000
1000
1000
1000
0100
,
0001
0001
0001
0000
0101
0000
1000
0100
,
0001
0100
1000
0000
0001
0001
0001
0010
,
1000
1000
1000
0000
1100
0000
0010
0100
,
0010
0001
0010
0000
1000
1000
1000
0100
,
0001
0001
0001
0000
0101
0000
0010
0100
,
1000
0000
1000
0100
0100
1000
0100
0001
,
0001
0010
0001
0000
0110
0000
0001
0100
,
0010
0100
1000
0000
1000
0100
0010
0001
,
0010
0100
1000
1000
0000
0000
0000
0000
;

//---------------dance-single - ----------------
#NOTES:
     dance-single:
     :
     Easy:
     5:
     0.360,0.463,0.149,0.271,0.020:
0000
0000
0000
0000
,
0000
0000
0000
0000
,
0000
0000
0000
0000
,
0000
0000
0000
0000
,
0000
0000
0000
0000
,
0000
0000
0000
0000
,
0000
0000
0000
0000
,
0000
0000
0000
0000
,
0100
0000
0000
1000
0000
1100
0000
0000
,
0000
0000
0000
0000
0000
0000
0000
0100
,
0100
0000
0000
0001
0000
0101
0000
0000
,
0000
0000
0000
0000
,
0001
0000
0000
0010
0000
0110
0000
0000
,
0000
0000
0000
0000
0000
0000
0000
1000
,
1000
0000
0000
0001
0000
0101
0000
0000
,
0000
0000
0000
0000
,
1001
0000
0001
0010
0000
0010
0001
1000
,
0001
0000
0001
1000
0000
1000
0010
0001
,
0010
0000
1000
0100
0000
0100
0001
1000
,
0001
0000
0001
0010
0000
0010
0001
0100
,
0001
0000
0010
1000
0000
1000
0010
0100
,
0010
0000
0010
0001
0000
0001
1000
0100
,
1000
0000
1000
0010
0000
0010
0100
0000
,
0220
0000
0330
0000
,
0010
1000
0020
0000
0000
0000
0030
0000
,
0100
0010
0200
0000
0000
0000
0300
0000
,
1000
0001
2000
0000
0000
0000
3000
0000
,
0001
0010
0002
0000
0000
0000
0003
0000
,
0100
1000
0200
0000
0000
0000
0310
0000
,
0010
0100
0020
0000
0000
0000
1030
0000
,
0001
1000
0002
0000
0000
0000
0013
0000
,
0100
0010
0200
0000
0000
0000
1300
0000
,
0010
0001
0020
0000
1000
0000
1030
0000
,
0100
1000
0200
0000
0010
0000
0310
0000
,
1000
0001
2000
0000
0010
0000
3010
0000
,
0001
1000
0002
0000
0100
0000
0103
0000
,
0020
0000
0030
0000
,
2000
0000
3000
0000
,
0002
0000
0003
0000
,
0200
0300
0000
0000
,
0000
0000
0000
0000
,
0000
0000
0002
0000
,
0200
0300
0020
0003
,
2030
0000
0200
3000
,
0302
0000
2000
0000
,
0000
0000
0000
0000
0000
0000
3003
0000
0020
0000
0000
0000
0000
0000
0100
0130
,
0000
0000
0000
0000
0000
0001
0010
1000
,
0100
0000
0010
0010
0000
0000
0100
0000
1000
0000
0001
0000
1000
0000
0100
0100
,
0000
0000
0000
1000
0002
0000
0000
1003
,
0100
0010
0001
0000
0110
0010
0100
0001
,
0100
1000
0010
0001
0100
0010
0010
0010
,
0000
0000
0100
0100
0000
0000
0000
1000
0001
0000
0100
0000
0001
0000
1000
0000
,
0100
0000
1000
0000
0100
0000
0010
0001
0010
0000
1000
0000
0010
0000
0000
0000
,
0001
0010
1000
0000
1001
0000
0010
0020
,
0000
2000
0000
0000
0000
0000
0000
0000
,
0000
3030
0000
0000
0101
0000
0100
0200
,
0000
2000
0000
0000
0000
0000
0000
0000
,
0300
3010
0010
0000
0110
0000
0100
0200
,
0000
0002
0000
0000
0000
0000
0000
0000
,
0000
0303
0000
0000
1010
0000
1000
2000
,
0000
0002
0000
0000
0000
0000
0000
0000
,
0000
3003
0000
0000
0110
0000
0010
0100
,
0000
0201
0000
0000
0000
0000
0000
0000
,
1000
0000
0000
1000
1300
0000
1000
0010
,
0000
2010
0000
0000
0000
0000
0001
0000
,
0000
0001
3001
0000
0101
0000
0100
0010
,
0000
0120
0000
0000
0000
0000
0000
0000
,
1000
0000
0000
1000
1030
0000
0001
0002
,
0000
0000
0200
0000
,
0000
0000
0303
0000
1001
0000
0001
0100
,
0001
0100
0001
0000
0010
0100
0010
0100
,
0010
1000
0000
1000
0100
1000
0100
0010
,
0100
0010
0100
0000
0001
0010
0001
0100
,
0001
0010
0001
0000
1010
0000
0100
1000
,
0001
1000
0001
0000
0010
0100
0010
1000
,
0010
1000
0000
1000
0100
0001
0010
0001
,
0010
0100
0010
0000
1000
1000
1000
0000
,
0010
0010
0010
0000
0101
0000
0001
0100
,
0001
0100
0010
0000
0001
0001
0001
0000
,
1000
1000
1000
0000
1100
0000
0010
1000
,
0010
0001
0010
0000
1000
1000
1000
0000
,
0001
0001
0001
0000
0101
0000
0010
0100
,
1000
0100
0010
0000
1000
0100
1000
0000
,
0001
0100
0001
0000
0110
0000
0001
0100
,
0010
0100
1000
0000
0010
0100
0010
0001
,
0010
0100
1000
1000
0000
0000
0000
0000
;
